osu file format v9

[General]
AudioFilename: angel dream.mp3
AudioLeadIn: 1996
PreviewTime: 54815
Countdown: 0
SampleSet: Normal
StackLeniency: 0.7
Mode: 0
LetterboxInBreaks: 1

[Editor]
DistanceSpacing: 1.2
BeatDivisor: 4
GridSize: 8

[Metadata]
Title:Angel Dream
Artist:Takamitsu Yoko
Creator:Ra-s
Version:Muzukashii
Source:Taiko no Tatsujin
Tags:

[Difficulty]
HPDrainRate:3
CircleSize:4
OverallDifficulty:5
ApproachRate:7
SliderMultiplier:1.4
SliderTickRate:1

[Events]
//Background and Video events
0,0,"BG.png"
//Break Periods
//Storyboard Layer 0 (Background)
//Storyboard Layer 1 (Fail)
//Storyboard Layer 2 (Pass)
//Storyboard Layer 3 (Foreground)
Sprite,Foreground,Centre,"lyrhare.png",320,435 M,0,12149,17482,320,435
Sprite,Foreground,Centre,"lyrtenshi.png",320,435 M,0,17482,22816,320,435
Sprite,Foreground,Centre,"lyrkaze.png",320,435 M,0,22816,28149,320,435
Sprite,Foreground,Centre,"lyryaku.png",320,435 M,0,33816,44482,320,435
Sprite,Foreground,Centre,"lyrshinkyu.png",320,435 M,0,44482,55149,320,435
Sprite,Foreground,Centre,"lyronaji.png",320,435 M,0,60482,65816,320,435
Sprite,Foreground,Centre,"lyrkimi.png",320,435 M,0,28149,33816,320,435
Sprite,Foreground,Centre,"lyrteto.png",320,435 M,0,55149,60482,320,435
Sprite,Foreground,Centre,"lyrmeto.png",320,435 M,0,65816,71149,320,435
Sprite,Foreground,Centre,"lyrkodo.png",320,435 M,0,71149,76482,320,435
Sprite,Foreground,Centre,"lyryuyake.png",320,435 M,0,87149,97816,320,435
Sprite,Foreground,Centre,"lyrashta.png",320,435 M,0,97816,108482,320,435
Sprite,Foreground,Centre,"lyrwish.png",320,435 M,0,108482,111149,320,435
Sprite,Foreground,Centre,"lyrangel.png",320,435 M,0,111149,113816,320,435
Sprite,Foreground,Centre,"lyrniji.png",320,435 M,0,113816,119149,320,435
Sprite,Foreground,Centre,"lyrteto.png",320,435 M,0,119149,124482,320,435
Sprite,Foreground,Centre,"lyraisat.png",320,435 M,0,124482,129816,320,435
Sprite,Foreground,Centre,"lyrmeto.png",320,435 M,0,129816,135149,320,435
Sprite,Foreground,Centre,"lyrkodo.png",320,435 M,0,135149,140149,320,435
//Storyboard Sound Samples
//Background Colour Transformations
3,100,255,179,255

[TimingPoints]
488,333.333333333333,4,1,1,50,1,0
55154,-100,4,1,1,50,0,1
76487,-100,4,1,1,50,0,0
119154,-100,4,1,1,50,0,1
141487,-100,4,1,1,50,0,1
141821,-100,4,1,1,50,0,0

[Colours]
Combo1 : 255,255,255
Combo2 : 255,128,255
Combo3 : 128,255,0
Combo4 : 0,128,255

[HitObjects]
256,192,1821,1,4
256,192,3154,1,4
256,192,4487,1,4
256,192,5821,1,4
256,192,6487,1,4
256,192,7154,5,0
144,72,7487,1,0
24,192,7821,1,0
144,312,8154,1,0
200,256,8321,1,8
256,192,8487,1,0
368,72,8821,5,0
480,192,9154,1,0
368,312,9487,1,0
312,256,9654,1,8
256,192,9821,1,0
256,360,10154,5,0
136,72,10487,2,0,B|216:72,1,70,0|8
376,72,10821,2,0,B|296:72,1,70,0|8
256,232,11321,5,4
184,192,11488,1,4
112,232,11654,1,4
40,192,11821,1,4
376,192,12488,6,0,B|440:128|368:64,1,140,0|8
456,208,13154,1,0
480,288,13321,1,0
400,272,13488,1,8
256,192,13821,2,0,B|168:192,1,70
144,264,14154,2,0,B|224:264,1,70,8|0
256,104,14654,1,0
256,16,14821,1,8
112,104,15154,6,0,B|56:152|56:232,1,140,0|8
224,192,15821,1,0
192,112,15988,1,0
144,184,16154,1,8
256,264,16488,2,0,B|336:264,2,70,0|0|8
256,352,16988,1,0
256,184,17321,2,0,B|336:184,1,70,0|8
496,192,17821,5,0
496,24,18154,1,8
328,24,18488,1,0
412,24,18654,1,0
496,24,18821,1,8
328,24,19154,2,0,B|328:104,1,70
248,64,19487,2,0,B|248:144,1,70,8|0
408,192,19987,2,0,B|336:192,1,70,0|8
168,192,20487,6,0,B|24:192,1,140,0|8
168,280,21154,1,0
168,280,21321,2,8,B|248:280,1,70,0|8
408,280,21821,1,0
256,56,23154,5,0
344,56,23321,2,0,B|416:56,1,70,8|0
376,128,23654,2,0,B|288:128,1,70,8|0
216,128,23987,1,8
256,200,24154,1,0
344,200,24321,1,8
392,272,24487,1,0
344,336,24654,1,8
272,296,24821,6,0,B|272:376,1,70,0|8
200,320,25154,2,0,B|200:240,1,70,0|8
112,248,25487,2,0,B|104:200|152:152|216:168,1,140
248,232,25987,5,8
328,224,26154,1,0
344,144,26321,1,8
264,112,26487,1,0
200,168,26654,1,8
136,112,26821,1,0
152,32,26987,5,8
240,32,27154,1,0
328,56,27321,1,8
408,88,27487,2,0,B|456:152|408:224,1,140
480,272,27987,1,8
408,312,28154,2,0,B|360:376|280:376,1,140
256,296,28654,5,8
256,208,28821,2,0,B|176:208,1,70,0|8
184,296,29154,2,0,B|112:296,1,70,0|8
112,208,29487,2,0,B|72:200|64:160,2,70,0|8|0
184,160,29987,5,8
224,88,30154,1,0
312,88,30321,1,8
360,160,30487,1,0
272,160,30654,1,8
272,160,30821,2,0,B|264:248|200:296,1,140
256,360,31321,5,8
328,312,31487,2,0,B|472:312,1,140
424,240,31987,1,8
472,168,32154,1,0
424,96,32321,1,8
472,24,32487,1,0
40,192,33821,5,0
292,192,34321,1,0
292,275,34487,2,0,B|452:275,1,140,0|8
432,190,34987,2,0,B|288:190,1,140
148,280,35654,1,0
148,195,35821,1,0
480,192,36487,5,0
256,72,36987,1,0
344,72,37154,2,0,B|384:144|336:216,1,140,0|8
256,208,37654,2,0,B|256:352,1,140
88,352,38321,1,0
152,296,38487,1,0
88,240,38654,1,8
152,184,38821,2,0,B|176:112|256:96,1,140,8|0
488,192,39654,6,0,B|400:192,1,70
424,24,40154,2,0,B|424:112,1,70,8|0
272,24,40654,2,0,B|232:96|160:136,1,140
96,128,41154,2,0,B|33:190,2,70,0|8|8
96,296,41821,5,0
432,296,42488,1,8
96,296,43154,1,8
256,192,44488,6,0,B|328:232|400:184,1,140
320,136,44988,1,0
384,80,45154,2,0,B|312:40|240:88,1,140,8|0
184,136,45654,2,0,B|127:192,2,70,0|8|0
328,24,46321,2,0,B|256:24,1,70,0|8
88,24,46821,2,0,B|88:96,2,70,8|0|0
256,192,47654,5,8
256,192,47821,1,0
512,192,48321,5,8
512,192,48488,1,0
0,192,48988,1,8
0,192,49154,1,0
256,192,49488,1,8
112,192,49821,6,0,B|152:16|368:16|400:200,2,420
256,336,52488,6,0,B|200:336,2,35
256,248,52821,2,0,B|312:248,2,35
168,248,53154,2,0,B|112:248,2,35
256,104,53654,1,4
88,104,53988,1,4
88,192,54154,1,4
384,192,55154,6,0,B|384:256|304:256|304:190,1,140
176,80,55821,1,0
216,8,55988,1,8
256,80,56154,1,0
296,8,56321,1,8
336,80,56488,1,0
256,232,56821,2,0,B|256:280,4,35
128,192,57821,6,0,B|128:128|208:128|208:196,1,140
336,304,58488,1,0
296,376,58654,1,8
256,304,58821,1,0
216,376,58988,1,8
176,304,59154,1,0
256,152,59488,2,8,B|256:104,4,35
408,192,60488,6,0,B|408:48,1,140
312,192,61154,2,0,B|312:272,1,70,0|8
240,312,61488,2,0,B|240:240,1,70,0|8
240,160,61821,1,0
72,192,62154,2,0,B|32:192,4,35
240,160,62821,6,8,B|240:104,2,35
328,160,63154,1,0
240,304,63488,2,8,B|240:352,2,35
152,304,63821,1,0
304,240,64154,2,8,B|352:240,2,35
240,184,64488,2,0,B|80:184,3,140
240,280,65821,6,0,B|304:336|376:272,1,140
272,104,66488,2,0,B|208:48|136:112,1,140
104,176,66988,1,8
56,248,67154,1,0
144,248,67321,1,8
192,176,67488,1,0
16,176,67821,2,0,B|16:120,4,35
104,40,68488,6,0,B|256:40,1,140
248,208,69154,2,0,B|392:208,1,140
464,168,69654,1,8
392,128,69821,1,0
464,88,69988,1,8
392,48,70154,1,0
224,48,70488,2,8,B|168:48,4,35
256,216,71154,6,0,B|208:176|176:272|112:224,1,140
280,296,71821,2,0,B|328:296|328:248,1,70,0|8
304,176,72154,2,0,B|256:176|256:224,1,70,0|8
280,296,72488,1,0
304,176,72821,2,0,B|304:136,4,35
256,344,73821,6,0,B|216:344,4,35
128,224,74488,2,0,B|88:224,4,35
256,8,75321,5,4
192,120,75488,1,4
264,224,75654,1,4
192,328,75821,1,4
256,8,76488,6,0,B|336:8,1,70,0|8
368,80,76821,2,0,B|296:80,1,70,0|8
256,152,77154,2,0,B|336:152,1,70,0|8
296,232,77488,2,0,B|368:272|440:224,1,140
472,160,77988,1,8
456,80,78154,2,0,B|400:144,1,70,0|8
328,120,78488,2,0,B|384:56,1,70,0|8
296,48,78821,2,0,B|224:8|152:56,1,140
96,96,79321,5,8
160,144,79487,1,0
96,192,79654,1,8
160,248,79821,1,0
96,296,79987,1,8
160,352,80154,2,0,B|232:360,1,70,0|8
288,296,80487,2,0,B|208:296,1,70,0|8
264,224,80821,2,0,B|336:216,1,70,0|8
400,168,81154,5,0
296,112,81321,1,8
400,64,81487,1,0
144,72,81821,6,0,B|64:72,1,70,0|8
112,144,82154,2,0,B|48:176,1,70,0|8
120,224,82487,2,0,B|72:288,1,70,0|8
160,296,82821,2,0,B|200:360|312:352,1,140
328,280,83321,5,8
328,200,83487,2,0,B|240:200,1,70,0|8
216,128,83821,2,0,B|296:128,1,70,0|8
368,128,84154,2,0,B|440:88|512:136,1,140
432,184,84654,1,8
408,264,84821,2,0,B|384:344,1,70,0|8
328,280,85154,2,0,B|272:336,1,70,0|8
216,280,85487,5,0
272,216,85654,1,8
216,152,85821,1,0
160,216,85987,2,0,B|80:216,1,70,8|0
32,152,86321,2,0,B|32:112,2,35,8|8|0
344,72,87154,5,0
344,240,87654,1,8
432,240,87821,1,8
184,192,88321,1,0
16,192,88654,1,0
96,344,88987,1,8
96,264,89154,1,8
424,192,89821,5,0
176,192,90321,1,8
264,192,90487,1,8
16,192,90987,2,0,B|16:48,1,140
96,192,91654,1,8
96,192,91821,1,8
432,200,92487,5,0
256,376,92987,2,8,B|256:296,1,70
32,192,93654,2,0,B|104:152|176:200,1,140
336,192,94321,2,8,B|264:192,1,70
32,88,94987,6,0,B|104:88,1,70,8|0
256,288,95654,2,0,B|256:208,1,70,8|0
8,192,96321,2,0,B|88:192,1,70,8|0
328,192,96987,2,0,B|400:192,1,70,8|0
64,192,97821,5,0
256,360,98321,1,8
256,280,98487,1,8
256,32,98987,2,0,B|400:32,1,140
396,200,99654,2,8,B|396:120,1,70
256,192,100487,5,0
256,192,101154,1,0
256,192,101821,1,0
256,192,102487,1,0
256,192,103154,5,0
376,72,103487,1,0
496,192,103821,1,0
376,312,104154,1,0
256,192,104487,5,0
200,256,104654,1,0
152,192,104821,1,0
96,128,104987,1,0
48,192,105154,1,0
96,256,105321,2,0,B|96:336,1,70
176,344,105654,1,0
256,312,105821,6,0,B|296:312,2,35
304,240,106154,2,0,B|352:240,2,35
352,168,106487,2,0,B|400:168,2,35
256,24,106987,5,4
256,192,107321,1,4
256,108,107487,1,4
256,192,108487,5,4
256,192,109821,1,4
256,192,111154,5,4
256,192,112487,5,4
424,192,113154,1,4
88,192,113821,5,4
168,336,114154,1,8
336,336,114487,1,4
424,192,114821,1,8
336,48,115154,1,4
168,48,115487,1,8
88,192,115821,1,4
168,336,116154,1,8
256,192,116487,6,4,B|480:192|480:384|256:384,1,420
120,288,117821,1,4
200,288,117987,1,4
368,288,118321,1,4
200,288,118654,1,4
256,40,119154,5,0
424,40,119487,2,0,B|400:112|320:168,1,140
304,224,119987,1,8
256,152,120154,1,0
208,224,120321,1,8
160,152,120487,1,0
256,296,120821,2,0,B|256:352,4,35
256,152,121487,1,12
416,192,121821,5,0
416,24,122154,2,0,B|272:24,1,140
216,88,122654,1,8
160,24,122821,1,0
104,88,122987,1,8
48,24,123154,1,0
160,152,123487,2,8,B|160:208,4,35
256,288,124154,1,4
392,192,124487,6,0,B|448:160|448:80|416:48,1,140
312,192,125154,1,0
232,208,125321,1,8
288,264,125487,1,0
208,280,125654,1,8
264,336,125821,1,0
432,336,126154,2,0,B|472:336,4,35
264,336,126821,2,8,B|232:360,2,35,8|8|8
348,336,127154,5,0
344,168,127487,2,8,B|344:120,2,35
344,252,127821,1,0
176,256,128154,2,8,B|128:256,2,35
256,280,128487,6,0,B|330:365|358:179|443:275,2,210
344,192,129821,5,0
168,192,130154,1,0
344,192,130487,1,0
168,192,130821,1,0
216,264,130987,1,8
256,192,131154,1,0
296,264,131321,1,8
344,192,131487,1,0
296,120,131654,1,8
216,120,131821,2,0,B|216:72,4,35
64,192,132487,5,0
136,344,132821,1,0
208,192,133154,2,0,B|208:128|288:128|288:196,1,140,0|0
248,264,133654,1,8
288,336,133821,1,0
336,264,133987,1,8
384,336,134154,1,0
424,264,134321,1,8
384,192,134487,2,8,B|384:144,4,35
256,80,135154,5,0
88,248,135487,2,0,B|232:248,1,140
228,332,135987,1,8
304,296,136154,1,0
304,208,136321,1,8
232,160,136487,2,0,B|152:160,1,70,0|8
80,160,136821,2,0,B|32:160,4,35
232,88,137487,5,8
400,88,137821,2,0,B|448:88,4,35
400,256,138487,2,0,B|400:304,4,35
144,264,139321,5,4
80,152,139487,1,4
144,48,139654,1,4
208,152,139821,1,4
368,264,140654,5,4
432,152,140821,1,4
368,48,140987,1,4
304,152,141154,1,4
256,312,141487,5,12
