osu file format v9

[General]
AudioFilename: angel dream.mp3
AudioLeadIn: 1996
PreviewTime: 54815
Countdown: 0
SampleSet: Normal
StackLeniency: 0.7
Mode: 0
LetterboxInBreaks: 1

[Editor]
DistanceSpacing: 1
BeatDivisor: 4
GridSize: 8

[Metadata]
Title:Angel Dream
Artist:Takamitsu Yoko
Creator:Ra-s
Version:Easy
Source:Taiko no Tatsujin
Tags:

[Difficulty]
HPDrainRate:0
CircleSize:3
OverallDifficulty:0
ApproachRate:2
SliderMultiplier:0.799999999999999
SliderTickRate:1

[Events]
//Background and Video events
0,0,"BG.png"
//Break Periods
2,34021,40261
2,44688,50928
2,76354,85594
2,108687,112261
//Storyboard Layer 0 (Background)
//Storyboard Layer 1 (Fail)
//Storyboard Layer 2 (Pass)
//Storyboard Layer 3 (Foreground)
Sprite,Foreground,Centre,"lyrhare.png",320,435 M,0,12149,17482,320,435
Sprite,Foreground,Centre,"lyrtenshi.png",320,435 M,0,17482,22816,320,435
Sprite,Foreground,Centre,"lyrkaze.png",320,435 M,0,22816,28149,320,435
Sprite,Foreground,Centre,"lyryaku.png",320,435 M,0,33816,44482,320,435
Sprite,Foreground,Centre,"lyrshinkyu.png",320,435 M,0,44482,55149,320,435
Sprite,Foreground,Centre,"lyronaji.png",320,435 M,0,60482,65816,320,435
Sprite,Foreground,Centre,"lyrkimi.png",320,435 M,0,28149,33816,320,435
Sprite,Foreground,Centre,"lyrteto.png",320,435 M,0,55149,60482,320,435
Sprite,Foreground,Centre,"lyrmeto.png",320,435 M,0,65816,71149,320,435
Sprite,Foreground,Centre,"lyrkodo.png",320,435 M,0,71149,76482,320,435
Sprite,Foreground,Centre,"lyryuyake.png",320,435 M,0,87149,97816,320,435
Sprite,Foreground,Centre,"lyrashta.png",320,435 M,0,97816,108482,320,435
Sprite,Foreground,Centre,"lyrwish.png",320,435 M,0,108482,111149,320,435
Sprite,Foreground,Centre,"lyrangel.png",320,435 M,0,111149,113816,320,435
Sprite,Foreground,Centre,"lyrniji.png",320,435 M,0,113816,119149,320,435
Sprite,Foreground,Centre,"lyrteto.png",320,435 M,0,119149,124482,320,435
Sprite,Foreground,Centre,"lyraisat.png",320,435 M,0,124482,129816,320,435
Sprite,Foreground,Centre,"lyrmeto.png",320,435 M,0,129816,135149,320,435
Sprite,Foreground,Centre,"lyrkodo.png",320,435 M,0,135149,140149,320,435
//Storyboard Sound Samples
//Background Colour Transformations
3,100,255,179,255

[TimingPoints]
488,333.333333333333,4,1,0,50,1,0
55154,-100,4,1,0,50,0,1
58404,-100,4,1,2,50,0,1
58654,-100,4,1,0,50,0,1
70404,-100,4,1,2,50,0,1
70654,-100,4,1,0,50,0,1
76154,-100,4,1,0,50,0,0
107987,-100,4,1,0,76,0,0
108321,-100,4,1,0,50,0,0
119154,-100,4,1,0,50,0,1
141487,-100,4,1,0,50,0,0

[Colours]
Combo1 : 255,255,255
Combo2 : 255,128,255
Combo3 : 128,255,0
Combo4 : 0,128,255

[HitObjects]
256,192,1821,1,4
256,192,4487,1,4
416,192,7154,6,0,B|416:280,1,79.9999999999999,4|0
416,352,7821,1,0
336,352,8154,2,0,B|296:368|248:344,1,79.9999999999999
258,268,8821,1,0
201,211,9154,2,8,B|201:155,2,40
144,267,9821,5,0
87,210,10154,2,0,B|87:114,1,79.9999999999999
87,49,10821,1,0
207,49,11321,2,2,B|255:49,3,40
247,128,12154,1,0
303,184,12488,6,0,B|319:232|375:248,1,79.9999999999999,4|0
392,168,13154,2,0,B|376:120|320:104,1,79.9999999999999
336,32,13821,2,0,B|160:32,1,160
96,32,14821,1,0
96,112,15154,6,0,B|8:112,2,79.9999999999999
96,192,16154,1,0
176,192,16488,2,0,B|256:240|336:184,1,160
384,128,17488,1,0
320,64,17821,6,0,B|240:16|160:72,1,160,4|0
88,72,18821,1,0
88,72,19154,2,0,B|80:120|40:152,2,79.9999999999999
168,72,20154,1,0
248,72,20487,5,4
248,152,20821,1,0
328,152,21154,1,0
328,232,21487,2,0,B|240:232,1,79.9999999999999,0|2
168,232,22154,2,0,B|168:320,1,79.9999999999999,0|2
248,344,22821,1,0
328,344,23154,6,0,B|496:344,1,160,4|0
488,264,24154,1,0
488,264,24487,2,0,B|488:168|400:144,1,160
400,240,25487,1,0
320,240,25821,6,0,B|144:240,1,160,4|0
160,160,26821,1,0
160,80,27154,1,0
40,200,27821,1,0
40,200,28154,1,0
40,280,28487,6,0,B|64:360|176:384,1,160,4|0
240,376,29487,1,0
240,376,29821,2,0,B|216:296|104:272,1,160,0|0
123,196,30821,1,0
202,196,31154,2,0,B|370:196,1,160
362,276,32154,1,0
441,276,32487,1,0
440,112,33154,1,0
280,112,33821,5,4
256,192,41821,6,0,B|360:192,1,79.9999999999999,2|0
416,192,42488,1,2
416,272,42821,2,0,B|416:320|456:344,2,79.9999999999999,0|2|0
336,272,43821,1,2
256,136,44488,5,4
40,104,52488,5,2
40,184,52821,1,0
120,184,53154,2,0,B|208:184,1,79.9999999999999,2|0
200,104,53821,1,2
200,104,54154,2,0,B|368:104,1,160
360,192,55154,6,0,B|360:288|480:328,2,160,12|8|8
280,192,56821,1,0
200,192,57154,2,0,B|32:192,1,160,8|12
40,272,58154,6,0,B|80:360|176:392,1,160
200,320,59154,1,8
280,320,59488,2,0,B|368:320,1,79.9999999999999,0|8
360,240,60154,1,0
280,176,60488,6,0,B|360:136|448:184,2,160,12|8|8
280,95,62154,1,0
280,95,62488,2,0,B|112:95,1,160,8|8
63,151,63488,1,0
119,207,63821,1,8
62,263,64154,1,0
120,320,64488,1,8
8,208,65154,1,8
176,192,65821,5,12
256,192,66154,1,0
336,192,66488,2,0,B|384:192,2,40,8|0|0
336,272,67154,2,0,B|336:320,2,40,8|0|0
256,272,67821,1,8
256,272,68154,2,0,B|168:272,1,79.9999999999999,0|12
96,272,68821,6,0,B|96:184,1,79.9999999999999,0|8
96,112,69488,2,0,B|48:112,2,40,0|0|8
176,112,70154,2,0,B|256:80|352:120,1,160
360,192,71154,5,12
360,192,71488,2,0,B|360:280|440:352,1,160
480,280,72488,2,0,B|480:112,1,160,8|8
424,64,73488,1,0
344,64,73821,6,0,B|352:160|184:168|192:56,1,240,8|0
72,64,75321,6,2,B|72:120,3,40
72,184,76154,1,0
96,192,87154,6,0,B|264:192,2,160,4|0|0
96,272,88821,1,0
176,272,89154,2,0,B|256:320|336:264,1,160
376,208,90154,5,0
376,208,90487,2,0,B|376:128|440:48,1,160
352,32,91487,1,0
352,32,91821,2,0,B|288:80|200:96,1,160,0|4
128,96,92821,1,0
80,160,93154,6,0,B|21:160|16:272|88:272,1,160
136,216,94154,1,0
216,216,94487,2,0,B|216:304,2,79.9999999999999,0|0|4
376,216,95821,1,0
376,56,96487,1,0
216,56,97154,1,0
216,216,97821,6,0,B|216:384,1,160,4|0
135,376,98821,1,0
135,376,99154,2,0,B|135:208,1,160
176,144,100154,1,0
176,144,100487,1,0
328,192,101154,6,0,B|408:152|496:200,1,160
448,264,102154,1,0
448,264,102487,2,0,B|432:312|392:336,1,79.9999999999999
256,192,103154,12,0,105154
256,192,105821,5,4
328,232,106154,1,0
256,272,106487,1,0
184,232,106821,1,0
120,184,107154,2,0,B|120:136,2,40
256,104,108154,5,4
256,24,108487,1,4
128,192,113821,6,0,B|128:16,1,160,4|0
256,128,115154,2,0,B|256:312,1,160,4|0
336,288,116154,1,0
336,288,116487,2,0,B|416:328|504:280,2,160,4|0|4
408,192,118321,1,2
408,192,118654,1,2
408,72,119154,6,0,B|240:72,1,160,12|8
168,72,120154,1,0
168,72,120487,2,0,B|128:96|128:192|176:224,1,160,8|8
256,216,121487,1,0
256,304,121821,6,0,B|424:304,1,160,12|8
416,136,123154,2,0,B|248:136,1,160,8|8
176,136,124154,1,0
96,136,124487,6,0,B|48:216|104:296,1,160,12|8
176,288,125487,1,0
176,288,125821,2,0,B|216:312|264:280,1,79.9999999999999,8|0
336,288,126487,1,8
256,192,127154,12,8,129154
176,192,129821,5,12
256,192,130154,2,0,B|344:192,1,79.9999999999999,0|8
336,272,130821,2,0,B|424:272,1,79.9999999999999,0|8
416,352,131487,1,0
416,352,131821,2,0,B|248:352,1,160,8|12
176,352,132821,5,0
176,352,133154,2,0,B|96:304|88:208,1,160,8|8
170,223,134154,1,0
224,288,134487,1,8
280,224,134821,1,0
336,288,135154,6,0,B|504:288,1,160,12|8
480,208,136154,1,0
480,208,136487,2,0,B|392:176|392:80,1,160,8|0
312,88,137487,1,0
232,88,137821,6,0,B|144:88,1,79.9999999999999,2|0
152,168,138487,2,0,B|152:256,2,79.9999999999999,2|0|0
256,192,139321,12,0,141487
