osu file format v14

[General]
AudioFilename: angel dream.mp3
AudioLeadIn: 0
PreviewTime: -1
Countdown: 0
SampleSet: None
StackLeniency: 0.7
Mode: 3
LetterboxInBreaks: 0
SpecialStyle: 0
WidescreenStoryboard: 0

[Editor]
DistanceSpacing: 1.2
BeatDivisor: 4
GridSize: 8
TimelineZoom: 1.6

[Metadata]
Title:Angel Dream
TitleUnicode:エンジエルドリイム
Artist:Takamitsu Yoko
ArtistUnicode:Takamitsu Yoko
Creator:OzzyOzrock
Version:9K HYPER 38
Source:Taiko no Tatsujin
Tags:ANGELIC DRUMS
BeatmapID:1493660
BeatmapSetID:706359

[Difficulty]
HPDrainRate:5
CircleSize:9
OverallDifficulty:7
ApproachRate:6
SliderMultiplier:1.4
SliderTickRate:1

[Events]
//Background and Video events
0,0,"poetknowit.jpg",0,0
//Break Periods
//Storyboard Layer 0 (Background)
//Storyboard Layer 1 (Fail)
//Storyboard Layer 2 (Pass)
//Storyboard Layer 3 (Foreground)
//Storyboard Sound Samples

[TimingPoints]
488,333.333333333333,4,2,0,100,1,0
55154,-100,4,2,0,100,0,1
76487,-100,4,2,0,100,0,0
119154,-100,4,2,0,100,0,1
141487,-100,4,2,0,100,0,0

[HitObjects]
426,192,488,5,0,0:0:0:0:
312,192,571,1,0,0:0:0:0:
426,192,654,1,0,0:0:0:0:
312,192,821,1,0,0:0:0:0:
199,192,904,1,0,0:0:0:0:
312,192,987,1,0,0:0:0:0:
199,192,1154,1,0,0:0:0:0:
85,192,1237,1,0,0:0:0:0:
199,192,1321,1,0,0:0:0:0:
483,192,1487,1,0,0:0:0:0:
369,192,1571,1,0,0:0:0:0:
256,192,1654,1,0,0:0:0:0:
142,192,1737,1,0,0:0:0:0:
28,192,1821,1,0,0:0:0:0:
483,192,1821,1,0,0:0:0:0:
369,192,1987,1,0,0:0:0:0:
312,192,2154,1,0,0:0:0:0:
369,192,2321,1,0,0:0:0:0:
483,192,2487,1,0,0:0:0:0:
369,192,2654,1,0,0:0:0:0:
369,192,2987,1,0,0:0:0:0:
256,192,3321,1,0,0:0:0:0:
28,192,3321,1,0,0:0:0:0:
199,192,3487,1,0,0:0:0:0:
256,192,3654,1,0,0:0:0:0:
28,192,3821,1,0,0:0:0:0:
426,192,3821,1,0,0:0:0:0:
256,192,3987,1,0,0:0:0:0:
142,192,3987,1,0,0:0:0:0:
142,192,4154,1,0,0:0:0:0:
256,192,4321,1,0,0:0:0:0:
28,192,4487,1,0,0:0:0:0:
199,192,4487,1,0,0:0:0:0:
142,192,4654,1,0,0:0:0:0:
85,192,4821,1,0,0:0:0:0:
142,192,4987,1,0,0:0:0:0:
312,192,5154,1,0,0:0:0:0:
142,192,5321,1,0,0:0:0:0:
142,192,5654,1,0,0:0:0:0:
312,192,5987,1,0,0:0:0:0:
426,192,5987,1,0,0:0:0:0:
142,192,6154,1,0,0:0:0:0:
369,192,6321,1,0,0:0:0:0:
256,192,6321,1,0,0:0:0:0:
142,192,6487,1,0,0:0:0:0:
426,192,6487,1,0,0:0:0:0:
312,192,6654,1,0,0:0:0:0:
199,192,6654,1,0,0:0:0:0:
426,192,6821,1,0,0:0:0:0:
312,192,6904,1,0,0:0:0:0:
199,192,6987,1,0,0:0:0:0:
28,192,7154,1,0,0:0:0:0:
312,192,7154,1,0,0:0:0:0:
426,192,7154,1,0,0:0:0:0:
483,192,7321,1,0,0:0:0:0:
85,192,7487,1,0,0:0:0:0:
426,192,7487,1,0,0:0:0:0:
483,192,7654,1,0,0:0:0:0:
28,192,7821,1,0,0:0:0:0:
369,192,7821,1,0,0:0:0:0:
483,192,7987,1,0,0:0:0:0:
85,192,8154,1,0,0:0:0:0:
483,192,8321,1,0,0:0:0:0:
28,192,8487,1,0,0:0:0:0:
483,192,8654,1,0,0:0:0:0:
85,192,8821,1,0,0:0:0:0:
369,192,8821,1,0,0:0:0:0:
483,192,8987,1,0,0:0:0:0:
28,192,9154,1,0,0:0:0:0:
312,192,9154,1,0,0:0:0:0:
199,192,9321,1,0,0:0:0:0:
312,192,9321,1,0,0:0:0:0:
199,192,9487,1,0,0:0:0:0:
312,192,9487,1,0,0:0:0:0:
483,192,9821,1,0,0:0:0:0:
369,192,9904,1,0,0:0:0:0:
483,192,9987,1,0,0:0:0:0:
369,192,10154,1,0,0:0:0:0:
256,192,10237,1,0,0:0:0:0:
369,192,10321,1,0,0:0:0:0:
256,192,10487,1,0,0:0:0:0:
142,192,10571,1,0,0:0:0:0:
256,192,10654,1,0,0:0:0:0:
142,192,10821,1,0,0:0:0:0:
28,192,10904,1,0,0:0:0:0:
142,192,10987,1,0,0:0:0:0:
142,192,11321,1,0,0:0:0:0:
369,192,11321,1,0,0:0:0:0:
483,192,11321,1,0,0:0:0:0:
483,192,11487,1,0,0:0:0:0:
369,192,11487,1,0,0:0:0:0:
142,192,11487,1,0,0:0:0:0:
483,192,11654,1,0,0:0:0:0:
369,192,11654,1,0,0:0:0:0:
142,192,11654,1,0,0:0:0:0:
483,192,11821,1,0,0:0:0:0:
369,192,11821,1,0,0:0:0:0:
142,192,11821,1,0,0:0:0:0:
85,192,12154,1,0,0:0:0:0:
426,192,12154,1,0,0:0:0:0:
199,192,12154,1,0,0:0:0:0:
28,192,12487,1,0,0:0:0:0:
142,192,12487,1,0,0:0:0:0:
426,192,12821,1,0,0:0:0:0:
256,192,13154,1,0,0:0:0:0:
312,192,13321,1,0,0:0:0:0:
426,192,13487,1,0,0:0:0:0:
369,192,13654,1,0,0:0:0:0:
85,192,13821,1,0,0:0:0:0:
199,192,13821,1,0,0:0:0:0:
369,192,13987,1,0,0:0:0:0:
483,192,14154,1,0,0:0:0:0:
256,192,14487,1,0,0:0:0:0:
312,192,14821,1,0,0:0:0:0:
256,192,15154,1,0,0:0:0:0:
28,192,15154,1,0,0:0:0:0:
142,192,15154,1,0,0:0:0:0:
312,192,15487,1,0,0:0:0:0:
256,192,15821,1,0,0:0:0:0:
312,192,15987,1,0,0:0:0:0:
426,192,16154,1,0,0:0:0:0:
369,192,16321,1,0,0:0:0:0:
142,192,16487,1,0,0:0:0:0:
256,192,16487,1,0,0:0:0:0:
369,192,16654,1,0,0:0:0:0:
483,192,16821,1,0,0:0:0:0:
85,192,17154,1,0,0:0:0:0:
199,192,17154,1,0,0:0:0:0:
483,192,17487,1,0,0:0:0:0:
369,192,17654,1,0,0:0:0:0:
28,192,17821,1,0,0:0:0:0:
142,192,17821,1,0,0:0:0:0:
312,192,17821,1,0,0:0:0:0:
256,192,18154,1,0,0:0:0:0:
312,192,18321,1,0,0:0:0:0:
256,192,18487,1,0,0:0:0:0:
312,192,18654,1,0,0:0:0:0:
369,192,18821,1,0,0:0:0:0:
426,192,18987,1,0,0:0:0:0:
85,192,19154,1,0,0:0:0:0:
199,192,19154,1,0,0:0:0:0:
312,192,19321,1,0,0:0:0:0:
312,192,19487,1,0,0:0:0:0:
256,192,19821,1,0,0:0:0:0:
312,192,20154,1,0,0:0:0:0:
369,192,20321,1,0,0:0:0:0:
28,192,20487,1,0,0:0:0:0:
142,192,20487,1,0,0:0:0:0:
426,192,20487,1,0,0:0:0:0:
256,192,20821,1,0,0:0:0:0:
426,192,21154,1,0,0:0:0:0:
369,192,21321,1,0,0:0:0:0:
426,192,21487,1,0,0:0:0:0:
483,192,21654,1,0,0:0:0:0:
256,192,21821,1,0,0:0:0:0:
426,192,21987,1,0,0:0:0:0:
85,192,22321,1,0,0:0:0:0:
426,192,22654,1,0,0:0:0:0:
312,192,22821,1,0,0:0:0:0:
199,192,22987,1,0,0:0:0:0:
28,192,23154,1,0,0:0:0:0:
142,192,23154,1,0,0:0:0:0:
369,192,23154,1,0,0:0:0:0:
142,192,23487,1,0,0:0:0:0:
28,192,23821,1,0,0:0:0:0:
256,192,23821,1,0,0:0:0:0:
312,192,23987,1,0,0:0:0:0:
142,192,24154,1,0,0:0:0:0:
369,192,24154,1,0,0:0:0:0:
426,192,24321,1,0,0:0:0:0:
28,192,24487,1,0,0:0:0:0:
312,192,24654,1,0,0:0:0:0:
85,192,24821,1,0,0:0:0:0:
312,192,24821,1,0,0:0:0:0:
28,192,25154,1,0,0:0:0:0:
369,192,25154,1,0,0:0:0:0:
256,192,25487,1,0,0:0:0:0:
85,192,25487,1,0,0:0:0:0:
142,192,25821,1,0,0:0:0:0:
426,192,25821,1,0,0:0:0:0:
85,192,26154,1,0,0:0:0:0:
142,192,26487,1,0,0:0:0:0:
426,192,26487,1,0,0:0:0:0:
369,192,26654,1,0,0:0:0:0:
85,192,26821,1,0,0:0:0:0:
426,192,26821,1,0,0:0:0:0:
483,192,26987,1,0,0:0:0:0:
142,192,27154,1,0,0:0:0:0:
426,192,27321,1,0,0:0:0:0:
199,192,27487,1,0,0:0:0:0:
426,192,27487,1,0,0:0:0:0:
85,192,27821,1,0,0:0:0:0:
142,192,28154,1,0,0:0:0:0:
369,192,28154,1,0,0:0:0:0:
312,192,28321,1,0,0:0:0:0:
28,192,28487,1,0,0:0:0:0:
256,192,28487,1,0,0:0:0:0:
85,192,28821,1,0,0:0:0:0:
28,192,29154,1,0,0:0:0:0:
256,192,29154,1,0,0:0:0:0:
312,192,29321,1,0,0:0:0:0:
85,192,29487,1,0,0:0:0:0:
369,192,29487,1,0,0:0:0:0:
426,192,29654,1,0,0:0:0:0:
28,192,29821,1,0,0:0:0:0:
369,192,29987,1,0,0:0:0:0:
426,192,30154,1,0,0:0:0:0:
142,192,30154,1,0,0:0:0:0:
369,192,30321,1,0,0:0:0:0:
28,192,30487,1,0,0:0:0:0:
256,192,30821,1,0,0:0:0:0:
142,192,30821,1,0,0:0:0:0:
256,192,31154,1,0,0:0:0:0:
85,192,31154,1,0,0:0:0:0:
312,192,31487,1,0,0:0:0:0:
142,192,31487,1,0,0:0:0:0:
312,192,31821,5,0,0:0:0:0:
28,192,31821,1,0,0:0:0:0:
256,192,31987,1,0,0:0:0:0:
312,192,32154,1,0,0:0:0:0:
142,192,32154,1,0,0:0:0:0:
426,192,32321,1,0,0:0:0:0:
28,192,32487,1,0,0:0:0:0:
312,192,32654,5,0,0:0:0:0:
199,192,32737,1,0,0:0:0:0:
85,192,32821,1,0,0:0:0:0:
85,192,32987,1,0,0:0:0:0:
312,192,33154,1,0,0:0:0:0:
199,192,33237,1,0,0:0:0:0:
85,192,33321,1,0,0:0:0:0:
85,192,33487,1,0,0:0:0:0:
312,192,33654,1,0,0:0:0:0:
142,192,33821,1,0,0:0:0:0:
369,192,33821,1,0,0:0:0:0:
483,192,33821,1,0,0:0:0:0:
28,192,33987,1,0,0:0:0:0:
85,192,34154,1,0,0:0:0:0:
483,192,34154,1,0,0:0:0:0:
142,192,34321,1,0,0:0:0:0:
199,192,34487,1,0,0:0:0:0:
256,192,34654,1,0,0:0:0:0:
312,192,34821,1,0,0:0:0:0:
483,192,34821,1,0,0:0:0:0:
369,192,34987,1,0,0:0:0:0:
142,192,35321,1,0,0:0:0:0:
199,192,35487,1,0,0:0:0:0:
28,192,35487,1,0,0:0:0:0:
256,192,35654,1,0,0:0:0:0:
312,192,35821,1,0,0:0:0:0:
369,192,35987,1,0,0:0:0:0:
426,192,36154,1,0,0:0:0:0:
28,192,36154,1,0,0:0:0:0:
483,192,36321,1,0,0:0:0:0:
369,192,36654,1,0,0:0:0:0:
312,192,36821,1,0,0:0:0:0:
426,192,36821,1,0,0:0:0:0:
256,192,36987,1,0,0:0:0:0:
199,192,37154,1,0,0:0:0:0:
142,192,37321,1,0,0:0:0:0:
85,192,37487,1,0,0:0:0:0:
426,192,37487,1,0,0:0:0:0:
28,192,37654,1,0,0:0:0:0:
483,192,37987,1,0,0:0:0:0:
426,192,38154,1,0,0:0:0:0:
85,192,38154,1,0,0:0:0:0:
369,192,38321,1,0,0:0:0:0:
312,192,38487,1,0,0:0:0:0:
256,192,38654,1,0,0:0:0:0:
199,192,38821,1,0,0:0:0:0:
85,192,38821,1,0,0:0:0:0:
142,192,38987,1,0,0:0:0:0:
426,192,39321,1,0,0:0:0:0:
369,192,39487,1,0,0:0:0:0:
85,192,39487,1,0,0:0:0:0:
312,192,39654,1,0,0:0:0:0:
256,192,39821,1,0,0:0:0:0:
426,192,39821,1,0,0:0:0:0:
199,192,39987,1,0,0:0:0:0:
142,192,40154,1,0,0:0:0:0:
483,192,40154,1,0,0:0:0:0:
85,192,40321,1,0,0:0:0:0:
369,192,40654,1,0,0:0:0:0:
312,192,40821,1,0,0:0:0:0:
142,192,40821,1,0,0:0:0:0:
256,192,40987,1,0,0:0:0:0:
199,192,41154,1,0,0:0:0:0:
369,192,41154,1,0,0:0:0:0:
142,192,41321,1,0,0:0:0:0:
85,192,41487,1,0,0:0:0:0:
426,192,41487,1,0,0:0:0:0:
28,192,41654,1,0,0:0:0:0:
85,192,41821,1,0,0:0:0:0:
199,192,41821,1,0,0:0:0:0:
312,192,41821,1,0,0:0:0:0:
369,192,42154,1,0,0:0:0:0:
312,192,42487,1,0,0:0:0:0:
426,192,42487,1,0,0:0:0:0:
142,192,42487,1,0,0:0:0:0:
199,192,42821,1,0,0:0:0:0:
483,192,43154,1,0,0:0:0:0:
369,192,43154,1,0,0:0:0:0:
85,192,43154,1,0,0:0:0:0:
256,192,43487,1,0,0:0:0:0:
28,192,43821,1,0,0:0:0:0:
142,192,43821,1,0,0:0:0:0:
369,192,43821,1,0,0:0:0:0:
199,192,44154,1,0,0:0:0:0:
312,192,44487,1,0,0:0:0:0:
28,192,44487,1,0,0:0:0:0:
256,192,44654,1,0,0:0:0:0:
312,192,44821,1,0,0:0:0:0:
85,192,44821,1,0,0:0:0:0:
256,192,44987,1,0,0:0:0:0:
312,192,45154,1,0,0:0:0:0:
28,192,45154,1,0,0:0:0:0:
256,192,45321,1,0,0:0:0:0:
312,192,45487,1,0,0:0:0:0:
85,192,45487,1,0,0:0:0:0:
256,192,45654,1,0,0:0:0:0:
483,192,45821,1,0,0:0:0:0:
142,192,45821,1,0,0:0:0:0:
369,192,45987,1,0,0:0:0:0:
483,192,46154,1,0,0:0:0:0:
85,192,46154,1,0,0:0:0:0:
369,192,46321,1,0,0:0:0:0:
426,192,46487,1,0,0:0:0:0:
142,192,46487,1,0,0:0:0:0:
369,192,46654,1,0,0:0:0:0:
426,192,46821,1,0,0:0:0:0:
85,192,46821,1,0,0:0:0:0:
369,192,46987,1,0,0:0:0:0:
483,192,47154,5,0,0:0:0:0:
256,192,47154,1,0,0:0:0:0:
369,192,47321,1,0,0:0:0:0:
312,192,47487,1,0,0:0:0:0:
28,192,47487,1,0,0:0:0:0:
369,192,47654,1,0,0:0:0:0:
426,192,47821,1,0,0:0:0:0:
199,192,47821,1,0,0:0:0:0:
369,192,47987,1,0,0:0:0:0:
28,192,48154,1,0,0:0:0:0:
312,192,48154,1,0,0:0:0:0:
369,192,48321,1,0,0:0:0:0:
426,192,48487,1,0,0:0:0:0:
142,192,48487,1,0,0:0:0:0:
312,192,48654,1,0,0:0:0:0:
256,192,48821,1,0,0:0:0:0:
28,192,48821,1,0,0:0:0:0:
312,192,48987,1,0,0:0:0:0:
369,192,49154,1,0,0:0:0:0:
85,192,49154,1,0,0:0:0:0:
312,192,49321,1,0,0:0:0:0:
28,192,49487,1,0,0:0:0:0:
256,192,49487,1,0,0:0:0:0:
312,192,49654,1,0,0:0:0:0:
28,192,49821,1,0,0:0:0:0:
142,192,49821,1,0,0:0:0:0:
426,192,49821,1,0,0:0:0:0:
426,192,50154,1,0,0:0:0:0:
199,192,50154,1,0,0:0:0:0:
256,192,50321,1,0,0:0:0:0:
142,192,50487,1,0,0:0:0:0:
369,192,50487,1,0,0:0:0:0:
256,192,50654,1,0,0:0:0:0:
426,192,50821,1,0,0:0:0:0:
199,192,50821,1,0,0:0:0:0:
483,192,50987,1,0,0:0:0:0:
256,192,51321,1,0,0:0:0:0:
369,192,51487,1,0,0:0:0:0:
142,192,51487,1,0,0:0:0:0:
256,192,51654,1,0,0:0:0:0:
199,192,51821,1,0,0:0:0:0:
426,192,51821,1,0,0:0:0:0:
256,192,51987,1,0,0:0:0:0:
28,192,52154,1,0,0:0:0:0:
483,192,52154,1,0,0:0:0:0:
426,192,52321,1,0,0:0:0:0:
85,192,52321,1,0,0:0:0:0:
369,192,52487,1,0,0:0:0:0:
483,192,52487,1,0,0:0:0:0:
28,192,52487,1,0,0:0:0:0:
142,192,52487,1,0,0:0:0:0:
142,192,52821,1,0,0:0:0:0:
256,192,52821,1,0,0:0:0:0:
199,192,52987,1,0,0:0:0:0:
312,192,52987,1,0,0:0:0:0:
256,192,53154,1,0,0:0:0:0:
369,192,53154,1,0,0:0:0:0:
312,192,53321,1,0,0:0:0:0:
199,192,53404,1,0,0:0:0:0:
312,192,53487,1,0,0:0:0:0:
369,192,53654,1,0,0:0:0:0:
142,192,53654,1,0,0:0:0:0:
426,192,53654,1,0,0:0:0:0:
85,192,53654,1,0,0:0:0:0:
369,192,53987,1,0,0:0:0:0:
426,192,53987,1,0,0:0:0:0:
142,192,53987,1,0,0:0:0:0:
85,192,53987,1,0,0:0:0:0:
369,192,54154,1,0,0:0:0:0:
426,192,54154,1,0,0:0:0:0:
142,192,54154,1,0,0:0:0:0:
85,192,54154,1,0,0:0:0:0:
369,192,54654,1,0,0:0:0:0:
256,192,54737,1,0,0:0:0:0:
483,192,54821,1,0,0:0:0:0:
28,192,54821,1,0,0:0:0:0:
85,192,55154,1,0,0:0:0:0:
256,192,55154,1,0,0:0:0:0:
426,192,55321,1,0,0:0:0:0:
142,192,55487,1,0,0:0:0:0:
312,192,55487,1,0,0:0:0:0:
369,192,55654,1,0,0:0:0:0:
85,192,55821,1,0,0:0:0:0:
426,192,55821,1,0,0:0:0:0:
369,192,55987,1,0,0:0:0:0:
142,192,56154,1,0,0:0:0:0:
483,192,56321,1,0,0:0:0:0:
28,192,56487,1,0,0:0:0:0:
312,192,56654,1,0,0:0:0:0:
199,192,56654,1,0,0:0:0:0:
142,192,56821,1,0,0:0:0:0:
256,192,56821,1,0,0:0:0:0:
312,192,56987,1,0,0:0:0:0:
199,192,56987,1,0,0:0:0:0:
369,192,57154,1,0,0:0:0:0:
312,192,57321,1,0,0:0:0:0:
199,192,57321,1,0,0:0:0:0:
142,192,57487,1,0,0:0:0:0:
312,192,57487,1,0,0:0:0:0:
28,192,57821,1,0,0:0:0:0:
369,192,57987,1,0,0:0:0:0:
256,192,58154,1,0,0:0:0:0:
142,192,58154,1,0,0:0:0:0:
312,192,58321,1,0,0:0:0:0:
369,192,58487,1,0,0:0:0:0:
28,192,58487,1,0,0:0:0:0:
312,192,58654,1,0,0:0:0:0:
142,192,58821,1,0,0:0:0:0:
312,192,58987,1,0,0:0:0:0:
85,192,59154,1,0,0:0:0:0:
312,192,59321,1,0,0:0:0:0:
199,192,59321,1,0,0:0:0:0:
142,192,59487,1,0,0:0:0:0:
256,192,59487,1,0,0:0:0:0:
312,192,59654,1,0,0:0:0:0:
369,192,59821,1,0,0:0:0:0:
199,192,59821,1,0,0:0:0:0:
256,192,59987,1,0,0:0:0:0:
426,192,60154,1,0,0:0:0:0:
312,192,60154,1,0,0:0:0:0:
426,192,60321,1,0,0:0:0:0:
369,192,60487,1,0,0:0:0:0:
256,192,60487,1,0,0:0:0:0:
85,192,60487,1,0,0:0:0:0:
426,192,60654,1,0,0:0:0:0:
142,192,60821,1,0,0:0:0:0:
312,192,60821,1,0,0:0:0:0:
369,192,60987,1,0,0:0:0:0:
85,192,61154,1,0,0:0:0:0:
426,192,61154,1,0,0:0:0:0:
369,192,61321,1,0,0:0:0:0:
142,192,61487,1,0,0:0:0:0:
483,192,61654,1,0,0:0:0:0:
28,192,61821,1,0,0:0:0:0:
426,192,61987,1,0,0:0:0:0:
312,192,61987,1,0,0:0:0:0:
85,192,62154,1,0,0:0:0:0:
199,192,62154,1,0,0:0:0:0:
312,192,62321,1,0,0:0:0:0:
426,192,62487,1,0,0:0:0:0:
312,192,62654,1,0,0:0:0:0:
199,192,62654,1,0,0:0:0:0:
199,192,62821,1,0,0:0:0:0:
312,192,62821,1,0,0:0:0:0:
369,192,62987,1,0,0:0:0:0:
142,192,62987,1,0,0:0:0:0:
199,192,63154,1,0,0:0:0:0:
426,192,63154,1,0,0:0:0:0:
28,192,63321,1,0,0:0:0:0:
312,192,63487,1,0,0:0:0:0:
85,192,63654,1,0,0:0:0:0:
312,192,63654,1,0,0:0:0:0:
142,192,63821,1,0,0:0:0:0:
142,192,63987,1,0,0:0:0:0:
256,192,63987,1,0,0:0:0:0:
199,192,64154,1,0,0:0:0:0:
426,192,64154,1,0,0:0:0:0:
199,192,64321,1,0,0:0:0:0:
426,192,64321,1,0,0:0:0:0:
28,192,64487,1,0,0:0:0:0:
312,192,64654,1,0,0:0:0:0:
199,192,64654,1,0,0:0:0:0:
256,192,64821,1,0,0:0:0:0:
142,192,64987,1,0,0:0:0:0:
312,192,64987,1,0,0:0:0:0:
369,192,65154,1,0,0:0:0:0:
312,192,65321,1,0,0:0:0:0:
85,192,65321,1,0,0:0:0:0:
199,192,65321,1,0,0:0:0:0:
199,192,65487,1,0,0:0:0:0:
426,192,65487,1,0,0:0:0:0:
312,192,65487,1,0,0:0:0:0:
369,192,65654,1,0,0:0:0:0:
142,192,65654,1,0,0:0:0:0:
256,192,65821,1,0,0:0:0:0:
28,192,65821,1,0,0:0:0:0:
312,192,65987,1,0,0:0:0:0:
256,192,66154,1,0,0:0:0:0:
85,192,66154,1,0,0:0:0:0:
312,192,66321,1,0,0:0:0:0:
426,192,66487,1,0,0:0:0:0:
28,192,66487,1,0,0:0:0:0:
369,192,66654,1,0,0:0:0:0:
85,192,66821,1,0,0:0:0:0:
369,192,66987,1,0,0:0:0:0:
28,192,67154,1,0,0:0:0:0:
426,192,67321,1,0,0:0:0:0:
369,192,67487,1,0,0:0:0:0:
142,192,67487,1,0,0:0:0:0:
426,192,67654,1,0,0:0:0:0:
256,192,67821,1,0,0:0:0:0:
85,192,67987,1,0,0:0:0:0:
312,192,67987,1,0,0:0:0:0:
369,192,68154,1,0,0:0:0:0:
142,192,68154,1,0,0:0:0:0:
85,192,68321,1,0,0:0:0:0:
28,192,68487,1,0,0:0:0:0:
256,192,68487,1,0,0:0:0:0:
312,192,68654,1,0,0:0:0:0:
142,192,68821,1,0,0:0:0:0:
256,192,68821,1,0,0:0:0:0:
312,192,68987,1,0,0:0:0:0:
28,192,69154,1,0,0:0:0:0:
369,192,69154,1,0,0:0:0:0:
256,192,69321,1,0,0:0:0:0:
142,192,69487,1,0,0:0:0:0:
256,192,69654,1,0,0:0:0:0:
85,192,69821,1,0,0:0:0:0:
312,192,69987,1,0,0:0:0:0:
199,192,69987,1,0,0:0:0:0:
256,192,70154,1,0,0:0:0:0:
142,192,70154,1,0,0:0:0:0:
369,192,70321,1,0,0:0:0:0:
369,192,70487,1,0,0:0:0:0:
256,192,70487,1,0,0:0:0:0:
312,192,70654,1,0,0:0:0:0:
199,192,70654,1,0,0:0:0:0:
483,192,70821,1,0,0:0:0:0:
369,192,70821,1,0,0:0:0:0:
426,192,70987,1,0,0:0:0:0:
312,192,70987,1,0,0:0:0:0:
85,192,71154,1,0,0:0:0:0:
256,192,71154,1,0,0:0:0:0:
312,192,71321,1,0,0:0:0:0:
142,192,71487,1,0,0:0:0:0:
256,192,71487,1,0,0:0:0:0:
312,192,71654,1,0,0:0:0:0:
85,192,71821,1,0,0:0:0:0:
426,192,71821,1,0,0:0:0:0:
369,192,71987,1,0,0:0:0:0:
142,192,72154,1,0,0:0:0:0:
369,192,72321,1,0,0:0:0:0:
28,192,72487,1,0,0:0:0:0:
312,192,72654,1,0,0:0:0:0:
142,192,72821,1,0,0:0:0:0:
369,192,72821,1,0,0:0:0:0:
483,192,72987,1,0,0:0:0:0:
28,192,72987,1,0,0:0:0:0:
142,192,73154,1,0,0:0:0:0:
369,192,73154,1,0,0:0:0:0:
312,192,73321,1,0,0:0:0:0:
199,192,73321,1,0,0:0:0:0:
199,192,73487,1,0,0:0:0:0:
312,192,73487,1,0,0:0:0:0:
142,192,73654,1,0,0:0:0:0:
426,192,73821,5,0,0:0:0:0:
312,192,73904,1,0,0:0:0:0:
426,192,73987,1,0,0:0:0:0:
312,192,74154,1,0,0:0:0:0:
199,192,74237,1,0,0:0:0:0:
312,192,74321,5,0,0:0:0:0:
256,192,74487,1,0,0:0:0:0:
142,192,74571,1,0,0:0:0:0:
256,192,74654,1,0,0:0:0:0:
142,192,74821,1,0,0:0:0:0:
28,192,74904,1,0,0:0:0:0:
142,192,74987,1,0,0:0:0:0:
483,192,75321,1,0,0:0:0:0:
256,192,75321,1,0,0:0:0:0:
142,192,75321,1,0,0:0:0:0:
28,192,75487,1,0,0:0:0:0:
369,192,75487,1,0,0:0:0:0:
142,192,75487,1,0,0:0:0:0:
142,192,75654,1,0,0:0:0:0:
483,192,75654,1,0,0:0:0:0:
256,192,75654,1,0,0:0:0:0:
28,192,75821,1,0,0:0:0:0:
142,192,75821,1,0,0:0:0:0:
369,192,75821,1,0,0:0:0:0:
85,192,76154,1,0,0:0:0:0:
199,192,76154,1,0,0:0:0:0:
312,192,76154,1,0,0:0:0:0:
426,192,76154,1,0,0:0:0:0:
85,192,76487,1,0,0:0:0:0:
426,192,76654,1,0,0:0:0:0:
142,192,76821,1,0,0:0:0:0:
312,192,76821,1,0,0:0:0:0:
369,192,76987,1,0,0:0:0:0:
85,192,77154,1,0,0:0:0:0:
483,192,77154,1,0,0:0:0:0:
426,192,77321,1,0,0:0:0:0:
142,192,77487,1,0,0:0:0:0:
426,192,77654,1,0,0:0:0:0:
28,192,77821,1,0,0:0:0:0:
426,192,77987,1,0,0:0:0:0:
312,192,78154,1,0,0:0:0:0:
142,192,78154,1,0,0:0:0:0:
256,192,78321,1,0,0:0:0:0:
28,192,78487,1,0,0:0:0:0:
369,192,78487,1,0,0:0:0:0:
426,192,78654,1,0,0:0:0:0:
142,192,78821,1,0,0:0:0:0:
426,192,78987,1,0,0:0:0:0:
28,192,79154,1,0,0:0:0:0:
426,192,79321,1,0,0:0:0:0:
312,192,79487,1,0,0:0:0:0:
85,192,79487,1,0,0:0:0:0:
142,192,79654,1,0,0:0:0:0:
256,192,79821,1,0,0:0:0:0:
28,192,79821,1,0,0:0:0:0:
426,192,79987,1,0,0:0:0:0:
85,192,80154,1,0,0:0:0:0:
426,192,80321,1,0,0:0:0:0:
28,192,80487,1,0,0:0:0:0:
426,192,80654,1,0,0:0:0:0:
369,192,80821,1,0,0:0:0:0:
142,192,80821,1,0,0:0:0:0:
426,192,80987,1,0,0:0:0:0:
483,192,81154,1,0,0:0:0:0:
28,192,81154,1,0,0:0:0:0:
256,192,81321,1,0,0:0:0:0:
483,192,81487,1,0,0:0:0:0:
142,192,81487,1,0,0:0:0:0:
426,192,81654,1,0,0:0:0:0:
85,192,81821,1,0,0:0:0:0:
426,192,81987,1,0,0:0:0:0:
142,192,82154,1,0,0:0:0:0:
312,192,82154,1,0,0:0:0:0:
369,192,82321,1,0,0:0:0:0:
85,192,82487,1,0,0:0:0:0:
483,192,82487,1,0,0:0:0:0:
426,192,82654,1,0,0:0:0:0:
142,192,82821,1,0,0:0:0:0:
426,192,82987,1,0,0:0:0:0:
28,192,83154,1,0,0:0:0:0:
426,192,83321,1,0,0:0:0:0:
142,192,83487,1,0,0:0:0:0:
256,192,83487,1,0,0:0:0:0:
369,192,83654,1,0,0:0:0:0:
28,192,83821,1,0,0:0:0:0:
483,192,83821,1,0,0:0:0:0:
426,192,83987,1,0,0:0:0:0:
142,192,84154,1,0,0:0:0:0:
426,192,84321,1,0,0:0:0:0:
28,192,84487,1,0,0:0:0:0:
426,192,84654,1,0,0:0:0:0:
199,192,84821,1,0,0:0:0:0:
85,192,84821,1,0,0:0:0:0:
256,192,84987,1,0,0:0:0:0:
369,192,85154,1,0,0:0:0:0:
28,192,85154,1,0,0:0:0:0:
426,192,85321,1,0,0:0:0:0:
85,192,85487,1,0,0:0:0:0:
426,192,85654,1,0,0:0:0:0:
28,192,85821,1,0,0:0:0:0:
426,192,85987,1,0,0:0:0:0:
85,192,85987,1,0,0:0:0:0:
312,192,86071,1,0,0:0:0:0:
199,192,86071,1,0,0:0:0:0:
85,192,86154,1,0,0:0:0:0:
426,192,86154,1,0,0:0:0:0:
256,192,86321,1,0,0:0:0:0:
426,192,86487,1,0,0:0:0:0:
85,192,86487,1,0,0:0:0:0:
199,192,86571,1,0,0:0:0:0:
312,192,86571,1,0,0:0:0:0:
426,192,86654,1,0,0:0:0:0:
85,192,86654,1,0,0:0:0:0:
256,192,86821,1,0,0:0:0:0:
256,192,86987,1,0,0:0:0:0:
142,192,87154,1,0,0:0:0:0:
256,192,87154,1,0,0:0:0:0:
369,192,87154,1,0,0:0:0:0:
426,192,87487,1,0,0:0:0:0:
483,192,87654,1,0,0:0:0:0:
28,192,87821,1,0,0:0:0:0:
426,192,88154,1,0,0:0:0:0:
369,192,88321,1,0,0:0:0:0:
426,192,88487,1,0,0:0:0:0:
369,192,88654,1,0,0:0:0:0:
426,192,88821,1,0,0:0:0:0:
483,192,88987,1,0,0:0:0:0:
28,192,89154,1,0,0:0:0:0:
312,192,89487,1,0,0:0:0:0:
28,192,89821,1,0,0:0:0:0:
85,192,90154,1,0,0:0:0:0:
28,192,90321,1,0,0:0:0:0:
483,192,90487,1,0,0:0:0:0:
85,192,90821,1,0,0:0:0:0:
142,192,90987,1,0,0:0:0:0:
85,192,91154,1,0,0:0:0:0:
142,192,91321,1,0,0:0:0:0:
85,192,91487,1,0,0:0:0:0:
28,192,91654,1,0,0:0:0:0:
483,192,91821,1,0,0:0:0:0:
199,192,92154,1,0,0:0:0:0:
369,192,92321,1,0,0:0:0:0:
426,192,92404,1,0,0:0:0:0:
483,192,92487,1,0,0:0:0:0:
426,192,92821,1,0,0:0:0:0:
28,192,92987,1,0,0:0:0:0:
483,192,93154,1,0,0:0:0:0:
28,192,93487,1,0,0:0:0:0:
312,192,93654,1,0,0:0:0:0:
28,192,93821,1,0,0:0:0:0:
312,192,93987,1,0,0:0:0:0:
28,192,94154,1,0,0:0:0:0:
256,192,94321,1,0,0:0:0:0:
85,192,94487,1,0,0:0:0:0:
426,192,94821,1,0,0:0:0:0:
256,192,94987,1,0,0:0:0:0:
483,192,95154,1,0,0:0:0:0:
369,192,95154,1,0,0:0:0:0:
426,192,95321,1,0,0:0:0:0:
312,192,95487,1,0,0:0:0:0:
199,192,95654,1,0,0:0:0:0:
426,192,95821,1,0,0:0:0:0:
312,192,95821,1,0,0:0:0:0:
369,192,95987,1,0,0:0:0:0:
256,192,96154,1,0,0:0:0:0:
142,192,96321,1,0,0:0:0:0:
369,192,96487,1,0,0:0:0:0:
256,192,96487,1,0,0:0:0:0:
312,192,96654,1,0,0:0:0:0:
199,192,96821,1,0,0:0:0:0:
85,192,96987,1,0,0:0:0:0:
312,192,97154,1,0,0:0:0:0:
199,192,97154,1,0,0:0:0:0:
256,192,97321,1,0,0:0:0:0:
142,192,97487,1,0,0:0:0:0:
28,192,97654,1,0,0:0:0:0:
369,192,97821,1,0,0:0:0:0:
256,192,97821,1,0,0:0:0:0:
85,192,97821,1,0,0:0:0:0:
312,192,98154,1,0,0:0:0:0:
142,192,98321,1,0,0:0:0:0:
483,192,98487,1,0,0:0:0:0:
369,192,98654,1,0,0:0:0:0:
142,192,98821,1,0,0:0:0:0:
426,192,98987,1,0,0:0:0:0:
28,192,99154,1,0,0:0:0:0:
426,192,99321,1,0,0:0:0:0:
28,192,99487,1,0,0:0:0:0:
426,192,99654,1,0,0:0:0:0:
483,192,99821,1,0,0:0:0:0:
256,192,99987,1,0,0:0:0:0:
483,192,100154,1,0,0:0:0:0:
85,192,100321,1,0,0:0:0:0:
28,192,100487,1,0,0:0:0:0:
142,192,100487,1,0,0:0:0:0:
85,192,100654,1,0,0:0:0:0:
199,192,100821,1,0,0:0:0:0:
312,192,100987,1,0,0:0:0:0:
85,192,101154,1,0,0:0:0:0:
199,192,101154,1,0,0:0:0:0:
142,192,101321,1,0,0:0:0:0:
256,192,101487,1,0,0:0:0:0:
369,192,101654,1,0,0:0:0:0:
142,192,101821,1,0,0:0:0:0:
256,192,101821,1,0,0:0:0:0:
199,192,101987,1,0,0:0:0:0:
312,192,102154,1,0,0:0:0:0:
426,192,102321,1,0,0:0:0:0:
199,192,102487,1,0,0:0:0:0:
312,192,102487,1,0,0:0:0:0:
256,192,102654,1,0,0:0:0:0:
369,192,102821,1,0,0:0:0:0:
483,192,102987,1,0,0:0:0:0:
426,192,103154,1,0,0:0:0:0:
142,192,103154,1,0,0:0:0:0:
256,192,103154,1,0,0:0:0:0:
312,192,103487,1,0,0:0:0:0:
142,192,103821,1,0,0:0:0:0:
312,192,104154,1,0,0:0:0:0:
256,192,104154,1,0,0:0:0:0:
369,192,104154,1,0,0:0:0:0:
312,192,104487,1,0,0:0:0:0:
426,192,104487,1,0,0:0:0:0:
28,192,104487,1,0,0:0:0:0:
312,192,104821,1,0,0:0:0:0:
28,192,105154,1,0,0:0:0:0:
312,192,105487,1,0,0:0:0:0:
28,192,105821,1,0,0:0:0:0:
142,192,105821,1,0,0:0:0:0:
256,192,105821,1,0,0:0:0:0:
199,192,106154,1,0,0:0:0:0:
142,192,106321,1,0,0:0:0:0:
256,192,106487,1,0,0:0:0:0:
369,192,106654,1,0,0:0:0:0:
483,192,106821,1,0,0:0:0:0:
85,192,106987,1,0,0:0:0:0:
199,192,106987,1,0,0:0:0:0:
312,192,106987,1,0,0:0:0:0:
426,192,106987,1,0,0:0:0:0:
85,192,107321,1,0,0:0:0:0:
199,192,107321,1,0,0:0:0:0:
312,192,107321,1,0,0:0:0:0:
426,192,107321,1,0,0:0:0:0:
426,192,107487,5,0,0:0:0:0:
312,192,107487,1,0,0:0:0:0:
199,192,107487,1,0,0:0:0:0:
85,192,107487,1,0,0:0:0:0:
369,192,107987,1,0,0:0:0:0:
256,192,108071,1,0,0:0:0:0:
369,192,108154,1,0,0:0:0:0:
426,192,108154,1,0,0:0:0:0:
28,192,108487,5,0,0:0:0:0:
142,192,108487,1,0,0:0:0:0:
256,192,108487,1,0,0:0:0:0:
369,192,108487,1,0,0:0:0:0:
28,192,109821,1,0,0:0:0:0:
142,192,109821,1,0,0:0:0:0:
199,192,109821,1,0,0:0:0:0:
312,192,109821,1,0,0:0:0:0:
85,192,110154,1,0,0:0:0:0:
199,192,110154,1,0,0:0:0:0:
256,192,110154,1,0,0:0:0:0:
369,192,110154,1,0,0:0:0:0:
28,192,110487,1,0,0:0:0:0:
142,192,110487,1,0,0:0:0:0:
199,192,110487,1,0,0:0:0:0:
312,192,110487,1,0,0:0:0:0:
426,192,110654,1,0,0:0:0:0:
312,192,110821,1,0,0:0:0:0:
483,192,111154,1,0,0:0:0:0:
369,192,111154,1,0,0:0:0:0:
256,192,111154,1,0,0:0:0:0:
142,192,111154,1,0,0:0:0:0:
483,192,112487,1,0,0:0:0:0:
369,192,112487,1,0,0:0:0:0:
199,192,112487,1,0,0:0:0:0:
312,192,112487,1,0,0:0:0:0:
142,192,112821,1,0,0:0:0:0:
256,192,112821,1,0,0:0:0:0:
312,192,112821,1,0,0:0:0:0:
426,192,112821,1,0,0:0:0:0:
199,192,113154,1,0,0:0:0:0:
312,192,113154,1,0,0:0:0:0:
369,192,113154,1,0,0:0:0:0:
483,192,113154,1,0,0:0:0:0:
85,192,113321,1,0,0:0:0:0:
199,192,113487,1,0,0:0:0:0:
28,192,113821,1,0,0:0:0:0:
142,192,113821,1,0,0:0:0:0:
483,192,113821,1,0,0:0:0:0:
369,192,113821,1,0,0:0:0:0:
85,192,114487,1,0,0:0:0:0:
199,192,114487,1,0,0:0:0:0:
312,192,114487,1,0,0:0:0:0:
426,192,114487,1,0,0:0:0:0:
483,192,115154,1,0,0:0:0:0:
369,192,115154,1,0,0:0:0:0:
85,192,115154,1,0,0:0:0:0:
199,192,115154,1,0,0:0:0:0:
28,192,115821,1,0,0:0:0:0:
142,192,115821,1,0,0:0:0:0:
312,192,115821,1,0,0:0:0:0:
426,192,115821,1,0,0:0:0:0:
256,192,116154,1,0,0:0:0:0:
256,192,116487,1,0,0:0:0:0:
142,192,116487,1,0,0:0:0:0:
426,192,116654,1,0,0:0:0:0:
142,192,116821,1,0,0:0:0:0:
28,192,116821,1,0,0:0:0:0:
426,192,116987,1,0,0:0:0:0:
256,192,117154,1,0,0:0:0:0:
142,192,117154,1,0,0:0:0:0:
426,192,117321,1,0,0:0:0:0:
28,192,117487,1,0,0:0:0:0:
142,192,117487,1,0,0:0:0:0:
28,192,117654,1,0,0:0:0:0:
28,192,117821,1,0,0:0:0:0:
483,192,117821,1,0,0:0:0:0:
28,192,117987,1,0,0:0:0:0:
483,192,117987,1,0,0:0:0:0:
312,192,118154,1,0,0:0:0:0:
28,192,118321,1,0,0:0:0:0:
483,192,118321,1,0,0:0:0:0:
199,192,118487,1,0,0:0:0:0:
28,192,118654,1,0,0:0:0:0:
483,192,118654,1,0,0:0:0:0:
312,192,118821,1,0,0:0:0:0:
483,192,118987,1,0,0:0:0:0:
28,192,118987,1,0,0:0:0:0:
426,192,119154,1,0,0:0:0:0:
256,192,119154,1,0,0:0:0:0:
142,192,119154,1,0,0:0:0:0:
369,192,119321,1,0,0:0:0:0:
483,192,119487,1,0,0:0:0:0:
28,192,119487,1,0,0:0:0:0:
369,192,119654,1,0,0:0:0:0:
426,192,119821,1,0,0:0:0:0:
142,192,119821,1,0,0:0:0:0:
369,192,119987,1,0,0:0:0:0:
28,192,120154,1,0,0:0:0:0:
256,192,120154,1,0,0:0:0:0:
85,192,120321,1,0,0:0:0:0:
312,192,120321,1,0,0:0:0:0:
142,192,120487,1,0,0:0:0:0:
199,192,120654,1,0,0:0:0:0:
426,192,120654,1,0,0:0:0:0:
256,192,120821,1,0,0:0:0:0:
483,192,120821,1,0,0:0:0:0:
426,192,120987,1,0,0:0:0:0:
369,192,121154,1,0,0:0:0:0:
142,192,121154,1,0,0:0:0:0:
426,192,121321,1,0,0:0:0:0:
312,192,121321,1,0,0:0:0:0:
85,192,121487,1,0,0:0:0:0:
199,192,121487,1,0,0:0:0:0:
256,192,121654,1,0,0:0:0:0:
426,192,121821,1,0,0:0:0:0:
199,192,121821,1,0,0:0:0:0:
312,192,121987,1,0,0:0:0:0:
369,192,122154,1,0,0:0:0:0:
142,192,122154,1,0,0:0:0:0:
256,192,122321,1,0,0:0:0:0:
85,192,122487,1,0,0:0:0:0:
312,192,122487,1,0,0:0:0:0:
199,192,122654,1,0,0:0:0:0:
369,192,122821,1,0,0:0:0:0:
369,192,122987,1,0,0:0:0:0:
142,192,122987,1,0,0:0:0:0:
312,192,123154,1,0,0:0:0:0:
369,192,123321,1,0,0:0:0:0:
256,192,123321,1,0,0:0:0:0:
28,192,123487,1,0,0:0:0:0:
142,192,123487,1,0,0:0:0:0:
199,192,123654,1,0,0:0:0:0:
312,192,123654,1,0,0:0:0:0:
426,192,123821,1,0,0:0:0:0:
142,192,123821,1,0,0:0:0:0:
483,192,123987,1,0,0:0:0:0:
199,192,123987,1,0,0:0:0:0:
28,192,124154,1,0,0:0:0:0:
312,192,124154,1,0,0:0:0:0:
85,192,124321,1,0,0:0:0:0:
369,192,124321,1,0,0:0:0:0:
142,192,124487,1,0,0:0:0:0:
312,192,124487,1,0,0:0:0:0:
426,192,124487,1,0,0:0:0:0:
85,192,124654,1,0,0:0:0:0:
199,192,124654,1,0,0:0:0:0:
142,192,124821,1,0,0:0:0:0:
256,192,124821,1,0,0:0:0:0:
312,192,124987,1,0,0:0:0:0:
199,192,124987,1,0,0:0:0:0:
256,192,125154,1,0,0:0:0:0:
369,192,125154,1,0,0:0:0:0:
426,192,125321,1,0,0:0:0:0:
312,192,125321,1,0,0:0:0:0:
142,192,125487,1,0,0:0:0:0:
142,192,125654,1,0,0:0:0:0:
312,192,125654,1,0,0:0:0:0:
256,192,125821,1,0,0:0:0:0:
312,192,125987,1,0,0:0:0:0:
199,192,125987,1,0,0:0:0:0:
142,192,126154,1,0,0:0:0:0:
256,192,126154,1,0,0:0:0:0:
199,192,126321,1,0,0:0:0:0:
312,192,126321,1,0,0:0:0:0:
256,192,126487,1,0,0:0:0:0:
369,192,126487,1,0,0:0:0:0:
85,192,126654,1,0,0:0:0:0:
312,192,126654,1,0,0:0:0:0:
85,192,126821,1,0,0:0:0:0:
312,192,126821,1,0,0:0:0:0:
142,192,126987,1,0,0:0:0:0:
199,192,127154,1,0,0:0:0:0:
142,192,127321,1,0,0:0:0:0:
256,192,127321,1,0,0:0:0:0:
199,192,127487,1,0,0:0:0:0:
312,192,127487,1,0,0:0:0:0:
369,192,127654,1,0,0:0:0:0:
256,192,127654,1,0,0:0:0:0:
312,192,127821,1,0,0:0:0:0:
199,192,127821,1,0,0:0:0:0:
256,192,127987,1,0,0:0:0:0:
142,192,127987,1,0,0:0:0:0:
312,192,128154,1,0,0:0:0:0:
369,192,128321,1,0,0:0:0:0:
142,192,128321,1,0,0:0:0:0:
256,192,128487,1,0,0:0:0:0:
483,192,128654,1,0,0:0:0:0:
369,192,128654,1,0,0:0:0:0:
142,192,128821,1,0,0:0:0:0:
426,192,128987,1,0,0:0:0:0:
312,192,128987,1,0,0:0:0:0:
28,192,129154,1,0,0:0:0:0:
85,192,129321,5,0,0:0:0:0:
199,192,129321,1,0,0:0:0:0:
312,192,129321,1,0,0:0:0:0:
199,192,129487,1,0,0:0:0:0:
312,192,129487,1,0,0:0:0:0:
426,192,129487,1,0,0:0:0:0:
142,192,129654,1,0,0:0:0:0:
369,192,129821,1,0,0:0:0:0:
483,192,129821,1,0,0:0:0:0:
28,192,129821,1,0,0:0:0:0:
142,192,129987,1,0,0:0:0:0:
369,192,129987,1,0,0:0:0:0:
426,192,130154,1,0,0:0:0:0:
85,192,130154,1,0,0:0:0:0:
312,192,130321,1,0,0:0:0:0:
199,192,130321,1,0,0:0:0:0:
142,192,130487,1,0,0:0:0:0:
426,192,130487,1,0,0:0:0:0:
142,192,130654,1,0,0:0:0:0:
369,192,130654,1,0,0:0:0:0:
256,192,130821,1,0,0:0:0:0:
312,192,130987,1,0,0:0:0:0:
199,192,130987,1,0,0:0:0:0:
142,192,131154,1,0,0:0:0:0:
426,192,131321,5,0,0:0:0:0:
28,192,131321,1,0,0:0:0:0:
312,192,131404,1,0,0:0:0:0:
426,192,131487,1,0,0:0:0:0:
85,192,131487,1,0,0:0:0:0:
312,192,131571,1,0,0:0:0:0:
426,192,131654,1,0,0:0:0:0:
142,192,131654,1,0,0:0:0:0:
312,192,131821,1,0,0:0:0:0:
85,192,131821,1,0,0:0:0:0:
426,192,131904,1,0,0:0:0:0:
312,192,131987,1,0,0:0:0:0:
28,192,131987,1,0,0:0:0:0:
426,192,132071,1,0,0:0:0:0:
312,192,132154,1,0,0:0:0:0:
85,192,132154,1,0,0:0:0:0:
426,192,132237,1,0,0:0:0:0:
312,192,132321,1,0,0:0:0:0:
142,192,132321,1,0,0:0:0:0:
369,192,132487,1,0,0:0:0:0:
85,192,132487,1,0,0:0:0:0:
369,192,132654,1,0,0:0:0:0:
142,192,132654,1,0,0:0:0:0:
483,192,132821,1,0,0:0:0:0:
199,192,132821,1,0,0:0:0:0:
483,192,132987,1,0,0:0:0:0:
256,192,132987,1,0,0:0:0:0:
426,192,133154,1,0,0:0:0:0:
199,192,133154,1,0,0:0:0:0:
142,192,133321,1,0,0:0:0:0:
369,192,133321,1,0,0:0:0:0:
28,192,133487,1,0,0:0:0:0:
369,192,133654,1,0,0:0:0:0:
85,192,133654,1,0,0:0:0:0:
142,192,133821,1,0,0:0:0:0:
85,192,133987,1,0,0:0:0:0:
483,192,133987,1,0,0:0:0:0:
199,192,134071,1,0,0:0:0:0:
85,192,134154,1,0,0:0:0:0:
426,192,134154,1,0,0:0:0:0:
199,192,134237,1,0,0:0:0:0:
85,192,134321,1,0,0:0:0:0:
369,192,134321,1,0,0:0:0:0:
199,192,134487,1,0,0:0:0:0:
426,192,134487,1,0,0:0:0:0:
85,192,134571,1,0,0:0:0:0:
199,192,134654,1,0,0:0:0:0:
483,192,134654,1,0,0:0:0:0:
85,192,134737,1,0,0:0:0:0:
199,192,134821,1,0,0:0:0:0:
426,192,134821,1,0,0:0:0:0:
85,192,134904,1,0,0:0:0:0:
199,192,134987,1,0,0:0:0:0:
369,192,134987,1,0,0:0:0:0:
28,192,135154,1,0,0:0:0:0:
142,192,135154,1,0,0:0:0:0:
312,192,135154,1,0,0:0:0:0:
369,192,135321,1,0,0:0:0:0:
199,192,135321,1,0,0:0:0:0:
369,192,135487,1,0,0:0:0:0:
85,192,135487,1,0,0:0:0:0:
369,192,135654,1,0,0:0:0:0:
199,192,135654,1,0,0:0:0:0:
483,192,135821,1,0,0:0:0:0:
312,192,135821,1,0,0:0:0:0:
256,192,135987,1,0,0:0:0:0:
426,192,135987,1,0,0:0:0:0:
28,192,136154,1,0,0:0:0:0:
28,192,136321,1,0,0:0:0:0:
199,192,136321,1,0,0:0:0:0:
28,192,136487,1,0,0:0:0:0:
483,192,136654,1,0,0:0:0:0:
312,192,136654,1,0,0:0:0:0:
256,192,136821,1,0,0:0:0:0:
426,192,136821,1,0,0:0:0:0:
483,192,136987,1,0,0:0:0:0:
199,192,136987,1,0,0:0:0:0:
426,192,137154,1,0,0:0:0:0:
199,192,137154,1,0,0:0:0:0:
142,192,137321,1,0,0:0:0:0:
369,192,137321,1,0,0:0:0:0:
28,192,137487,1,0,0:0:0:0:
256,192,137487,1,0,0:0:0:0:
312,192,137654,1,0,0:0:0:0:
426,192,137821,5,0,0:0:0:0:
312,192,137904,1,0,0:0:0:0:
426,192,137987,1,0,0:0:0:0:
312,192,138071,1,0,0:0:0:0:
369,192,138154,1,0,0:0:0:0:
256,192,138237,1,0,0:0:0:0:
369,192,138321,1,0,0:0:0:0:
256,192,138404,1,0,0:0:0:0:
312,192,138487,1,0,0:0:0:0:
199,192,138571,1,0,0:0:0:0:
312,192,138654,1,0,0:0:0:0:
199,192,138737,1,0,0:0:0:0:
256,192,138821,1,0,0:0:0:0:
142,192,138904,1,0,0:0:0:0:
256,192,138987,1,0,0:0:0:0:
142,192,139071,1,0,0:0:0:0:
256,192,139154,1,0,0:0:0:0:
426,192,139321,1,0,0:0:0:0:
312,192,139321,1,0,0:0:0:0:
142,192,139321,1,0,0:0:0:0:
312,192,139487,1,0,0:0:0:0:
142,192,139487,1,0,0:0:0:0:
426,192,139487,1,0,0:0:0:0:
369,192,139654,1,0,0:0:0:0:
256,192,139654,1,0,0:0:0:0:
85,192,139654,1,0,0:0:0:0:
312,192,139821,1,0,0:0:0:0:
142,192,139821,1,0,0:0:0:0:
426,192,139821,1,0,0:0:0:0:
483,192,139987,1,0,0:0:0:0:
256,192,140071,1,0,0:0:0:0:
369,192,140154,1,0,0:0:0:0:
142,192,140237,1,0,0:0:0:0:
256,192,140321,1,0,0:0:0:0:
28,192,140404,1,0,0:0:0:0:
256,192,140487,1,0,0:0:0:0:
312,192,140654,1,0,0:0:0:0:
28,192,140654,1,0,0:0:0:0:
142,192,140654,1,0,0:0:0:0:
312,192,140821,1,0,0:0:0:0:
28,192,140821,1,0,0:0:0:0:
142,192,140821,1,0,0:0:0:0:
483,192,140987,1,0,0:0:0:0:
369,192,140987,1,0,0:0:0:0:
199,192,140987,1,0,0:0:0:0:
28,192,141154,1,0,0:0:0:0:
142,192,141154,1,0,0:0:0:0:
312,192,141154,1,0,0:0:0:0:
28,192,141487,1,0,0:0:0:0:
85,192,141487,1,0,0:0:0:0:
142,192,141487,1,0,0:0:0:0:
369,192,141487,1,0,0:0:0:0:
426,192,141487,1,0,0:0:0:0:
483,192,141487,1,0,0:0:0:0:
