osu file format v5

[General]
AudioFilename: Nintendo - Pokemon Diamond & Pearl - Palkia & Dialga Battle.mp3
AudioLeadIn: 3000
PreviewTime: 6722
Countdown: 3
SampleSet: Normal
StackLeniency: 0.7
Mode: 0
LetterboxInBreaks: 1
EditorBookmarks: 5166,8000,24000,40333,51333,64333,71389,79722,85667,121055,137001,153001

[Metadata]
Title:Pokemon Diamond & Pearl - Palkia & Dialga Battle
Artist:Takahiro Nishi
Creator:nullset
Version:Palkia!
Source:Pokemon Diamond & Pearl version
Tags:Nintendo pokemon diamond pearl version SSBB smash bros brawl

[Difficulty]
HPDrainRate:6
CircleSize:3
OverallDifficulty:5
SliderMultiplier:1.5
SliderTickRate:2

[Events]
//Background and Video events
0,0,"pokemondandp_palkia_1280.jpg"
//Break Periods
2,77922,78522
2,109922,119855
//Storyboard Layer 0 (Background)
//Storyboard Layer 1 (Failing)
//Storyboard Layer 2 (Passing)
//Storyboard Layer 3 (Foreground)
//Storyboard Sound Samples
//Background Colour Transformations
3,100,186,118,203

[TimingPoints]
56,333.333333333333,4,2,0,51,1,0
5166,-100,4,1,0,51,0,0
79722,500,4,2,1,51,1,0
111722,333.333333333333,4,1,0,51,1,0
137001,-200,4,2,0,51,0,0
141834,-100,4,1,0,51,0,1

[Colours]
Combo1 : 234,128,234
Combo2 : 171,154,182
Combo3 : 173,49,82
Combo4 : 239,222,255

[HitObjects]
40,136,56,2,2,B|107:69|180:144,1,150,0|8
105,178,722,2,2,B|172:245|245:170,3,150,0|8|0|8
168,136,2055,2,2,B|235:69|308:144,1,150,0|8
432,56,2722,6,2,B|499:123|424:196,1,150,0|8
390,121,3389,2,2,B|323:188|398:261,3,150,0|8|0|8
432,184,4722,2,2,B|499:251|424:324,1,150,0|8
328,320,5389,6,0,B|160:320,1,150,0|8
176,248,6055,2,0,B|326:248,1,150,0|8
328,176,6722,2,0,B|160:176,3,150,0|8|0|8
328,64,8055,6,0,B|160:64,1,150,0|8
176,136,8722,2,0,B|326:136,1,150,0|8
328,208,9389,2,0,B|160:208,3,150,0|8|0|8
178,280,10722,2,0,B|328:280,3,150,0|8|0|8
328,352,12056,2,0,B|160:352,3,150,0|8|0|8
96,352,13389,6,0,B|64:280|104:192,1,150,0|8
160,256,14056,2,0,B|192:184|152:96,1,150,0|8
152,32,14722,1,0
232,32,15056,2,0,B|328:48|408:80|448:216,1,300,8|8
456,296,16056,6,2,B|296:328|128:312,1,300
73,212,17389,2,2,B|112:80|192:48|288:32,1,300
416,352,18722,6,0,B|448:280|408:192,1,150,0|8
352,256,19389,2,0,B|320:184|360:96,1,150,0|8
360,32,20055,1,0
280,32,20389,2,8,B|184:48|104:80|64:216,1,300
56,296,21389,6,2,B|216:328|384:312,1,300
438,212,22722,2,2,B|400:80|320:48|224:32,1,300
16,80,24055,5,0
80,136,24389,1,8
144,80,24722,1,0
208,136,25055,1,8
280,80,25389,5,0
352,136,25722,1,8
424,80,26055,1,0
488,144,26389,1,8
488,232,26722,5,0
424,296,27055,1,8
352,240,27389,1,0
280,296,27722,1,8
208,240,28055,5,0
144,296,28389,1,8
80,240,28722,1,0
16,296,29055,1,8
40,128,29389,6,0,B|264:0|488:144,1,450,0|8
467,252,30722,2,0,B|264:384|40:256,1,450,0|8
96,152,32055,6,0,B|192:128|96:360|176:432|344:432|416:336|368:256|312:120|440:136,1,600
472,256,34722,6,0,B|248:384|24:240,1,450,0|8
44,131,36055,2,0,B|248:0|472:128,1,450,0|8
408,240,37389,6,0,B|320:248|416:16|336:-56|168:-56|96:40|144:120|200:240|72:240,1,600
104,176,40056,6,2,B|152:40|152:40|216:160|264:40|264:40|320:144|368:40|368:40|392:88|400:104|432:176,1,600
431,210,42722,2,2,B|400:280|392:296|368:344|368:344|320:240|264:344|264:344|216:224|152:344|152:344|104:208,1,600
208,40,45389,6,0,B|88:120|48:208|144:304,1,300
304,40,46722,2,0,B|424:120|464:208|368:304,1,300
120,360,48056,2,0,B|264:256|408:368,3,300
344,120,51389,6,4,B|307:162|275:191|303:287|355:315|442:314|471:279|490:211|503:167|424:111,2,450
392,200,54056,1,2
168,120,54722,6,4,B|205:162|237:191|209:287|157:315|70:314|41:279|22:211|9:167|88:111,2,450
122,196,57389,1,2
112,88,58056,6,0,B|256:24|256:128|432:64,1,300,0|8
408,152,59056,2,0,B|259:208|259:103|115:168,1,300,0|8
48,128,60056,1,8
8,192,60389,1,0
72,232,60722,1,8
400,296,61389,6,8,B|256:360|256:256|80:320,1,300,0|8
104,232,62389,2,8,B|253:176|253:281|397:216,1,300,0|8
464,256,63389,1,8
504,192,63722,1,0
440,152,64056,1,8
104,48,64722,6,0,B|32:192|104:352,1,300
189,338,65722,2,0,B|256:192|184:48,1,300,8|8
272,48,66722,2,0,B|448:48,3,150,8|8|8|8
408,48,68056,6,0,B|480:192|408:352,1,300
322,338,69056,2,0,B|256:192|328:48,1,300,8|8
240,48,70056,2,0,B|64:48,3,150,8|8|8|8
80,128,71389,6,0,B|49:206|97:270,2,150,0|8|0
145,190,72389,2,0,B|193:150|241:214|305:182,1,150,8|0
337,270,73056,2,0,B|385:206|353:126,4,150,8|0|8|0|8
456,128,74722,6,0,B|487:206|439:270,2,150,0|8|0
391,190,75722,2,0,B|343:150|295:214|231:182,3,150,8|0|8|0
182,128,77056,2,0,B|151:206|199:270,2,150,8|0|8
64,104,79722,6,0,B|136:32|216:112,1,150,8|0
280,144,80722,1,8
280,240,81222,1,0
197,288,81722,2,0,B|136:352|64:280,1,150,8|0
256,192,83222,5,8
160,56,83722,2,10,B|48:192|184:352,2,300
184,192,86722,6,10,B|352:192,1,150
448,104,87722,6,0,B|376:32|296:112,1,150,8|0
232,144,88722,1,8
232,240,89222,1,0
315,288,89722,2,0,B|376:352|448:280,1,150,8|0
256,192,91222,5,8
352,56,91722,2,10,B|464:192|328:352,2,300
256,48,94722,6,10,B|256:216,1,150
128,296,95722,2,10,B|184:216|392:384|416:264,2,300
256,336,98722,6,10,B|256:168,1,150
128,88,99722,2,10,B|184:168|392:0|416:120,2,300
240,40,103222,5,8
160,72,103722,2,10,B|88:136|80:208,1,150,10|2
104,272,104722,2,10,B|128:328|256:320,1,150,10|2
256,224,105722,1,8
272,40,107222,5,8
352,72,107722,2,10,B|424:136|432:208,1,150,10|2
408,272,108722,2,10,B|384:328|256:320,1,150,10|10
256,224,109722,1,8
56,80,121055,5,0
136,80,121388,2,0,B|320:80,1,150,8|0
288,152,122055,2,0,B|138:152,2,150,8|0|8
288,224,123055,2,0,B|472:224,1,150,0|8
456,80,123721,5,0
376,80,124055,2,0,B|192:80,1,150,8|0
224,152,124721,2,0,B|374:152,2,150,8|0|8
224,224,125721,2,0,B|40:224,1,150,0|8
120,32,126388,6,0,B|48:120|64:304|304:360,1,450,0|8
392,351,127721,2,0,B|464:264|448:80|212:25,1,450,0|8
144,144,129055,6,0,B|320:144,3,150,0|8|0|8
368,216,130388,2,0,B|192:216,3,150,0|8|0|8
256,192,131721,12,4,136388
48,184,137221,6,2,B|80:112|136:72,1,112.5
192,88,138388,2,2,B|224:108|256:180,1,112.5
464,200,139888,6,2,B|432:272|376:312,1,112.5
319,295,141055,2,2,B|288:276|256:204,1,112.5
256,40,142055,5,14
256,120,142388,2,0,B|96:120,1,150,0|14
256,192,143055,2,0,B|416:192,1,150,0|14
256,264,143722,2,0,B|96:264,3,150,0|14|0|14
256,344,145055,5,0
256,264,145388,2,0,B|96:264,1,150,14|0
256,192,146055,2,0,B|416:192,1,150,14|0
256,120,146722,2,0,B|96:120,2,150,14|0|14
256,192,147722,12,4,153055
