osu file format v5

[General]
AudioFilename: Nintendo - Pokemon Diamond & Pearl - Palkia & Dialga Battle.mp3
AudioLeadIn: 3000
PreviewTime: 43881
Countdown: 3
SampleSet: Normal
StackLeniency: 0.7
Mode: 0
LetterboxInBreaks: 1
EditorBookmarks: 5166,8000,24000,40333,51333,79722,85667,121001,137001,153031

[Metadata]
Title:Pokemon Diamond & Pearl - Palkia & Dialga Battle
Artist:Takahiro Nishi
Creator:nullset
Version:Dialga!
Source:Pokemon Diamond & Pearl version
Tags:Nintendo pokemon diamond pearl version SSBB smash bros brawl

[Difficulty]
HPDrainRate:6
CircleSize:4
OverallDifficulty:5
SliderMultiplier:1.5
SliderTickRate:2

[Events]
//Background and Video events
0,0,"pokemondandp_dialga_1280.jpg"
//Break Periods
2,77922,78522
2,110897,119831
//Storyboard Layer 0 (Background)
//Storyboard Layer 1 (Failing)
//Storyboard Layer 2 (Passing)
//Storyboard Layer 3 (Foreground)
//Storyboard Sound Samples
//Background Colour Transformations
3,100,186,118,203

[TimingPoints]
56,333.333333333333,4,2,0,51,1,0
5166,-100,4,1,0,51,0,0
79722,500,4,2,1,51,1,0
111722,333.333333333333,4,1,0,51,1,0
137001,-200,4,2,0,51,0,0
141834,-100,4,1,0,51,0,1

[Colours]
Combo1 : 131,231,252
Combo2 : 32,112,192
Combo3 : 213,224,234
Combo4 : 0,160,112

[HitObjects]
64,152,56,2,2,B|104:184|160:136,1,75
200,144,389,2,2,B|216:96|192:56,1,75,10|2
264,48,722,2,2,B|304:24|352:56,1,75
400,71,1055,2,10,B|417:97|401:145,3,75,10|2|10|2
431,207,1722,2,2,B|392:239|430:280,3,75,2|2|2|2
368,312,2389,6,10,B|337:335|297:311,1,75,10|10
256,256,2722,2,2,B|227:223|257:183,1,75
192,152,3055,2,2,B|152:184|122:155,1,75,10|2
120,88,3389,2,2,B|160:64|200:88,1,75
256,120,3722,2,10,B|336:152|416:120,4,150
256,192,5222,5,12
256,264,5389,2,0,B|104:264,1,150,0|8
256,192,6055,2,0,B|432:192,2,150,0|8|0
408,120,7055,2,0,B|248:120,2,150,8|0|8
408,120,7889,1,8
464,216,8055,6,0,B|424:272|328:312,1,150,0|8
176,304,8722,2,0,B|98:272|58:216,3,150,0|8|0|8
56,104,10055,2,0,B|96:49|174:16,3,150,0|8|0|8
344,16,11389,2,0,B|423:50|463:105,3,150,0|8|0|8
328,128,12722,2,0,B|176:128,1,150,0|8
178,128,13222,1,8
98,186,13389,6,0,B|114:258|186:194|234:290,1,150,0|8
298,265,14056,2,0,B|329:197|401:261|417:189,1,150,0|8
256,192,14722,1,0
184,216,15056,2,8,B|172:164|184:139|210:120|241:106|268:108|298:109|325:131|347:155|352:179|343:204|337:233,1,300
256,192,16056,2,10,B|268:244|256:269|230:288|199:302|172:300|142:299|115:277|93:253|88:229|97:204|103:175,2,300,8|8|8
176,216,17722,2,8,B|176:160|200:96|256:64|312:48|392:56|400:72,1,300
387,64,18556,1,8
392,152,18722,6,0,B|280:48,1,150,0|8
392,152,19389,2,0,B|296:272,1,150,0|8
392,152,20055,1,0
304,144,20389,2,8,B|232:24|112:48|64:144,1,300
64,232,21389,2,10,B|111:325|231:349|303:229,2,300
176,192,23055,1,8
256,40,23389,1,0
336,192,23722,1,8
336,192,23889,1,8
336,280,24055,6,0,B|184:280,1,150,0|8
184,176,24722,2,0,B|336:176,3,150,0|8|0|8
336,72,26055,2,0,B|184:72,3,150,0|8|0|8
96,74,27389,2,0,B|32:154|120:234,1,150,0|8
144,144,28055,2,0,B|176:112|248:168|296:128,1,150,0|8
328,202,28722,2,0,B|394:146|330:66,1,150,0|8
332,69,29222,1,8
400,48,29389,5,0
400,184,29723,1,8
264,184,30056,1,0
200,56,30389,1,8
136,184,30723,1,0
256,304,31056,1,8
264,184,31389,1,0
136,304,31721,1,8
136,304,31888,1,8
56,224,32055,2,2,B|56:176|64:136|80:96|112:56|160:24|256:16|352:32|392:56|432:96|448:144|456:192|456:232,2,600
120,336,35055,5,8
248,200,35389,1,0
376,336,35722,1,8
376,200,36055,1,0
248,336,36389,1,8
120,200,36722,1,0
120,336,37055,1,8
120,336,37222,1,8
56,224,37389,2,2,B|56:176|64:136|80:96|112:56|160:24|256:16|352:32|392:56|432:96|448:144|456:192|456:232,2,600
64,320,40389,5,8
184,376,40722,1,0
304,320,41056,1,8
424,376,41389,1,0
480,256,41722,1,8
424,136,42056,1,0
360,256,42389,1,8
360,256,42556,1,8
344,136,42722,5,0
328,8,43056,1,8
208,64,43389,1,0
88,8,43722,1,8
32,128,44056,1,0
88,248,44389,1,8
152,128,44722,1,0
208,248,45056,1,8
208,248,45222,1,8
328,320,45389,6,2,B|384:280|392:240,1,75
312,240,45722,2,0,B|336:200|384:176,1,75,8|0
368,72,46056,1,6
256,72,46389,1,8
184,320,46722,2,2,B|128:280|120:240,1,75
200,240,47056,2,0,B|176:200|128:176,1,75,8|0
144,72,47389,1,6
256,0,47722,1,8
260,103,48056,6,2,B|236:135|292:143|252:191,1,75
260,247,48389,1,8
260,247,48556,1,0
192,320,48722,2,2,B|240:288|280:376|360:296,1,150,2|12
456,280,49389,6,0,B|504:272|504:216,1,75,0|0
384,264,49722,2,0,B|392:208|456:208,1,75,8|0
480,160,50056,2,0,B|472:128,1,75
384,152,50389,2,0,B|328:168|336:80,1,75,8|0
384,56,50722,2,0,B|352:24|304:48,1,75
256,80,51056,2,8,B|224:88|224:144,1,75
152,192,51389,6,0,B|48:192,3,75,0|0|8|0
112,344,52056,1,0
224,192,52389,2,0,B|328:192,3,75,8|0|0|0
264,344,53056,1,8
384,344,53389,2,0,B|384:232,1,75
384,200,53722,2,0,B|384:88,1,75,8|0
384,56,54056,2,0,B|472:56,1,75
466,126,54389,2,8,B|466:201,1,75
360,192,54722,6,0,B|435:192,3,75,0|0|8|0
400,344,55389,1,0
288,192,55722,2,0,B|213:192,3,75,8|0|0|0
248,344,56389,1,8
128,344,56722,2,0,B|128:269,1,75
128,200,57056,2,0,B|128:125,1,75,8|0
128,56,57389,2,0,B|53:56,1,75
46,126,57722,2,8,B|46:201,1,75
48,272,58056,6,0,B|96:328|200:328,2,150,0|8|0
152,200,59056,1,10
464,272,59389,2,0,B|416:328|312:328,2,150,0|8|0
360,200,60389,1,10
48,112,60722,6,0,B|96:56|200:56,2,150,0|8|0
152,184,61722,1,10
464,112,62056,2,0,B|416:56|312:56,2,150,0|8|0
360,184,63056,1,10
256,216,63389,2,0,B|256:368,2,150,0|8|0
256,80,64389,1,8
256,80,64556,1,8
192,24,64722,5,0
96,144,65056,1,8
192,264,65389,1,0
320,264,65722,1,8
416,144,66056,1,0
320,24,66389,1,8
184,64,66722,6,0,B|160:120|168:152,1,75
208,192,67056,2,0,B|240:168|312:200,1,75,8|0
248,256,67389,2,0,B|208:280|160:256,3,75,0|0|8|8
192,360,68056,5,0
96,240,68389,1,8
192,120,68722,1,0
320,120,69056,1,8
416,240,69389,1,0
320,360,69722,1,8
184,320,70056,6,0,B|160:264|168:232,1,75
208,192,70389,2,0,B|240:216|312:184,1,75,8|0
320,136,70722,2,0,B|280:112|232:136,3,75,0|0|8|8
424,40,71389,6,0,B|488:192|440:352,1,300
88,40,72389,2,8,B|24:192|72:352,1,300
224,328,73389,2,0,B|264:303|318:341,1,75
295,256,73722,2,0,B|255:243|214:259,1,75,8|0
222,189,74056,2,0,B|260:171|322:200,1,75
295,119,74389,2,8,B|255:106|214:122,1,75
88,40,74722,6,0,B|24:192|72:352,1,300
424,40,75722,2,8,B|488:192|440:352,1,300
288,328,76722,2,0,B|248:303|194:341,1,75
216,256,77056,2,0,B|257:243|298:259,1,75,8|0
290,189,77389,2,0,B|252:171|190:200,1,75
256,56,77722,1,10
40,192,79722,6,0,B|40:96|136:104,1,150,8|0
119,183,80722,2,0,B|213:191|213:95,1,150,8|0
256,40,81722,1,8
256,120,82222,2,0,B|256:272,2,150,0|8|0
120,360,83722,2,8,B|160:304|256:360|360:400|408:328,2,300
160,200,86722,6,10,B|224:128|328:136,1,150
472,192,87722,6,0,B|472:288|376:280,1,150,8|0
392,200,88722,2,0,B|299:193|299:289,1,150,8|0
256,344,89722,1,8
256,264,90222,2,0,B|256:112,2,150,0|8|0
392,24,91722,2,8,B|352:80|256:24|152:-16|104:56,2,300
352,184,94722,6,12,B|288:256|184:248,1,150
184,40,95722,1,10
40,88,96722,2,8,B|40:152|56:240|112:296|168:320|240:336|312:352|408:312|504:224,1,600,8|8
328,176,99222,5,8
328,40,99722,1,8
472,88,100722,2,0,B|472:152|456:240|400:296|344:320|272:336|200:352|104:312|8:224,1,600,8|8
256,32,103222,6,8,B|216:80|288:136|248:184,1,150
128,288,104722,2,10,B|144:232|264:288|400:352|416:256,2,300
136,56,107222,5,8
376,56,107722,1,12
256,112,108722,2,10,B|216:160|312:248|248:280,4,150,10|2|10|2|10
154,326,121055,6,0,B|170:294|210:318|226:270,1,75
216,288,121388,1,8
216,288,121555,1,8
360,323,121721,2,0,B|354:294|314:318|298:286,1,75
299,288,122055,1,8
299,288,122221,1,0
224,208,122388,2,0,B|312:208,6,75,8|0|8|0|8|0|8
256,136,123555,1,0
154,58,123721,6,0,B|170:90|210:66|226:114,1,75
216,96,124055,1,8
216,96,124221,1,8
360,60,124388,2,0,B|354:90|314:66|298:98,1,75
299,95,124721,1,8
299,95,124888,1,0
224,176,125055,2,0,B|312:176,6,75,8|0|8|0|8|0|8
256,248,126221,1,0
192,320,126388,6,0,B|152:336|104:320,1,75
48,328,126721,2,8,B|48:288|88:248,1,75
24,216,127055,2,0,B|32:168|72:128,1,75
112,192,127388,2,0,B|128:144|160:112,1,75,8|0
136,56,127721,6,0,B|176:40|224:56,1,75
280,48,128055,2,8,B|280:88|240:128,1,75
304,160,128388,2,0,B|296:208|256:248,1,75
216,184,128721,2,0,B|200:232|168:264,1,75,8|0
176,320,129055,6,0,B|216:336|264:320,1,75
320,328,129388,2,8,B|320:288|280:248,1,75
344,216,129721,2,0,B|336:168|296:128,1,75
256,192,130055,2,0,B|240:144|208:112,1,75,8|0
152,64,130388,5,0
152,64,130555,1,0
104,128,130721,1,8
104,128,130888,1,8
152,192,131055,1,0
152,192,131221,1,0
96,248,131388,1,8
256,192,131721,12,4,136388
48,200,137221,6,2,B|56:128|128:96,1,112.5
464,200,138388,2,2,B|456:128|384:96,1,112.5
256,48,139721,2,2,B|224:96|288:192|248:208,3,150
256,344,141888,5,6
256,344,142055,1,6
256,344,142222,1,6
232,272,142388,6,0,B|208:216|232:168,1,75
288,224,142722,2,10,B|304:160|272:120,1,75
256,40,143055,2,0,B|200:40|160:80,1,75
256,40,143388,2,0,B|304:40|336:72,1,75,14|0
232,112,143722,6,0,B|208:168|232:216,1,75
288,160,144055,2,10,B|304:224|272:264,1,75
256,344,144388,2,0,B|208:344|168:304,1,75
256,344,144722,2,0,B|304:344|336:304,1,75,14|0
440,320,145055,6,0,B|496:264,1,75
392,264,145388,2,10,B|448:208,1,75,10|10
344,208,145722,2,0,B|400:152,1,75
296,152,146055,2,0,B|352:96,1,75,14|0
216,152,146388,6,0,B|162:98,1,75,0|0
168,208,146722,2,10,B|114:154,1,75
120,264,147055,2,0,B|66:210,1,75,0|0
72,320,147388,2,0,B|18:266,1,75,14|0
72,176,147722,6,0,B|104:144|160:184,1,75
208,192,148055,1,10
208,192,148222,1,10
272,168,148388,2,0,B|304:136|360:176,1,75
400,200,148722,1,14
400,200,148888,1,0
440,88,149055,5,0
440,88,149222,1,0
368,48,149388,1,10
368,48,149555,1,10
288,80,149722,1,0
288,80,149888,1,0
208,48,150055,1,14
256,192,150555,12,6,153055
