osu file format v13

[General]
AudioFilename: The Lemon Squash 192.mp3
AudioLeadIn: 0
PreviewTime: 33056
Countdown: 0
SampleSet: Soft
StackLeniency: 0.7
Mode: 3
LetterboxInBreaks: 0
SpecialStyle: 0
WidescreenStoryboard: 1

[Editor]
DistanceSpacing: 0.6
BeatDivisor: 4
GridSize: 4
TimelineZoom: 3.62

[Metadata]
Title:The Lemon Squash
TitleUnicode:The Lemon Squash
Artist:Takahiro Eguchi
ArtistUnicode:Takahiro Eguchi
Creator:dextelityap
Version:Hard
Source:Beatcraft Cyclon
Tags:beatcraft cyclon lemon squash
BeatmapID:499868
BeatmapSetID:212527

[Difficulty]
HPDrainRate:8
CircleSize:7
OverallDifficulty:7
ApproachRate:5
SliderMultiplier:1.4
SliderTickRate:1

[Events]
//Background and Video events
0,0,"BG.jpg",0,0
//Break Periods
//Storyboard Layer 0 (Background)
//Storyboard Layer 1 (Fail)
//Storyboard Layer 2 (Pass)
//Storyboard Layer 3 (Foreground)
//Storyboard Sound Samples
//Background Colour Transformations
3,100,163,162,255

[TimingPoints]
2740.48290352141,315.789473684211,4,2,1,75,1,0
33056,-100,4,2,1,75,0,1
43082,-100,4,2,1,75,0,0
43161,-100,4,2,1,75,0,1
53266,-100,4,2,1,75,0,0
63372,-133.333333333333,4,2,1,75,0,0
70951,-100,4,2,1,75,0,0

[HitObjects]
402,192,2740,5,0,0:0:0:0:
109,192,2740,1,0,0:0:0:0:
402,192,2898,1,0,0:0:0:0:
109,192,3214,1,0,0:0:0:0:
109,192,3372,1,0,0:0:0:0:
402,192,3372,1,4,0:0:0:0:
402,192,3687,1,0,0:0:0:0:
256,192,3845,1,0,0:0:0:0:
475,192,4003,1,8,0:0:0:0:
36,192,4003,1,0,0:0:0:0:
182,192,4161,1,0,0:0:0:0:
36,192,4319,1,8,0:0:0:0:
475,192,4477,1,0,0:0:0:0:
182,192,4635,1,0,0:0:0:0:
329,192,4635,1,4,0:0:0:0:
109,192,4793,1,0,0:0:0:0:
256,192,4872,1,0,0:0:0:0:
402,192,4951,1,0,0:0:0:0:
182,192,5266,1,0,0:0:0:0:
329,192,5266,1,0,0:0:0:0:
182,192,5424,1,0,0:0:0:0:
329,192,5740,1,0,0:0:0:0:
182,192,5898,1,4,0:0:0:0:
329,192,5898,1,0,0:0:0:0:
402,192,6214,1,0,0:0:0:0:
109,192,6372,1,0,0:0:0:0:
36,192,6529,1,0,0:0:0:0:
475,192,6529,1,8,0:0:0:0:
109,192,6608,1,0,0:0:0:0:
182,192,6687,1,0,0:0:0:0:
109,192,6766,1,0,0:0:0:0:
182,192,6845,1,0,0:0:0:0:
256,192,6924,1,0,0:0:0:0:
329,192,7003,1,0,0:0:0:0:
402,192,7082,1,0,0:0:0:0:
475,192,7161,1,0,0:0:0:0:
402,192,7240,1,0,0:0:0:0:
329,192,7319,1,0,0:0:0:0:
256,192,7398,1,0,0:0:0:0:
182,192,7477,1,0,0:0:0:0:
256,192,7556,1,0,0:0:0:0:
182,192,7635,1,0,0:0:0:0:
109,192,7714,1,0,0:0:0:0:
475,192,7793,1,0,0:0:0:0:
36,192,7793,1,8,0:0:0:0:
475,192,7951,1,0,0:0:0:0:
36,192,8266,1,0,0:0:0:0:
475,192,8424,1,4,0:0:0:0:
36,192,8424,1,0,0:0:0:0:
182,192,8740,1,0,0:0:0:0:
329,192,8898,1,0,0:0:0:0:
36,192,9056,1,8,0:0:0:0:
475,192,9214,1,0,0:0:0:0:
182,192,9372,1,8,0:0:0:0:
329,192,9529,1,0,0:0:0:0:
402,192,9687,1,4,0:0:0:0:
109,192,9687,1,0,0:0:0:0:
36,192,9845,1,0,0:0:0:0:
182,192,10003,1,0,0:0:0:0:
475,192,10319,1,0,0:0:0:0:
182,192,10319,1,8,0:0:0:0:
329,192,10477,1,0,0:0:0:0:
36,192,10793,1,0,0:0:0:0:
182,192,10951,1,0,0:0:0:0:
402,192,10951,1,4,0:0:0:0:
475,192,11266,1,0,0:0:0:0:
256,192,11424,1,0,0:0:0:0:
475,192,11582,1,0,0:0:0:0:
36,192,11582,1,8,0:0:0:0:
402,192,11661,1,0,0:0:0:0:
329,192,11740,1,0,0:0:0:0:
256,192,11819,1,0,0:0:0:0:
182,192,11898,1,0,0:0:0:0:
109,192,11977,1,0,0:0:0:0:
36,192,12056,1,0,0:0:0:0:
109,192,12135,1,0,0:0:0:0:
182,192,12214,1,0,0:0:0:0:
256,192,12293,1,0,0:0:0:0:
329,192,12372,1,0,0:0:0:0:
402,192,12451,1,0,0:0:0:0:
475,192,12529,1,0,0:0:0:0:
402,192,12608,1,0,0:0:0:0:
329,192,12687,1,0,0:0:0:0:
256,192,12766,1,0,0:0:0:0:
36,192,12845,1,0,0:0:0:0:
182,192,12845,1,8,0:0:0:0:
402,192,13161,1,0,0:0:0:0:
329,192,13477,1,4,0:0:0:0:
182,192,13477,1,0,0:0:0:0:
256,192,13793,1,0,0:0:0:0:
182,192,13951,1,0,0:0:0:0:
402,192,14108,1,0,0:0:0:0:
36,192,14108,1,8,0:0:0:0:
256,192,14266,1,0,0:0:0:0:
182,192,14424,1,8,0:0:0:0:
475,192,14424,1,0,0:0:0:0:
109,192,14740,1,0,0:0:0:0:
402,192,14740,1,4,0:0:0:0:
329,192,15056,128,0,15372:0:0:0:0:
109,192,15372,1,8,0:0:0:0:
402,192,15529,1,0,0:0:0:0:
182,192,15687,1,0,0:0:0:0:
329,192,15845,1,0,0:0:0:0:
402,192,15924,1,0,0:0:0:0:
475,192,16003,1,0,0:0:0:0:
36,192,16003,1,4,0:0:0:0:
182,192,16161,1,0,0:0:0:0:
329,192,16477,1,0,0:0:0:0:
109,192,16635,1,0,0:0:0:0:
182,192,16714,1,0,0:0:0:0:
256,192,16793,1,0,0:0:0:0:
329,192,16872,1,0,0:0:0:0:
402,192,16951,1,0,0:0:0:0:
256,192,17029,1,0,0:0:0:0:
329,192,17108,1,0,0:0:0:0:
402,192,17187,1,0,0:0:0:0:
475,192,17266,1,0,0:0:0:0:
402,192,17345,1,0,0:0:0:0:
329,192,17424,1,0,0:0:0:0:
256,192,17503,1,0,0:0:0:0:
329,192,17582,1,0,0:0:0:0:
256,192,17661,1,0,0:0:0:0:
182,192,17740,1,0,0:0:0:0:
109,192,17819,1,0,0:0:0:0:
36,192,17898,1,8,0:0:0:0:
256,192,17898,1,0,0:0:0:0:
109,192,17977,1,0,0:0:0:0:
182,192,18056,1,0,0:0:0:0:
402,192,18214,1,0,0:0:0:0:
109,192,18372,1,0,0:0:0:0:
475,192,18529,1,0,0:0:0:0:
329,192,18529,1,4,0:0:0:0:
402,192,18687,1,0,0:0:0:0:
329,192,19003,1,0,0:0:0:0:
36,192,19161,1,8,0:0:0:0:
256,192,19319,1,0,0:0:0:0:
36,192,19477,1,8,0:0:0:0:
109,192,19635,1,0,0:0:0:0:
475,192,19793,1,4,0:0:0:0:
256,192,19793,1,0,0:0:0:0:
182,192,19951,1,0,0:0:0:0:
36,192,20108,1,0,0:0:0:0:
182,192,20424,128,0,20582:0:0:0:0:
475,192,20424,1,8,0:0:0:0:
256,192,20582,128,0,20740:0:0:0:0:
329,192,20740,128,0,20898:0:0:0:0:
256,192,20898,128,0,21056:0:0:0:0:
36,192,21056,1,4,0:0:0:0:
475,192,21056,1,0,0:0:0:0:
109,192,21214,1,0,0:0:0:0:
109,192,21372,1,0,0:0:0:0:
329,192,21529,1,0,0:0:0:0:
475,192,21687,1,8,0:0:0:0:
109,192,21845,1,0,0:0:0:0:
475,192,22003,1,8,0:0:0:0:
402,192,22161,1,0,0:0:0:0:
109,192,22319,128,0,22477:0:0:0:0:
329,192,22319,1,4,0:0:0:0:
402,192,22477,128,0,22635:0:0:0:0:
182,192,22635,128,0,22793:0:0:0:0:
329,192,22793,128,0,22951:0:0:0:0:
36,192,22951,1,0,0:0:0:0:
475,192,22951,1,0,0:0:0:0:
402,192,23108,1,0,0:0:0:0:
182,192,23266,1,0,0:0:0:0:
329,192,23582,1,4,0:0:0:0:
109,192,23582,1,0,0:0:0:0:
402,192,23898,1,0,0:0:0:0:
182,192,24056,1,0,0:0:0:0:
36,192,24214,1,0,0:0:0:0:
475,192,24214,1,8,0:0:0:0:
475,192,24529,1,8,0:0:0:0:
182,192,24529,1,0,0:0:0:0:
36,192,24845,1,0,0:0:0:0:
329,192,24845,1,4,0:0:0:0:
402,192,25161,128,0,25477:0:0:0:0:
109,192,25477,1,8,0:0:0:0:
329,192,25635,1,0,0:0:0:0:
475,192,25793,1,0,0:0:0:0:
402,192,25872,1,0,0:0:0:0:
329,192,25951,1,0,0:0:0:0:
36,192,26108,1,0,0:0:0:0:
256,192,26108,1,4,0:0:0:0:
402,192,26266,1,0,0:0:0:0:
329,192,26582,1,0,0:0:0:0:
36,192,26740,1,0,0:0:0:0:
475,192,26740,1,8,0:0:0:0:
109,192,26819,1,0,0:0:0:0:
182,192,26898,1,0,0:0:0:0:
256,192,26977,1,0,0:0:0:0:
329,192,27056,1,0,0:0:0:0:
109,192,27135,1,0,0:0:0:0:
182,192,27214,1,0,0:0:0:0:
256,192,27293,1,0,0:0:0:0:
329,192,27372,1,0,0:0:0:0:
402,192,27451,1,0,0:0:0:0:
475,192,27529,1,0,0:0:0:0:
402,192,27608,1,0,0:0:0:0:
329,192,27687,1,0,0:0:0:0:
256,192,27766,1,0,0:0:0:0:
182,192,27845,1,0,0:0:0:0:
109,192,27924,1,0,0:0:0:0:
329,192,28003,1,8,0:0:0:0:
36,192,28003,1,0,0:0:0:0:
256,192,28319,1,0,0:0:0:0:
109,192,28635,1,0,0:0:0:0:
402,192,28635,1,4,0:0:0:0:
182,192,28793,1,0,0:0:0:0:
329,192,28872,1,0,0:0:0:0:
256,192,28951,1,0,0:0:0:0:
329,192,29108,1,0,0:0:0:0:
36,192,29266,1,8,0:0:0:0:
182,192,29266,1,8,0:0:0:0:
36,192,29424,1,0,0:0:0:0:
475,192,29582,1,8,0:0:0:0:
109,192,29740,1,0,0:0:0:0:
402,192,29740,1,0,0:0:0:0:
256,192,29898,1,4,0:0:0:0:
475,192,29898,1,0,0:0:0:0:
36,192,30056,1,0,0:0:0:0:
109,192,30214,1,0,0:0:0:0:
182,192,30372,128,0,30687:0:0:0:0:
329,192,30529,1,8,0:0:0:0:
402,192,30687,1,0,0:0:0:0:
475,192,30845,1,0,0:0:0:0:
329,192,31161,1,0,0:0:0:0:
182,192,31161,1,4,0:0:0:0:
256,192,31477,1,0,0:0:0:0:
182,192,31635,1,8,0:0:0:0:
329,192,31635,1,0,0:0:0:0:
109,192,31714,1,8,0:0:0:0:
402,192,31714,1,0,0:0:0:0:
36,192,31793,1,12,0:0:0:0:
475,192,31793,1,4,0:0:0:0:
256,192,31951,1,8,0:0:0:0:
475,192,32108,1,4,0:0:0:0:
36,192,32108,1,8,0:0:0:0:
256,192,32266,1,8,0:0:0:0:
36,192,32424,1,8,0:0:0:0:
475,192,32424,1,4,0:0:0:0:
109,192,32582,1,8,0:0:0:0:
402,192,32582,1,0,0:0:0:0:
182,192,32661,1,8,0:0:0:0:
329,192,32661,1,0,0:0:0:0:
256,192,32740,1,12,0:0:0:0:
36,192,32740,1,0,0:0:0:0:
475,192,32740,1,0,0:0:0:0:
329,192,33056,128,0,33529:0:0:0:0:
36,192,33056,1,8,0:0:0:0:
475,192,33056,1,0,0:0:0:0:
182,192,33372,1,4,0:0:0:0:
256,192,33372,1,0,0:0:0:0:
402,192,33529,128,0,34003:0:0:0:0:
109,192,33845,1,8,0:0:0:0:
475,192,34003,1,0,0:0:0:0:
256,192,34003,128,0,34477:0:0:0:0:
182,192,34003,1,4,0:0:0:0:
109,192,34319,1,8,0:0:0:0:
182,192,34477,128,0,34951:0:0:0:0:
475,192,34635,1,0,0:0:0:0:
329,192,34635,1,4,0:0:0:0:
109,192,34951,128,0,35266:0:0:0:0:
329,192,35108,1,8,0:0:0:0:
36,192,35266,1,0,0:0:0:0:
182,192,35266,128,0,35582:0:0:0:0:
475,192,35266,1,4,0:0:0:0:
36,192,35582,128,0,35898:0:0:0:0:
329,192,35582,1,8,0:0:0:0:
256,192,35898,1,0,0:0:0:0:
109,192,35898,128,0,36056:0:0:0:0:
402,192,35898,1,4,0:0:0:0:
182,192,36056,128,0,36372:0:0:0:0:
475,192,36372,128,0,36687:0:0:0:0:
109,192,36372,1,8,0:0:0:0:
36,192,36529,1,0,0:0:0:0:
329,192,36529,1,4,0:0:0:0:
256,192,36687,128,0,37951:0:0:0:0:
402,192,36845,1,8,0:0:0:0:
109,192,37161,1,0,0:0:0:0:
329,192,37161,1,4,0:0:0:0:
36,192,37635,1,8,0:0:0:0:
402,192,37793,1,0,0:0:0:0:
182,192,37793,1,4,0:0:0:0:
109,192,38108,128,0,38582:0:0:0:0:
329,192,38108,1,8,0:0:0:0:
475,192,38424,1,0,0:0:0:0:
256,192,38424,1,4,0:0:0:0:
182,192,38582,128,0,39056:0:0:0:0:
329,192,38898,1,8,0:0:0:0:
109,192,39056,1,0,0:0:0:0:
36,192,39056,128,0,39529:0:0:0:0:
475,192,39056,1,4,0:0:0:0:
256,192,39372,1,8,0:0:0:0:
475,192,39529,128,0,40003:0:0:0:0:
329,192,39687,1,0,0:0:0:0:
182,192,39687,1,4,0:0:0:0:
402,192,40003,128,0,40319:0:0:0:0:
109,192,40161,1,8,0:0:0:0:
36,192,40319,1,0,0:0:0:0:
329,192,40319,128,0,40635:0:0:0:0:
182,192,40319,1,4,0:0:0:0:
402,192,40635,128,0,40951:0:0:0:0:
109,192,40635,1,8,0:0:0:0:
475,192,40951,1,0,0:0:0:0:
109,192,40951,128,0,41108:0:0:0:0:
256,192,40951,1,4,0:0:0:0:
182,192,41108,128,0,41424:0:0:0:0:
36,192,41424,128,0,41740:0:0:0:0:
329,192,41424,1,8,0:0:0:0:
109,192,41582,1,0,0:0:0:0:
475,192,41582,1,4,0:0:0:0:
256,192,41740,128,0,42845:0:0:0:0:
109,192,41898,128,0,42214:0:0:0:0:
182,192,42214,128,0,42529:0:0:0:0:
402,192,42529,128,0,42845:0:0:0:0:
329,192,42845,128,0,43161:0:0:0:0:
109,192,43161,128,0,43635:0:0:0:0:
36,192,43161,1,8,0:0:0:0:
475,192,43477,1,4,0:0:0:0:
256,192,43477,1,0,0:0:0:0:
182,192,43635,128,0,44108:0:0:0:0:
402,192,43951,1,8,0:0:0:0:
475,192,44108,1,0,0:0:0:0:
36,192,44108,128,0,44582:0:0:0:0:
256,192,44108,1,4,0:0:0:0:
182,192,44424,1,8,0:0:0:0:
402,192,44582,128,0,45056:0:0:0:0:
329,192,44740,1,0,0:0:0:0:
109,192,44740,1,4,0:0:0:0:
329,192,45056,128,0,45372:0:0:0:0:
182,192,45214,1,8,0:0:0:0:
36,192,45372,1,0,0:0:0:0:
475,192,45372,128,0,45687:0:0:0:0:
256,192,45372,1,4,0:0:0:0:
256,192,45687,128,0,46003:0:0:0:0:
329,192,45687,1,8,0:0:0:0:
109,192,46003,128,0,46161:0:0:0:0:
402,192,46003,1,4,0:0:0:0:
36,192,46003,1,0,0:0:0:0:
182,192,46161,128,0,46477:0:0:0:0:
36,192,46477,128,0,46793:0:0:0:0:
329,192,46477,1,8,0:0:0:0:
475,192,46635,1,0,0:0:0:0:
256,192,46635,1,4,0:0:0:0:
109,192,46635,128,0,47582:0:0:0:0:
329,192,46951,1,8,0:0:0:0:
182,192,47266,1,0,0:0:0:0:
402,192,47266,1,4,0:0:0:0:
182,192,47740,128,0,47898:0:0:0:0:
36,192,47740,1,8,0:0:0:0:
402,192,47898,1,0,0:0:0:0:
256,192,47898,128,0,48056:0:0:0:0:
475,192,47898,1,4,0:0:0:0:
329,192,48056,128,0,49161:0:0:0:0:
109,192,48214,1,8,0:0:0:0:
182,192,48529,1,4,0:0:0:0:
36,192,48529,1,0,0:0:0:0:
109,192,49003,1,8,0:0:0:0:
36,192,49161,1,0,0:0:0:0:
256,192,49161,128,0,49319:0:0:0:0:
182,192,49161,1,4,0:0:0:0:
402,192,49319,128,0,50424:0:0:0:0:
182,192,49477,1,8,0:0:0:0:
109,192,49793,1,0,0:0:0:0:
475,192,49793,1,4,0:0:0:0:
36,192,50266,1,8,0:0:0:0:
109,192,50424,1,0,0:0:0:0:
329,192,50424,128,0,50740:0:0:0:0:
182,192,50424,1,4,0:0:0:0:
256,192,50740,128,0,51214:0:0:0:0:
475,192,50740,1,8,0:0:0:0:
402,192,51056,1,0,0:0:0:0:
109,192,51056,1,4,0:0:0:0:
329,192,51214,128,0,51687:0:0:0:0:
182,192,51529,1,8,0:0:0:0:
256,192,51687,128,0,53266:0:0:0:0:
36,192,51687,1,4,0:0:0:0:
475,192,51687,1,0,0:0:0:0:
109,192,52003,1,0,0:0:0:0:
182,192,52161,1,0,0:0:0:0:
109,192,52319,1,0,0:0:0:0:
402,192,52477,1,8,0:0:0:0:
329,192,52635,1,8,0:0:0:0:
402,192,52793,1,8,0:0:0:0:
36,192,52951,1,8,0:0:0:0:
182,192,52951,1,0,0:0:0:0:
329,192,53108,1,8,0:0:0:0:
475,192,53108,1,0,0:0:0:0:
36,192,53266,1,8,0:0:0:0:
182,192,53266,1,0,0:0:0:0:
402,192,53266,128,0,55793:0:0:0:0:
329,192,53582,1,0,0:0:0:0:
182,192,53898,1,0,0:0:0:0:
109,192,54214,1,0,0:0:0:0:
182,192,54372,1,0,0:0:0:0:
36,192,54529,1,0,0:0:0:0:
475,192,54845,1,0,0:0:0:0:
256,192,55161,1,0,0:0:0:0:
256,192,55477,128,0,58319:0:0:0:0:
36,192,55793,1,8,0:0:0:0:
109,192,55793,1,2,0:0:0:0:
182,192,55951,1,0,0:0:0:0:
402,192,56108,1,0,0:0:0:0:
109,192,56266,1,0,0:0:0:0:
402,192,56424,1,0,0:0:0:0:
109,192,56582,1,0,0:0:0:0:
402,192,56740,1,0,0:0:0:0:
109,192,56898,1,0,0:0:0:0:
402,192,57056,128,0,57687:0:0:0:0:
109,192,57056,128,0,57687:0:0:0:0:
36,192,57687,128,0,58319:0:0:0:0:
475,192,58319,1,2,0:0:0:0:
402,192,58319,128,0,60845:0:0:0:0:
256,192,60845,128,0,63372:0:0:0:0:
109,192,60845,1,12,0:0:0:0:
329,192,60845,1,0,0:0:0:0:
36,192,61003,1,8,0:0:0:0:
36,192,61161,1,8,0:0:0:0:
402,192,61319,1,12,0:0:0:0:
109,192,61319,1,0,0:0:0:0:
36,192,61477,1,8,0:0:0:0:
36,192,61635,1,8,0:0:0:0:
109,192,61793,1,8,0:0:0:0:
402,192,61793,1,4,0:0:0:0:
36,192,61951,1,8,0:0:0:0:
475,192,61951,1,0,0:0:0:0:
36,192,62108,1,8,0:0:0:0:
475,192,62108,1,0,0:0:0:0:
182,192,62266,5,8,0:0:0:0:
329,192,62266,1,4,0:0:0:0:
36,192,62424,1,8,0:0:0:0:
475,192,62424,1,0,0:0:0:0:
475,192,62582,1,0,0:0:0:0:
36,192,62582,1,8,0:0:0:0:
109,192,62740,1,8,0:0:0:0:
402,192,62740,1,4,0:0:0:0:
182,192,62898,1,8,0:0:0:0:
329,192,62898,1,0,0:0:0:0:
402,192,62977,1,0,0:0:0:0:
109,192,62977,1,8,0:0:0:0:
475,192,63056,1,0,0:0:0:0:
36,192,63056,1,8,0:0:0:0:
402,192,63214,1,0,0:0:0:0:
109,192,63214,1,8,0:0:0:0:
182,192,63372,5,8,0:0:0:0:
329,192,63372,1,0,0:0:0:0:
402,192,63845,1,0,0:0:0:0:
256,192,64319,1,0,0:0:0:0:
109,192,64793,1,0,0:0:0:0:
36,192,65266,1,0,0:0:0:0:
182,192,65582,1,0,0:0:0:0:
256,192,65898,1,0,0:0:0:0:
329,192,66214,1,0,0:0:0:0:
256,192,66372,1,0,0:0:0:0:
402,192,66687,1,0,0:0:0:0:
36,192,67003,1,0,0:0:0:0:
182,192,68424,1,0,0:0:0:0:
329,192,68898,1,0,0:0:0:0:
109,192,69372,1,0,0:0:0:0:
256,192,69845,1,0,0:0:0:0:
402,192,70319,1,0,0:0:0:0:
256,192,70635,1,0,0:0:0:0:
182,192,70951,1,8,0:0:0:0:
329,192,70951,1,4,0:0:0:0:
36,192,71108,1,8,0:0:0:0:
475,192,71108,1,0,0:0:0:0:
36,192,71266,1,8,0:0:0:0:
475,192,71266,1,0,0:0:0:0:
182,192,71424,1,8,0:0:0:0:
329,192,71424,1,4,0:0:0:0:
109,192,71582,1,8,0:0:0:0:
402,192,71582,1,0,0:0:0:0:
109,192,71740,1,8,0:0:0:0:
402,192,71740,1,0,0:0:0:0:
36,192,71898,1,8,0:0:0:0:
475,192,71898,1,4,0:0:0:0:
182,192,72056,1,8,0:0:0:0:
329,192,72056,1,0,0:0:0:0:
402,192,72214,1,8,0:0:0:0:
256,192,72214,1,4,0:0:0:0:
109,192,72214,1,0,0:0:0:0:
36,192,72372,1,8,0:0:0:0:
475,192,72372,1,0,0:0:0:0:
256,192,72529,1,4,0:0:0:0:
36,192,72687,1,8,0:0:0:0:
475,192,72687,1,0,0:0:0:0:
256,192,72845,1,4,0:0:0:0:
36,192,73003,1,8,0:0:0:0:
475,192,73003,1,0,0:0:0:0:
256,192,73161,1,0,0:0:0:0:
109,192,73161,1,8,0:0:0:0:
402,192,73161,1,0,0:0:0:0:
36,192,73477,128,0,73951:0:0:0:0:
475,192,73477,1,8,0:0:0:0:
329,192,73793,1,4,0:0:0:0:
109,192,73951,128,0,74424:0:0:0:0:
256,192,74266,1,8,0:0:0:0:
182,192,74424,128,0,74740:0:0:0:0:
329,192,74424,1,4,0:0:0:0:
402,192,74740,1,8,0:0:0:0:
109,192,74740,1,0,0:0:0:0:
109,192,74977,1,0,0:0:0:0:
402,192,74977,1,8,0:0:0:0:
109,192,75214,1,0,0:0:0:0:
402,192,75214,1,8,0:0:0:0:
109,192,75451,1,0,0:0:0:0:
402,192,75451,1,8,0:0:0:0:
182,192,75687,1,0,0:0:0:0:
329,192,75687,1,0,0:0:0:0:
256,192,75687,1,4,0:0:0:0:
329,192,76003,128,0,76319:0:0:0:0:
36,192,76003,1,8,0:0:0:0:
256,192,76319,128,0,76477:0:0:0:0:
182,192,76319,1,4,0:0:0:0:
402,192,76477,128,0,76793:0:0:0:0:
182,192,76793,128,0,77108:0:0:0:0:
256,192,76793,1,8,0:0:0:0:
475,192,76951,1,4,0:0:0:0:
109,192,77108,128,0,77266:0:0:0:0:
475,192,77266,1,8,0:0:0:0:
36,192,77266,1,0,0:0:0:0:
36,192,77503,1,8,0:0:0:0:
475,192,77503,1,0,0:0:0:0:
36,192,77740,1,8,0:0:0:0:
475,192,77740,1,0,0:0:0:0:
36,192,77977,1,8,0:0:0:0:
475,192,77977,1,0,0:0:0:0:
402,192,78214,1,0,0:0:0:0:
256,192,78214,1,4,0:0:0:0:
109,192,78214,1,0,0:0:0:0:
36,192,78529,128,0,79003:0:0:0:0:
402,192,78529,1,8,0:0:0:0:
256,192,78845,1,4,0:0:0:0:
109,192,79003,128,0,79476:0:0:0:0:
329,192,79319,1,8,0:0:0:0:
256,192,79477,128,0,79793:0:0:0:0:
402,192,79477,1,4,0:0:0:0:
182,192,79793,1,8,0:0:0:0:
329,192,79793,1,0,0:0:0:0:
182,192,80029,1,8,0:0:0:0:
329,192,80029,1,0,0:0:0:0:
182,192,80266,1,8,0:0:0:0:
329,192,80266,1,0,0:0:0:0:
329,192,80503,1,0,0:0:0:0:
182,192,80503,1,8,0:0:0:0:
256,192,80740,1,4,0:0:0:0:
475,192,80740,1,0,0:0:0:0:
36,192,80740,1,0,0:0:0:0:
329,192,81055,128,0,81371:0:0:0:0:
109,192,81056,1,8,0:0:0:0:
256,192,81371,128,0,81529:0:0:0:0:
36,192,81372,1,4,0:0:0:0:
475,192,81529,128,0,81845:0:0:0:0:
402,192,81845,1,0,0:0:0:0:
329,192,81924,1,0,0:0:0:0:
256,192,82003,1,0,0:0:0:0:
182,192,82082,1,0,0:0:0:0:
36,192,82161,128,0,82319:0:0:0:0:
109,192,82161,1,0,0:0:0:0:
475,192,82319,1,8,0:0:0:0:
329,192,82319,1,0,0:0:0:0:
329,192,82556,1,0,0:0:0:0:
182,192,82556,1,8,0:0:0:0:
36,192,82792,1,8,0:0:0:0:
182,192,82793,1,0,0:0:0:0:
182,192,83029,1,8,0:0:0:0:
329,192,83029,1,0,0:0:0:0:
109,192,83266,1,4,0:0:0:0:
329,192,83266,1,0,0:0:0:0:
475,192,83266,1,0,0:0:0:0:
256,192,83582,128,0,83898:0:0:0:0:
109,192,83898,128,0,84372:0:0:0:0:
475,192,83898,1,8,0:0:0:0:
475,192,84372,1,0,0:0:0:0:
256,192,84372,1,8,0:0:0:0:
329,192,84451,1,0,0:0:0:0:
182,192,84529,1,0,0:0:0:0:
402,192,84608,1,0,0:0:0:0:
109,192,84687,1,0,0:0:0:0:
475,192,84766,1,0,0:0:0:0:
36,192,84845,1,8,0:0:0:0:
256,192,84845,1,0,0:0:0:0:
475,192,85082,1,8,0:0:0:0:
329,192,85082,1,0,0:0:0:0:
182,192,85319,1,0,0:0:0:0:
36,192,85319,1,8,0:0:0:0:
329,192,85556,1,8,0:0:0:0:
475,192,85556,1,0,0:0:0:0:
36,192,85793,1,0,0:0:0:0:
182,192,85793,1,4,0:0:0:0:
329,192,85793,1,0,0:0:0:0:
329,192,86108,128,0,86424:0:0:0:0:
109,192,86108,1,8,0:0:0:0:
256,192,86424,128,0,86582:0:0:0:0:
36,192,86424,1,4,0:0:0:0:
402,192,86582,128,0,86898:0:0:0:0:
182,192,86898,128,0,87214:0:0:0:0:
329,192,86898,1,8,0:0:0:0:
475,192,87056,1,4,0:0:0:0:
109,192,87213,128,0,87371:0:0:0:0:
475,192,87371,1,0,0:0:0:0:
329,192,87372,1,8,0:0:0:0:
329,192,87608,1,8,0:0:0:0:
475,192,87608,1,0,0:0:0:0:
36,192,87845,1,8,0:0:0:0:
182,192,87845,1,0,0:0:0:0:
36,192,88082,1,8,0:0:0:0:
182,192,88082,1,0,0:0:0:0:
182,192,88319,1,0,0:0:0:0:
475,192,88319,1,0,0:0:0:0:
329,192,88319,1,4,0:0:0:0:
36,192,88635,128,0,89582:0:0:0:0:
475,192,88635,1,8,0:0:0:0:
329,192,88951,1,4,0:0:0:0:
402,192,89424,1,8,0:0:0:0:
182,192,89582,128,0,89740:0:0:0:0:
475,192,89582,1,4,0:0:0:0:
256,192,89740,128,0,89898:0:0:0:0:
182,192,89898,1,8,0:0:0:0:
36,192,89898,1,0,0:0:0:0:
109,192,90135,1,8,0:0:0:0:
256,192,90135,1,0,0:0:0:0:
182,192,90372,1,8,0:0:0:0:
329,192,90372,1,0,0:0:0:0:
402,192,90608,1,0,0:0:0:0:
256,192,90608,1,8,0:0:0:0:
329,192,90845,1,4,0:0:0:0:
475,192,90845,1,0,0:0:0:0:
36,192,90845,1,0,0:0:0:0:
329,192,91161,128,0,91635:0:0:0:0:
36,192,91161,1,8,0:0:0:0:
182,192,91477,1,4,0:0:0:0:
402,192,91635,128,0,92108:0:0:0:0:
36,192,91951,1,8,0:0:0:0:
109,192,92108,128,0,92424:0:0:0:0:
256,192,92108,1,4,0:0:0:0:
329,192,92424,1,8,0:0:0:0:
475,192,92424,1,0,0:0:0:0:
256,192,92661,1,8,0:0:0:0:
402,192,92661,1,0,0:0:0:0:
329,192,92898,1,0,0:0:0:0:
182,192,92898,1,8,0:0:0:0:
256,192,93135,1,0,0:0:0:0:
109,192,93135,1,8,0:0:0:0:
329,192,93372,1,0,0:0:0:0:
36,192,93372,1,0,0:0:0:0:
182,192,93372,1,4,0:0:0:0:
36,192,93687,128,8,96214:0:0:0:0:
475,192,93687,1,8,0:0:0:0:
329,192,93687,1,0,0:0:0:0:
256,192,94003,1,0,0:0:0:0:
329,192,94319,1,0,0:0:0:0:
182,192,94635,1,0,0:0:0:0:
256,192,94793,1,0,0:0:0:0:
329,192,94951,1,0,0:0:0:0:
402,192,95266,1,0,0:0:0:0:
256,192,95582,1,0,0:0:0:0:
182,192,95898,1,0,0:0:0:0:
402,192,96214,1,2,0:0:0:0:
475,192,96214,128,8,98740:0:0:0:0:
256,192,96372,1,0,0:0:0:0:
329,192,96529,1,0,0:0:0:0:
256,192,96687,1,0,0:0:0:0:
182,192,96845,1,0,0:0:0:0:
256,192,97003,1,0,0:0:0:0:
329,192,97161,1,0,0:0:0:0:
256,192,97319,1,0,0:0:0:0:
182,192,97477,1,0,0:0:0:0:
109,192,97556,1,0,0:0:0:0:
36,192,97635,1,0,0:0:0:0:
109,192,97714,1,0,0:0:0:0:
182,192,97793,1,0,0:0:0:0:
256,192,97872,1,0,0:0:0:0:
329,192,97951,1,0,0:0:0:0:
402,192,98029,1,0,0:0:0:0:
329,192,98108,1,0,0:0:0:0:
109,192,98108,128,0,98424:0:0:0:0:
36,192,98424,128,0,98740:0:0:0:0:
256,192,98740,128,0,101266:0:0:0:0:
109,192,98740,1,10,0:0:0:0:
36,192,101266,1,0,0:0:0:0:
