osu file format v12

[General]
AudioFilename: 02 Hidamari.mp3
AudioLeadIn: 2000
PreviewTime: 2083
Countdown: 0
SampleSet: Soft
StackLeniency: 0.7
Mode: 0
LetterboxInBreaks: 0

[Editor]
DistanceSpacing: 1
BeatDivisor: 4
GridSize: 4

[Metadata]
Title:Hidamari
TitleUnicode:ひだまり
Artist:Takahiro Ando
ArtistUnicode:安藤高弘
Creator:hoLysoup
Version:Insane
Source:Oniichan dakedo Ai sae Areba Kankeinai yo ne!
Tags:OST Curisu
BeatmapID:213190
BeatmapSetID:75465

[Difficulty]
HPDrainRate:7
CircleSize:4
OverallDifficulty:7
ApproachRate:8
SliderMultiplier:1.8
SliderTickRate:2

[Events]
//Background and Video events
0,0,"1234.jpg",0,0
//Break Periods
//Storyboard Layer 0 (Background)
//Storyboard Layer 1 (Fail)
//Storyboard Layer 2 (Pass)
//Storyboard Layer 3 (Foreground)
//Storyboard Sound Samples
//Background Colour Transformations
3,100,163,162,255

[TimingPoints]
611,368.098159509202,4,2,2,60,1,0
13954,-100,4,2,1,60,0,0
60979,-100,4,2,2,60,0,0
72114,-100,4,2,1,60,0,0
72666,-100,4,2,2,60,0,0
84077,-100,4,2,1,60,0,0
84445,-100,4,2,1,60,0,0
95718,-100,4,2,1,50,0,0
96270,-100,4,2,1,60,0,0
101561,-100,4,2,1,45,0,0
101837,-100,4,2,1,48,0,0
102022,-100,4,2,1,51,0,0
102206,-100,4,2,1,55,0,0
103632,-200,4,2,2,60,0,0
104966,-100,4,2,2,60,0,0
115365,-100,4,2,1,50,0,0
117083,368.098159509202,4,2,1,50,1,0
117758,368.098159509202,4,2,1,50,1,0
117804,-100,4,2,1,30,0,0
121991,-100,4,2,1,5,0,0

[Colours]
Combo1 : 240,81,81
Combo2 : 172,251,202
Combo3 : 175,210,254
Combo4 : 249,244,187

[HitObjects]
52,48,1347,1,0,1:0:0:0:
52,64,1439,1,0,0:0:0:0:
52,80,1531,1,0,0:0:0:0:
124,156,1715,1,0,1:0:0:0:
124,172,1807,1,0,0:0:0:0:
124,188,1899,1,0,0:0:0:0:
52,256,2083,6,0,B|48:316|116:368|180:348,1,180,6|8,0:0|0:0,0:0:0:0:
256,292,2635,1,2,0:0:0:0:
335,348,2819,2,0,B|396:368|464:316|460:256,1,180,2|8,0:0|0:0,0:0:0:0:
364,156,3371,5,2,0:0:0:0:
364,156,3739,2,0,B|328:128|320:80|320:80,2,90,2|8|0,0:0|0:0|0:0,0:0:0:0:
336,304,4291,1,0,0:0:0:0:
364,156,4476,1,2,0:0:0:0:
336,304,4660,1,8,0:0:0:0:
296,224,4845,1,2,0:0:0:0:
336,304,5028,6,0,P|272:340|164:320,1,180,2|8,0:0|0:0,0:0:0:0:
124,224,5580,1,0,0:0:0:0:
124,224,5764,2,0,P|188:188|296:208,1,180,2|8,0:0|0:0,0:0:0:0:
448,328,6316,1,2,0:0:0:0:
448,328,6684,1,2,0:0:0:0:
384,264,6868,6,0,B|360:216|384:176|384:176,1,90,8|0,0:0|0:0,0:0:0:0:
444,112,7236,2,0,B|468:64|444:24|444:24,2,90,2|0|8,0:0|0:0|0:0,0:0:0:0:
364,68,7788,1,0,0:0:0:0:
364,68,7972,6,0,B|308:68|308:68|248:104|248:104|188:104,1,180,2|8,0:0|0:0,0:0:0:0:
124,48,8525,1,0,0:0:0:0:
124,48,8709,2,0,B|80:60|64:108|64:108|64:200,1,180,2|8,0:0|0:0,0:0:0:0:
168,340,9261,5,2,0:0:0:0:
168,340,9629,1,2,0:0:0:0:
104,284,9813,2,0,B|64:304|48:352|48:352,2,90,8|0|2,0:0|0:0|0:0,0:0:0:0:
188,252,10365,1,2,0:0:0:0:
256,312,10549,1,8,0:0:0:0:
324,252,10733,1,2,0:0:0:0:
256,312,10917,6,0,B|244:228|268:216|256:128,1,180,2|8,0:0|0:0,0:0:0:0:
340,52,11469,1,0,0:0:0:0:
340,52,11653,2,0,B|348:96|344:140|344:140,2,90,2|0|8,0:0|0:0|0:0,0:0:0:0:
172,52,12206,2,0,B|164:96|168:140|168:140,1,90,2|0,0:0|0:0,0:0:0:0:
208,224,12574,1,0,0:0:0:0:
120,224,12758,1,4,0:0:0:0:
164,308,12942,6,0,L|124:332,2,45,0|0|0,0:0|0:0|0:0,1:0:0:0:
256,344,13310,1,0,0:0:0:0:
352,328,13494,1,0,1:0:0:0:
372,316,13586,1,0,1:0:0:0:
388,300,13678,1,0,1:0:0:0:
400,280,13770,1,0,0:0:0:0:
408,260,13862,6,0,P|412:216|400:172,1,90,4|0,0:0|0:0,0:0:0:0:
348,100,14230,1,8,0:0:0:0:
348,100,14414,2,0,P|332:52|340:8,1,90,0|2,0:0|0:0,0:0:0:0:
248,20,14782,2,0,P|253:58|237:106,1,90,0|8,0:0|0:0,0:0:0:0:
164,56,15150,1,0,0:0:0:0:
52,176,15334,5,2,0:0:0:0:
52,176,15518,1,0,0:0:0:0:
116,240,15703,2,0,B|160:232|208:232|208:232,1,90,8|0,0:0|0:0,0:0:0:0:
260,160,16071,1,2,0:0:0:0:
260,160,16255,1,0,0:0:0:0:
220,80,16439,2,0,B|176:88|128:88|128:88,1,90,8|0,0:0|0:0,0:0:0:0:
260,160,16807,6,0,B|348:144|440:144|440:144,1,180,2|8,0:0|0:0,0:0:0:0:
388,320,17359,1,0,0:0:0:0:
388,320,17543,2,0,B|300:336|208:336|208:336,1,180,2|8,0:0|0:0,0:0:0:0:
104,280,18095,1,2,0:0:0:0:
104,280,18463,2,0,B|96:328|104:372|104:372,2,90,2|8|0,0:0|0:0|0:0,0:0:0:0:
168,216,19015,1,2,0:0:0:0:
168,216,19199,2,0,B|176:168|168:124|168:124,1,90,0|8,0:0|0:0,0:0:0:0:
124,48,19568,1,0,0:0:0:0:
280,48,19752,6,0,B|260:136|276:224|276:224,1,180,2|8,0:0|0:0,0:0:0:0:
352,276,20304,1,0,0:0:0:0:
352,276,20488,2,0,B|376:320|352:364|352:364,2,90,2|0|8,0:0|0:0|0:0,0:0:0:0:
256,320,21040,1,0,0:0:0:0:
160,276,21224,2,0,B|136:320|160:364|160:364,2,90,2|0|8,0:0|0:0|0:0,0:0:0:0:
256,320,21776,1,0,0:0:0:0:
256,224,21960,2,0,L|300:136,1,90,2|0,0:0|0:0,0:0:0:0:
256,224,22328,2,0,L|212:136,1,90,8|0,0:0|0:0,0:0:0:0:
344,52,22696,6,0,P|424:76|468:164,1,180,2|8,0:0|0:0,0:0:0:0:
412,224,23249,1,0,0:0:0:0:
412,224,23433,2,0,P|332:200|288:112,1,180,2|8,0:0|0:0,0:0:0:0:
228,52,23985,2,0,L|136:28,1,90,2|0,0:0|0:0,0:0:0:0:
132,112,24353,2,0,L|32:120,1,90,2|8,0:0|0:0,0:0:0:0:
96,212,24721,1,0,0:0:0:0:
96,212,24905,2,0,L|196:244,1,90,10|0,0:0|0:0,0:0:0:0:
196,240,25181,1,8,0:0:0:0:
208,240,25273,1,8,0:0:0:0:
288,156,25457,1,8,0:0:0:0:
276,156,25549,1,0,0:0:0:0:
261,155,25641,6,0,L|175:127,2,90,4|0|8,0:0|0:0|0:0,0:0:0:0:
332,248,26193,1,0,0:0:0:0:
332,248,26377,2,0,L|424:232,1,90,2|0,0:0|0:0,0:0:0:0:
440,144,26745,1,8,0:0:0:0:
472,312,26930,6,0,L|292:344,1,180,2|2,0:0|0:0,0:0:0:0:
280,248,27482,1,8,0:0:0:0:
200,360,27666,2,0,B|172:316|184:272|184:272,1,90,0|2,0:0|0:0,0:0:0:0:
172,96,28034,1,0,0:0:0:0:
192,184,28218,1,8,0:0:0:0:
104,204,28402,1,0,0:0:0:0:
84,116,28586,6,0,B|176:96|272:96|272:96,1,180,2|8,0:0|0:0,0:0:0:0:
396,48,29138,2,0,B|348:40|300:24|300:24,1,90,0|2,0:0|0:0,0:0:0:0:
276,184,29506,2,0,B|320:176|368:176|368:176,1,90,0|8,0:0|0:0,0:0:0:0:
444,136,29874,2,0,B|464:224|460:320|460:320,1,180,2|2,0:0|0:0,0:0:0:0:
376,352,30426,5,8,0:0:0:0:
308,296,30610,1,0,0:0:0:0:
308,296,30795,1,2,0:0:0:0:
224,332,30979,1,0,0:0:0:0:
200,332,31071,1,8,0:0:0:0:
176,332,31163,1,8,0:0:0:0:
164,232,31347,1,0,0:0:0:0:
80,316,31531,6,0,B|48:232|68:132|68:132,1,180,2|8,0:0|0:0,0:0:0:0:
172,64,32083,1,0,0:0:0:0:
172,64,32267,2,0,B|220:64|256:92|256:92|296:64|352:64,1,180,2|8,0:0|0:0,0:0:0:0:
445,138,32819,1,0,0:0:0:0:
445,138,33003,2,0,B|444:132|464:232|432:316,1,180,2|8,0:0|0:0,0:0:0:0:
332,260,33555,5,0,0:0:0:0:
332,260,33739,2,0,L|320:352,1,90,2|0,0:0|0:0,0:0:0:0:
180,260,34107,2,0,L|192:352,1,90,8|0,0:0|0:0,0:0:0:0:
256,204,34476,6,0,B|268:108|244:120|256:24,1,180,2|8,0:0|0:0,0:0:0:0:
336,76,35028,2,0,P|380:64|424:64,1,90
176,156,35396,2,0,P|132:168|88:168,1,90,0|8,0:0|0:0,0:0:0:0:
120,84,35764,2,0,L|144:268,1,180,2|2,0:0|0:0,0:0:0:0:
80,328,36316,5,8,0:0:0:0:
80,328,36500,1,0,0:0:0:0:
256,344,36684,1,10,0:0:0:0:
256,344,36868,1,8,0:0:0:0:
432,328,37052,1,8,0:0:0:0:
432,328,37236,1,8,0:0:0:0:
244,264,37420,6,0,B|236:216|244:172|244:172,1,90,4|0,0:0|0:0,0:0:0:0:
340,40,37788,1,8,0:0:0:0:
432,64,37972,2,0,B|440:112|432:156|432:156,2,90
432,64,38525,1,8,0:0:0:0:
340,40,38709,1,0,0:0:0:0:
256,76,38893,6,0,P|252:120|260:164,1,90
328,328,39261,2,0,P|332:284|324:240,1,90,8|0,0:0|0:0,0:0:0:0:
144,252,39629,2,0,P|188:256|232:248,1,90
444,152,39997,2,0,P|400:148|356:156,1,90,8|0,0:0|0:0,0:0:0:0:
192,176,40365,6,0,B|180:132|184:88|184:88,1,90
120,24,40733,1,8,0:0:0:0:
92,108,40917,1,0,0:0:0:0:
92,108,41101,2,0,P|52:132|8:136,2,90,0|0|8,0:0|0:0|0:0,0:0:0:0:
184,72,41653,2,0,P|224:56|272:64,1,90,0|2,0:0|0:0,0:0:0:0:
352,100,42022,5,0,0:0:0:0:
436,68,42206,1,8,0:0:0:0:
488,140,42390,1,2,0:0:0:0:
488,140,42574,2,0,B|412:140|412:188|308:188,1,180,2|8,0:0|0:0,0:0:0:0:
224,152,43126,1,8,0:0:0:0:
224,152,43218,1,8,0:0:0:0:
224,152,43310,6,0,B|228:200|212:240|212:240,1,90
252,328,43678,1,8,0:0:0:0:
152,328,43862,2,0,B|112:352|68:356|68:356,2,90
136,232,44414,2,0,B|140:188|136:136|136:136,1,90,8|0,0:0|0:0,0:0:0:0:
108,48,44782,6,0,B|152:36|200:40|200:40,1,90
404,48,45150,2,0,B|360:36|312:40|312:40,1,90,8|0,0:0|0:0,0:0:0:0:
256,120,45518,2,0,L|256:216,2,90,0|0|8,0:0|0:0|0:0,0:0:0:0:
332,252,46071,2,0,P|256:292|178:251,1,180
160,156,46623,1,8,0:0:0:0:
256,120,46807,1,0,0:0:0:0:
352,156,46991,6,0,L|448:156,2,90,2|0|8,0:0|0:0|0:0,0:0:0:0:
284,212,47543,1,0,0:0:0:0:
284,212,47727,2,0,L|188:212,2,90,2|0|8,0:0|0:0|0:0,0:0:0:0:
352,268,48279,1,0,0:0:0:0:
312,348,48463,2,0,B|272:368|224:356|224:356,1,90,8|0,0:0|0:0,0:0:0:0:
96,312,48831,1,8,0:0:0:0:
64,280,48923,1,8,0:0:0:0:
56,236,49015,1,8,0:0:0:0:
76,196,49107,1,0,0:0:0:0:
108,164,49199,6,0,B|148:136|200:152|200:152,1,90,4|0,0:0|0:0,0:0:0:0:
276,192,49568,2,0,P|328:200|376:184,2,90,8|2|2,0:0|0:0|0:0,0:0:0:0:
208,124,50120,1,0,0:0:0:0:
208,124,50304,2,0,P|206:87|226:38,1,90,8|2,0:0|0:0,0:0:0:0:
296,104,50672,2,0,P|297:140|277:189,1,90,0|2,0:0|0:0,0:0:0:0:
224,260,51040,2,0,P|224:308|244:348,1,90,8|2,0:0|0:0,0:0:0:0:
392,272,51408,2,0,P|392:224|372:184,2,90,2|0|8,0:0|0:0|0:0,0:0:0:0:
277,189,51960,1,0,0:0:0:0:
277,189,52144,6,0,B|352:136|464:152|464:152,1,180,2|8,0:0|0:0,0:0:0:0:
476,32,52696,1,2,0:0:0:0:
476,32,52880,2,0,B|401:85|289:69|289:69,1,180,2|8,0:0|0:0,0:0:0:0:
168,52,53433,1,2,0:0:0:0:
168,52,53801,2,0,P|128:76|80:72,2,90,2|8|2,0:0|0:0|0:0,0:0:0:0:
256,64,54353,2,0,P|276:108|268:152,1,90,2|0,0:0|0:0,0:0:0:0:
288,236,54721,2,0,L|192:252,1,90,8|0,0:0|0:0,0:0:0:0:
128,196,55089,6,0,B|84:220|72:256|72:256|72:352,1,180,4|8,0:0|0:0,0:0:0:0:
168,320,55641,2,0,B|228:320|256:340|256:340|284:320|348:320,1,180,2|0,0:0|0:0,0:0:0:0:
420,272,56193,1,8,0:0:0:0:
440,352,56377,1,0,0:0:0:0:
440,352,56561,6,0,B|440:256|440:256|428:220|384:196,1,180,4|8,0:0|0:0,0:0:0:0:
304,152,57114,2,0,B|204:52|312:52|204:152,1,180,2|0,0:0|0:0,0:0:0:0:
127,196,57666,1,8,0:0:0:0:
40,128,57850,1,0,0:0:0:0:
40,128,58034,6,0,L|140:116,1,90,4|0,0:0|0:0,0:0:0:0:
216,268,58402,2,0,L|116:280,1,90,8|0,0:0|0:0,0:0:0:0:
127,196,58770,2,0,L|328:172,1,180,4|8,0:0|0:0,0:0:0:0:
400,128,59322,1,0,0:0:0:0:
320,88,59506,2,0,B|304:44|316:4|316:4,2,90,4|0|0,0:0|0:0|0:0,0:0:0:0:
384,216,60058,1,0,0:0:0:0:
384,216,60242,2,8,B|400:260|384:308|384:308,1,90
312,360,60610,1,8,0:0:0:0:
256,288,60795,1,8,0:0:0:0:
200,360,60979,6,0,P|108:336|80:260,1,180,4|8,0:0|0:0,0:0:0:0:
156,192,61531,1,0,0:0:0:0:
200,24,61715,2,0,P|108:48|80:124,1,180,0|8,0:0|0:0,0:0:0:0:
156,192,62267,1,2,0:0:0:0:
156,192,62635,2,0,L|56:192,2,90,2|8|0,0:0|0:0|0:0,0:0:0:0:
252,192,63187,1,2,0:0:0:0:
252,192,63371,1,0,0:0:0:0:
324,136,63555,1,8,0:0:0:0:
324,248,63739,1,0,0:0:0:0:
252,192,63923,6,0,B|328:180|356:204|440:192,1,180,2|8,0:0|0:0,0:0:0:0:
384,48,64476,1,0,0:0:0:0:
384,48,64660,2,0,B|308:60|280:36|196:48,1,180,2|8,0:0|0:0,0:0:0:0:
120,84,65212,2,0,L|28:92,1,90,2|0,0:0|0:0,0:0:0:0:
192,144,65580,2,0,L|284:136,1,90,2|8,0:0|0:0,0:0:0:0:
148,236,65948,1,0,0:0:0:0:
148,236,66132,2,0,L|56:244,2,90,2|0|8,0:0|0:0|0:0,0:0:0:0:
281,136,66684,1,0,0:0:0:0:
352,192,66868,6,0,B|364:240|360:280|360:280,1,90,2|0,0:0|0:0,0:0:0:0:
202,359,67236,2,0,B|204:360|244:364|292:352,1,90,8|0,0:0|0:0,0:0:0:0:
130,303,67604,2,0,B|118:255|122:215|122:215,1,90,2|0,0:0|0:0,0:0:0:0:
280,136,67972,2,0,B|278:135|238:131|190:143,2,90,8|2|0,0:0|0:0|0:0,0:0:0:0:
344,72,68525,1,2,0:0:0:0:
344,72,68709,2,0,B|345:72|385:76|433:64,1,90,8|0,0:0|0:0,0:0:0:0:
492,132,69077,2,0,B|472:176|480:220|480:220,1,90,2|0,0:0|0:0,0:0:0:0:
376,200,69445,2,0,B|368:248|396:288|396:288,1,90,8|0,0:0|0:0,0:0:0:0:
480,320,69813,6,0,B|388:316|304:340|304:340,1,180,2|8,0:0|0:0,0:0:0:0:
188,340,70365,1,0,0:0:0:0:
188,340,70549,2,0,B|132:288|176:220|176:220|164:172,1,180,2|8,0:0|0:0,0:0:0:0:
220,56,71101,1,2,0:0:0:0:
220,56,71469,2,0,L|244:148,1,90,2|8,0:0|0:0,0:0:0:0:
276,228,71837,2,0,P|324:232|364:220,1,90,8|0,0:0|0:0,0:0:0:0:
412,80,72206,1,8,0:0:0:0:
412,80,72298,1,8,0:0:0:0:
412,80,72390,2,0,P|364:76|324:88,1,90,8|0,0:0|0:0,0:0:0:0:
440,176,72758,6,0,L|464:268,1,90,4|0,0:0|0:0,0:0:0:0:
444,352,73126,2,0,P|395:344|352:336,1,90,8|0,0:0|0:0,0:0:0:0:
348,248,73494,2,0,L|256:276,1,90,2|0,0:0|0:0,0:0:0:0:
192,352,73862,1,8,0:0:0:0:
192,352,74046,2,0,B|152:272|160:176|160:176,1,180,2|2,0:0|0:0,0:0:0:0:
212,80,74598,2,0,B|164:64|124:68|124:68,1,90,8|0,0:0|0:0,0:0:0:0:
48,128,74966,2,0,B|24:88|32:48|32:48,2,90,0|0|8,0:0|0:0|0:0,0:0:0:0:
116,188,75518,1,0,0:0:0:0:
72,268,75703,6,0,B|64:312|72:356|72:356,1,90,2|0,0:0|0:0,0:0:0:0:
160,304,76071,2,0,B|204:312|248:304|248:304,1,90,8|0,0:0|0:0,0:0:0:0:
204,188,76439,2,0,B|160:180|116:188|116:188,2,90,2|0|8,0:0|0:0|0:0,0:0:0:0:
304,224,76991,1,2,0:0:0:0:
304,224,77359,2,0,B|312:180|304:136|304:136,1,90,2|8,0:0|0:0,0:0:0:0:
344,56,77727,1,0,0:0:0:0:
420,104,77911,1,2,0:0:0:0:
420,104,78095,2,0,B|412:148|420:192|420:192,1,90,0|8,0:0|0:0,0:0:0:0:
432,316,78463,1,0,0:0:0:0:
432,316,78647,6,0,B|340:344|256:320|256:320,1,180,2|8,0:0|0:0,0:0:0:0:
164,192,79199,1,0,0:0:0:0:
172,284,79384,1,2,0:0:0:0:
248,128,79568,1,0,0:0:0:0:
256,220,79753,1,8,0:0:0:0:
256,220,79936,6,0,B|348:192|432:216|432:216,1,180,2|2,0:0|0:0,0:0:0:0:
468,132,80488,2,0,P|420:120|384:100,1,90,8|0,0:0|0:0,0:0:0:0:
484,280,80856,2,0,P|436:292|408:320,1,90,2|0,0:0|0:0,0:0:0:0:
328,256,81224,2,0,P|336:208|316:164,1,90,8|0,0:0|0:0,0:0:0:0:
264,100,81592,6,0,P|176:72|104:120,1,180,2|8,0:0|0:0,0:0:0:0:
120,264,82144,1,0,0:0:0:0:
120,264,82328,2,0,P|208:292|280:244,1,180,2|8,0:0|0:0,0:0:0:0:
364,164,82880,1,0,0:0:0:0:
364,164,83249,2,0,B|356:120|360:72|360:72,1,90,0|8,0:0|0:0,0:0:0:0:
152,74,83617,2,0,B|152:72|156:120|148:164,1,90,8|0,0:0|0:0,0:0:0:0:
256,128,83985,2,0,L|256:32,2,90,0|8|8,0:0|0:0|0:0,0:0:0:0:
256,256,84537,6,0,B|160:284|80:256|80:256,1,180,4|8,0:0|0:0,0:0:0:0:
78,128,85089,1,0,0:0:0:0:
78,128,85273,2,0,B|80:128|160:100|256:128,1,180,2|8,0:0|0:0,0:0:0:0:
336,192,85825,1,2,0:0:0:0:
336,192,86193,2,0,L|436:192,1,90,2|8,0:0|0:0,0:0:0:0:
480,280,86561,2,0,L|384:280,1,90,0|2,0:0|0:0,0:0:0:0:
390,104,86930,2,0,L|480:104,2,90,0|8|0,0:0|0:0|0:0,0:0:0:0:
312,56,87482,6,0,B|264:64|224:60|224:60,1,90,2|0,0:0|0:0,0:0:0:0:
124,36,87850,2,0,P|120:80|136:124,1,90,8|0,0:0|0:0,0:0:0:0:
40,140,88218,2,0,P|44:96|28:52,2,90,2|0|8,0:0|0:0|0:0,0:0:0:0:
108,208,88770,1,2,0:0:0:0:
108,208,89138,2,0,P|116:256|108:296,1,90,2|8,0:0|0:0,0:0:0:0:
172,360,89506,1,0,0:0:0:0:
244,308,89690,2,0,L|344:304,1,90,2|0,0:0|0:0,0:0:0:0:
200,224,90058,2,0,L|300:220,1,90,8|0,0:0|0:0,0:0:0:0:
152,140,90426,6,0,L|344:132,1,180,2|8,0:0|0:0,0:0:0:0:
408,84,90979,1,0,0:0:0:0:
452,160,91163,2,0,B|472:204|468:248|468:248,1,90,2|0,0:0|0:0,0:0:0:0:
392,352,91531,2,0,B|376:308|384:264|384:264,1,90,8|0,0:0|0:0,0:0:0:0:
356,176,91899,6,0,L|164:168,1,180,2|8,0:0|0:0,0:0:0:0:
92,120,92451,1,0,0:0:0:0:
92,120,92635,2,0,B|112:72|164:72|164:72,1,90,2|0,0:0|0:0,0:0:0:0:
168,260,93003,2,0,B|116:260|95:212|95:212,1,90,8|0,0:0|0:0,0:0:0:0:
176,168,93371,6,0,L|355:175,1,180,2|8,0:0|0:0,0:0:0:0:
324,92,93923,1,0,0:0:0:0:
412,108,94107,2,0,P|456:104|508:112,2,90,2|0|8,0:0|0:0|0:0,0:0:0:0:
452,188,94660,2,0,P|452:280|416:368,1,180,2|2,0:0|0:0,0:0:0:0:
340,280,95212,5,8,0:0:0:0:
256,352,95396,1,0,0:0:0:0:
172,280,95580,1,8,0:0:0:0:
256,208,95764,1,8,0:0:0:0:
256,208,95856,1,8,0:0:0:0:
256,208,95948,1,8,0:0:0:0:
256,96,96132,1,8,0:0:0:0:
256,96,96224,1,8,0:0:0:0:
256,96,96316,6,0,P|160:80|68:92,1,180,4|8,0:0|0:0,0:0:0:0:
120,184,96868,2,0,B|128:228|120:272|120:272,1,90,0|2,0:0|0:0,0:0:0:0:
8,248,97236,2,0,B|0:204|8:160|8:160,1,90,0|8,0:0|0:0,0:0:0:0:
78,89,97604,1,0,0:0:0:0:
78,89,97788,2,0,B|136:64|216:100|220:172,1,180,2|8,0:0|0:0,0:0:0:0:
256,244,98341,1,0,0:0:0:0:
320,328,98525,2,0,L|408:344,1,90,2|0,0:0|0:0,0:0:0:0:
192,328,98893,2,0,L|104:344,1,90,8|0,0:0|0:0,0:0:0:0:
256,244,99261,6,0,B|268:152|244:152|256:64,1,180,2|8,0:0|0:0,0:0:0:0:
160,40,99813,2,0,B|168:88|160:128|160:128,1,90,0|2,0:0|0:0,0:0:0:0:
352,129,100181,2,0,B|352:128|344:88|352:40,1,90,0|8,0:0|0:0,0:0:0:0:
460,96,100549,5,8,0:0:0:0:
460,96,100641,1,8,0:0:0:0:
460,96,100733,2,8,B|460:97|468:137|460:185,1,90
460,300,101101,1,8,0:0:0:0:
460,300,101193,1,8,0:0:0:0:
460,300,101285,2,8,P|416:312|368:312,1,90
256,296,101653,5,8,0:0:0:0:
256,280,101745,1,8,0:0:0:0:
256,264,101837,1,8,0:0:0:0:
256,244,101930,1,8,0:0:0:0:
256,228,102022,1,8,0:0:0:0:
256,212,102114,1,8,0:0:0:0:
256,196,102206,1,8,0:0:0:0:
256,104,103494,5,0,0:0:0:0:
256,104,103586,1,0,0:0:0:0:
256,104,103678,2,0,B|264:148|248:148|256:196,1,90,4|0,0:0|0:0,0:0:0:0:
256,284,104414,2,0,B|248:240|264:240|256:192,1,90,4|0,0:0|0:0,0:0:0:0:
384,48,105150,6,0,B|472:96|476:204|476:204,1,180,4|8,0:0|0:0,0:0:0:0:
348,344,105703,1,0,0:0:0:0:
348,344,105887,2,0,B|260:296|256:188|256:188,1,180,0|8,0:0|0:0,0:0:0:0:
204,104,106439,2,0,P|168:132|152:176,1,90
359,172,106807,2,0,P|344:132|308:104,2,90,0|8|0,0:0|0:0|0:0,0:0:0:0:
256,200,107359,5,0,0:0:0:0:
200,292,107543,1,0,0:0:0:0:
256,200,107727,1,8,0:0:0:0:
312,292,107911,1,0,0:0:0:0:
256,200,108095,6,0,B|276:152|256:112|236:68|256:24,1,180,0|8,0:0|0:0,0:0:0:0:
360,28,108647,1,0,0:0:0:0:
360,28,108831,2,0,B|380:72|360:116|340:156|360:204,1,180,0|8,0:0|0:0,0:0:0:0:
304,276,109384,1,0,0:0:0:0:
304,276,109752,2,0,B|268:312|224:320|224:320,1,90,0|8,0:0|0:0,0:0:0:0:
96,212,110120,2,0,B|95:209|103:253|139:289,1,90
124,124,110488,1,0,0:0:0:0:
124,124,110580,1,0,0:0:0:0:
124,124,110672,2,0,B|160:88|204:80|204:80,1,90,8|0,0:0|0:0,0:0:0:0:
332,188,111040,6,0,B|332:190|324:146|288:110,2,90,0|0|8,0:0|0:0|0:0,0:0:0:0:
332,276,111592,1,0,0:0:0:0:
332,276,111776,2,0,B|332:273|324:317|288:353,1,90
232,272,112144,1,8,0:0:0:0:
232,184,112328,2,0,B|140:176|44:184|44:184,1,180
36,272,112880,2,0,P|32:316|32:368,2,90,8|0|0,0:0|0:0|0:0,0:0:0:0:
52,183,113433,1,0,0:0:0:0:
40,96,113617,2,0,P|88:88|128:92,1,90,8|0,0:0|0:0,0:0:0:0:
208,52,113985,6,0,P|300:60|392:52,1,180,0|8,0:0|0:0,0:0:0:0:
436,204,114537,1,0,0:0:0:0:
436,204,114721,2,0,P|344:196|252:204,1,180,0|8,0:0|0:0,0:0:0:0:
172,180,115273,1,0,0:0:0:0:
172,268,115457,6,8,P|164:316|156:356,1,90,8|8,0:0|0:0,0:0:0:0:
340,268,115825,2,8,P|348:316|356:356,1,90,0|0,0:0|0:0,0:0:0:0:
256,308,116193,2,8,L|256:400,1,90,0|8,0:0|0:0,0:0:0:0:
256,220,116561,1,8,0:0:0:0:
256,220,116745,1,8,0:0:0:0:
256,128,116930,2,8,L|256:52,1,75
256,192,117758,5,4,0:0:0:0:
256,192,117850,12,0,122175,0:0:0:0:
