osu file format v9

[General]
AudioFilename: Takahashi Yu - Genjitsu to Iu Na no Kaibutsu to Tatakau Mono Tachi.mp3
AudioLeadIn: 0
PreviewTime: 67900
Countdown: 0
SampleSet: Normal
StackLeniency: 0.7
Mode: 1
LetterboxInBreaks: 1

[Editor]
Bookmarks: 15900
DistanceSpacing: 0
BeatDivisor: 4
GridSize: 8

[Metadata]
Title:Genjitsu to Iu Na no Kaibutsu to Tatakau Mono Tachi (TV Size)
Artist:Takahashi Yuu
Creator:Neko_Ray
Version:TaiKrisom
Source:Bakuman
Tags:Krisom Ending Vivere

[Difficulty]
HPDrainRate:5
CircleSize:5
OverallDifficulty:5
ApproachRate:5
SliderMultiplier:1.4
SliderTickRate:1

[Events]
//Background and Video events
0,0,"TaiKrisom.jpg"
//Break Periods
//Storyboard Layer 0 (Background)
//Storyboard Layer 1 (Fail)
//Storyboard Layer 2 (Pass)
//Storyboard Layer 3 (Foreground)
//Storyboard Sound Samples
//Background Colour Transformations
3,100,163,162,255

[TimingPoints]
11738,400,4,1,0,60,1,0
67738,-100,4,1,0,60,0,1
80138,-100,4,1,0,60,0,0
80538,-100,4,1,0,60,0,1
92938,-100,4,1,0,60,0,0

[Colours]
Combo1 : 254,45,100
Combo2 : 144,254,61
Combo3 : 36,207,251
Combo4 : 253,196,45

[HitObjects]
256,192,11738,1,8
256,192,13338,1,4
376,192,13538,1,0
320,88,13738,1,8
200,88,13938,1,8
200,88,14138,1,0
200,88,14338,1,0
200,88,14538,1,8
200,88,14738,1,8
200,88,14938,1,0
200,88,15138,1,8
200,88,15338,1,0
200,88,15538,1,8
200,88,15938,1,8
200,88,16138,1,8
200,88,16338,1,8
256,192,16538,1,0
376,192,16738,1,0
320,88,16938,1,8
200,88,17138,1,8
200,88,17338,1,0
200,88,17538,1,0
200,88,17738,1,8
200,88,17938,1,8
200,88,18138,1,0
200,88,18338,1,8
200,88,18538,1,0
200,88,18738,1,8
200,88,19138,1,8
200,88,19338,1,8
200,88,19538,1,8
200,88,19738,1,4
200,88,20138,1,8
200,88,20338,1,0
200,88,20538,1,0
200,88,20738,1,0
200,88,20938,1,8
200,88,21138,1,0
200,88,21338,1,0
200,88,21538,1,0
200,88,21738,1,8
200,88,21938,1,8
200,88,22338,1,8
200,88,22538,1,8
200,88,22738,1,8
200,88,22938,1,4
200,88,23338,1,8
200,88,23538,1,0
200,88,23938,1,0
200,88,24038,1,0
200,88,24138,1,8
200,88,24338,1,0
200,88,24538,1,0
200,88,24738,1,0
200,88,24938,1,8
200,88,25138,1,8
200,88,25338,1,0
200,88,25538,1,0
200,88,25638,1,0
200,88,25738,1,8
200,88,25938,1,8
200,88,26138,1,4
200,88,28538,5,12
200,88,28738,1,12
200,88,29338,1,0
200,88,29538,1,0
200,88,29738,1,0
200,88,29938,1,0
200,88,30138,1,8
200,88,30338,1,0
200,88,30538,1,0
200,88,30738,1,0
200,88,30938,1,8
200,88,31138,1,0
200,88,31338,1,0
200,88,31538,1,0
200,88,31738,1,8
200,88,31938,1,0
200,88,32138,1,0
200,88,32338,1,0
200,88,32538,1,8
200,88,32738,1,0
200,88,32838,1,0
200,88,32938,1,0
200,88,33138,1,0
200,88,33238,1,0
200,88,33338,1,0
200,88,33538,1,0
200,88,33738,1,8
200,88,33938,1,0
200,88,34338,1,8
200,88,34538,1,0
200,88,34738,1,8
200,88,34938,1,0
200,88,35338,1,8
200,88,35738,1,8
200,88,35938,1,8
200,88,36138,1,0
200,88,36338,1,0
200,88,36538,1,8
200,88,36738,1,8
200,88,36938,1,0
200,88,37138,1,0
200,88,37338,1,0
200,88,37538,1,8
200,88,37738,1,0
200,88,37938,1,8
200,88,38138,1,0
200,88,38338,1,8
200,88,38538,1,0
200,88,38738,1,0
200,88,38938,1,8
200,88,39138,1,8
200,88,39538,1,8
200,88,39738,1,0
200,88,40138,1,8
200,88,40538,1,0
200,88,40738,1,0
200,88,40938,1,0
200,88,41138,1,8
200,88,41238,1,8
200,88,41338,1,0
200,88,41538,1,8
200,88,41638,1,8
200,88,41738,1,0
200,88,41938,1,8
200,88,42138,1,0
200,88,42338,1,0
200,88,42538,1,8
200,88,42738,1,0
200,88,42938,1,8
200,88,43138,1,8
200,88,43338,1,0
200,88,43538,1,0
200,88,43738,1,8
200,88,43938,1,0
200,88,44138,1,8
200,88,44338,1,0
200,88,44538,1,8
200,88,44738,1,8
200,88,44938,1,0
200,88,45138,1,0
200,88,45338,1,0
200,88,45538,1,8
200,88,45638,1,8
200,88,45738,1,0
200,88,45938,1,8
200,88,46038,1,8
200,88,46138,1,0
200,88,46338,1,8
200,88,46538,1,8
200,88,46738,1,0
200,88,47138,1,0
200,88,47338,1,8
200,88,47538,1,0
200,88,47938,1,0
200,88,48138,1,8
200,88,48338,1,0
200,88,48538,1,8
200,88,48738,1,8
200,88,48938,1,0
200,88,49138,1,0
200,88,49338,1,8
200,88,49538,1,8
200,88,49738,1,0
200,88,49938,1,0
200,88,50138,1,8
200,88,50338,1,0
200,88,50538,1,8
200,88,50738,1,0
200,88,50938,1,8
200,88,51138,1,8
200,88,51338,1,0
200,88,51538,1,0
200,88,51938,1,8
200,88,52138,1,0
200,88,52538,1,0
200,88,52938,1,8
200,88,53138,1,0
200,88,53938,1,8
200,88,54038,1,8
200,88,54138,1,8
200,88,54338,1,8
200,88,54538,1,0
200,88,54738,1,8
200,88,54938,1,4
200,88,55538,1,0
200,88,55738,1,8
200,88,55938,1,0
200,88,56338,1,8
200,88,56438,1,8
200,88,56538,1,0
200,88,56738,1,0
200,88,56938,1,8
200,88,57138,1,0
200,88,57538,1,0
200,88,57638,1,0
200,88,57738,1,8
200,88,57938,1,8
200,88,58138,1,4
200,88,58338,1,0
200,88,58538,1,8
200,88,58738,1,0
200,88,58938,1,0
200,88,59138,1,0
200,88,59338,1,8
200,88,59738,1,4
200,88,59938,1,8
200,88,60038,1,8
200,88,60138,1,0
200,88,60338,1,8
200,88,60738,1,8
200,88,60838,1,8
200,88,60938,1,8
200,88,61138,1,8
200,88,61338,1,4
200,88,61538,1,0
200,88,61738,1,8
200,88,61938,1,8
200,88,62138,1,4
200,88,62338,1,8
200,88,62538,1,0
200,88,62738,1,0
200,88,62938,1,4
200,88,63338,1,8
200,88,63538,1,8
200,88,63938,1,8
200,88,64138,1,8
200,88,64538,2,0,B|448:272,2,280
200,88,67738,1,4
200,88,67938,1,0
200,88,68138,1,8
200,88,68338,1,0
200,88,68438,1,0
200,88,68538,1,0
200,88,68738,1,0
200,88,68938,1,8
200,88,69138,1,0
200,88,69338,1,0
200,88,69538,1,0
200,88,69738,1,8
200,88,69938,1,0
200,88,70038,1,8
200,88,70138,1,0
200,88,70338,1,0
200,88,70538,1,8
200,88,70738,1,0
200,88,70938,1,4
200,88,71138,1,0
200,88,71338,1,8
200,88,71538,1,0
200,88,71638,1,0
200,88,71738,1,0
200,88,71938,1,0
200,88,72138,1,8
200,88,72338,1,0
200,88,72538,1,0
200,88,72738,1,0
200,88,72938,1,8
200,88,73138,1,0
200,88,73238,1,8
200,88,73338,1,0
200,88,73538,1,0
200,88,73638,1,0
200,88,73738,1,8
200,88,73938,1,0
200,88,74138,1,12
200,88,74338,1,0
200,88,74538,1,8
200,88,74638,1,8
200,88,74738,1,8
200,88,74938,1,0
200,88,75338,1,8
200,88,75538,1,0
200,88,75738,1,0
200,88,75838,1,0
200,88,75938,1,0
200,88,76138,1,8
200,88,76338,1,0
200,88,76538,1,8
200,88,76938,1,8
200,88,77138,1,0
200,88,77338,1,12
200,88,77538,1,0
200,88,77738,1,8
200,88,77938,1,8
200,88,78138,1,0
200,88,78238,1,0
200,88,78338,1,0
200,88,78538,1,8
200,88,78738,1,0
200,88,78938,1,4
200,88,79338,1,0
200,88,79638,1,0
200,88,79738,1,8
200,88,79938,1,8
200,88,80038,1,8
200,88,80138,1,0
200,88,80338,1,8
200,88,80438,1,8
200,88,80538,1,0
200,88,80738,1,0
200,88,80938,1,8
200,88,81138,1,0
200,88,81238,1,8
200,88,81338,1,0
200,88,81538,1,0
200,88,81738,1,8
200,88,81938,1,0
200,88,82138,1,0
200,88,82338,1,0
200,88,82538,1,8
200,88,82738,1,0
200,88,82838,1,8
200,88,82938,1,0
200,88,83138,1,0
200,88,83338,1,8
200,88,83638,1,0
200,88,83738,1,8
200,88,83938,1,0
200,88,84138,1,8
200,88,84338,1,0
200,88,84438,1,0
200,88,84538,1,0
200,88,84738,1,0
200,88,84938,1,8
200,88,85138,1,0
200,88,85338,1,0
200,88,85538,1,0
200,88,85738,1,8
200,88,85938,1,0
200,88,86038,1,8
200,88,86138,1,0
200,88,86338,1,0
200,88,86438,1,0
200,88,86538,1,8
200,88,86738,1,0
200,88,86938,1,12
200,88,87138,1,0
200,88,87338,1,8
200,88,87438,1,8
200,88,87538,1,8
200,88,87738,1,0
200,88,88138,1,8
200,88,88338,1,0
200,88,88538,1,0
200,88,88638,1,0
200,88,88738,1,0
200,88,88938,1,8
200,88,89138,1,0
200,88,89338,1,8
200,88,89738,1,8
200,88,89938,1,0
200,88,90138,1,12
200,88,90338,1,0
200,88,90538,1,8
200,88,90738,1,8
200,88,90938,1,0
200,88,91038,1,0
200,88,91138,1,0
200,88,91338,1,8
200,88,91538,1,0
200,88,91738,1,4
200,88,92138,1,4
200,88,92538,1,12
200,88,92938,1,12
200,88,93138,1,0
200,88,93238,1,0
200,88,93338,1,0
256,192,93738,12,0,96538
256,144,96938,5,8
256,144,97338,1,0
256,144,97538,1,0
256,144,97738,1,8
256,144,98138,1,0
256,144,98338,1,0
256,144,98538,1,8
256,144,98738,1,8
256,144,98938,1,0
256,144,99138,1,0
256,144,99338,1,8
256,144,99438,1,0
256,144,99538,1,8
256,144,99738,1,0
256,144,99938,1,0
256,144,100138,1,8
256,144,100338,1,0
256,144,100438,1,8
256,144,100538,1,0
256,144,100738,1,0
256,144,100938,1,8
256,144,101338,1,0
256,144,101538,1,0
256,144,101738,1,8
256,144,101938,1,0
256,144,102038,1,8
256,144,102138,1,0
256,144,102238,1,8
256,144,102338,1,0
256,144,102538,1,8
256,144,102938,1,12
256,144,103538,1,12
256,144,104138,1,12
256,144,104538,1,12
256,144,105538,1,0
256,144,105638,1,0
256,144,105738,1,0
256,144,105838,1,0
256,144,105938,1,0
256,144,106138,1,12
