osu file format v9

[General]
AudioFilename: Takahashi Yu - Genjitsu to Iu Na no Kaibutsu to Tatakau Mono Tachi.mp3
AudioLeadIn: 0
PreviewTime: 67900
Countdown: 0
SampleSet: Normal
StackLeniency: 0.7
Mode: 0
LetterboxInBreaks: 1

[Editor]
Bookmarks: 15900
DistanceSpacing: 0.8
BeatDivisor: 4
GridSize: 8

[Metadata]
Title:Genjitsu to Iu Na no Kaibutsu to Tatakau Mono Tachi (TV Size)
Artist:Takahashi Yuu
Creator:Neko_Ray
Version:Normal
Source:Bakuman
Tags:Krisom Ending Vivere

[Difficulty]
HPDrainRate:3
CircleSize:4
OverallDifficulty:3
ApproachRate:4
SliderMultiplier:1.1
SliderTickRate:2

[Events]
//Background and Video events
0,0,"bg.jpg"
Video,26123,"video.avi"
//Break Periods
//Storyboard Layer 0 (Background)
//Storyboard Layer 1 (Fail)
//Storyboard Layer 2 (Pass)
//Storyboard Layer 3 (Foreground)
//Storyboard Sound Samples
//Background Colour Transformations
3,100,163,162,255

[TimingPoints]
11738,400,4,1,0,30,1,0
67738,-100,4,1,0,30,0,1
80138,-100,4,1,0,30,0,0
80538,-100,4,1,0,30,0,1
92938,-100,4,1,0,30,0,0

[Colours]
Combo1 : 254,45,100
Combo2 : 144,254,61
Combo3 : 36,207,251
Combo4 : 253,196,45
SliderBorder : 0,0,0

[HitObjects]
256,192,11738,12,4,13338
336,104,14938,6,8,B|456:104,1,110,0|0
400,176,15738,2,8,B|256:176,2,110
56,192,18138,6,8,B|176:192,1,110,0|0
240,240,18938,2,8,B|240:128,2,110
328,240,20138,1,4
432,56,21338,6,0,B|312:56,1,110,0|0
232,56,22138,2,8,B|232:176,2,110
144,56,23338,1,4
24,240,24138,6,2,B|144:240,4,110
256,192,26138,12,4,28138
304,168,28738,2,8,B|280:56|160:72,1,165,8|12
112,112,29738,1,0
72,184,30138,1,0
120,256,30538,1,8
120,256,30938,5,12
192,304,31338,1,0
192,304,31738,1,0
280,312,32138,2,8,B|280:192,1,110,8|12
368,208,32938,1,0
416,136,33338,1,0
368,64,33738,1,8
368,64,33938,1,8
96,96,35538,5,8
96,96,35738,1,12
24,152,36138,1,0
96,200,36538,1,0
24,248,36938,1,8
24,248,37138,1,8
24,248,37338,6,0,B|16:328|88:336,1,110,4|0
160,336,38138,1,0
248,336,38538,1,8
250,336,38938,2,0,B|370:336,1,110,12|0
360,72,41538,5,8
360,72,41738,1,8
272,72,42138,1,12
184,88,42538,1,0
240,152,42938,1,0
328,168,43338,2,8,B|328:224,1,55,8|0
328,223,43738,5,12
416,224,44138,1,0
416,312,44538,1,0
328,312,44938,1,8
240,312,45338,2,0,B|208:352|160:344|136:296,2,110,12|0|0
240,312,46338,2,0,B|277:281|269:233|238:220,1,110,0|8
8,48,48338,5,8
8,48,48538,2,0,B|128:48,1,110,12|0
120,136,49338,1,0
208,136,49738,2,0,B|208:256,3,110,8|12|0|0
296,248,51338,5,8
296,248,51538,1,8
384,248,51938,1,8
384,248,52138,1,8
280,80,53938,6,2,B|360:40|440:80,1,165
456,168,54938,1,4
280,168,55738,2,2,B|200:128|120:168,2,165,2|0|2
280,168,57138,1,4
280,256,57538,2,0,B|336:256,2,55
280,256,58138,5,4
216,320,58538,1,0
128,320,58938,1,8
40,320,59338,1,0
40,232,59738,2,0,B|40:168,3,55,4|0|0|0
128,176,60738,5,8
128,176,60938,1,8
216,176,61338,1,4
304,176,61738,1,8
304,176,61938,1,8
304,176,62138,1,4
392,176,62538,2,2,B|392:304,2,110,2|6|2
480,176,63738,5,0
480,88,64138,1,8
392,88,64538,1,4
304,88,64938,1,8
216,88,65338,1,0
128,88,65738,2,0,B|128:200,1,110,8|0
176,272,66538,5,0
248,224,66938,1,0
320,176,67338,1,0
392,120,67738,6,2,B|440:128|488:200|432:280|392:288,1,220,4|2
328,232,68938,2,2,B|328:120,1,110
328,32,69738,1,8
240,32,70138,1,0
152,32,70538,1,8
64,32,70938,5,0
64,32,71338,2,8,B|64:208,1,165,8|0
32,224,72138,2,2,B|32:336,2,110
120,224,73338,1,4
208,224,73738,1,4
296,224,74138,6,8,B|360:224,4,55,8|0|8|0|8
296,136,75338,1,4
296,48,75738,2,8,B|232:48,4,55,8|0|8|0|8
296,136,76938,2,6,B|184:136,3,110
136,64,78538,5,8
88,136,78938,1,0
136,208,79338,1,8
88,136,79738,1,0
136,64,80138,1,8
88,136,80538,6,2,B|40:144|-8:216|48:296|88:304,1,220,4|2
176,304,81738,2,2,B|288:304,1,110
376,304,82538,1,8
464,304,82938,1,0
416,232,83338,1,8
416,232,83538,1,0
416,232,83738,1,0
328,232,84138,6,8,B|328:67,1,165,8|0
288,48,84938,2,2,B|168:48,2,110
376,48,86138,1,4
376,136,86538,1,4
376,224,86938,6,8,B|312:224,4,55,8|0|8|0|8
464,224,88138,1,4
464,312,88538,2,8,B|464:368,4,55,8|0|8|0|8
376,312,89738,2,2,B|266:312,3,110
216,240,91338,1,8
168,312,91738,5,0
120,240,92138,1,8
72,312,92538,1,0
120,240,92938,1,8
168,164,93338,1,4
256,192,93738,12,0,96938
256,192,99138,5,0
256,192,99338,12,4,102938
256,80,103538,1,0
256,208,104138,1,0
256,208,104538,1,4
