osu file format v9

[General]
AudioFilename: Takahashi Yu - Genjitsu to Iu Na no Kaibutsu to Tatakau Mono Tachi.mp3
AudioLeadIn: 0
PreviewTime: 67900
Countdown: 0
SampleSet: Normal
StackLeniency: 0.7
Mode: 0
LetterboxInBreaks: 1

[Editor]
Bookmarks: 14323,14523,15900
DistanceSpacing: 1.5
BeatDivisor: 4
GridSize: 4

[Metadata]
Title:Genjitsu to Iu Na no Kaibutsu to Tatakau Mono Tachi (TV Size)
Artist:Takahashi Yuu
Creator:Neko_Ray
Version:Insane
Source:Bakuman
Tags:Krisom Ending Vivere

[Difficulty]
HPDrainRate:7
CircleSize:5
OverallDifficulty:8
ApproachRate:8
SliderMultiplier:1.6
SliderTickRate:0.5

[Events]
//Background and Video events
0,0,"bg.jpg"
Video,26123,"video.avi"
//Break Periods
//Storyboard Layer 0 (Background)
//Storyboard Layer 1 (Fail)
//Storyboard Layer 2 (Pass)
//Storyboard Layer 3 (Foreground)
//Storyboard Sound Samples
//Background Colour Transformations
3,100,163,162,255

[TimingPoints]
11738,400,4,1,0,30,1,0
26138,-100,4,1,0,0,0,0
28338,-100,4,1,0,30,0,0
66538,-100,4,1,0,15,0,0
67538,-100,4,1,0,30,0,1
80138,-100,4,1,0,30,0,0
80538,-100,4,1,0,30,0,1
92938,-100,4,1,0,30,0,0

[Colours]
Combo1 : 254,45,100
Combo2 : 144,254,61
Combo3 : 36,207,251
Combo4 : 253,196,45
SliderBorder : 0,0,0

[HitObjects]
256,192,11738,12,4,13338
24,216,13738,1,8
88,112,13938,1,8
200,64,14138,1,0
320,64,14338,1,0
424,120,14538,1,8
496,216,14738,1,8
376,216,14938,6,0,B|288:216,1,80,0|0
136,216,15338,2,0,B|224:216,1,80,0|0
376,304,15738,2,0,B|320:368,1,80
136,304,16138,2,0,B|192:368,1,80,0|0
256,248,16538,2,0,B|256:168,1,80,12|0
256,168,16938,5,8
136,168,17138,1,8
192,64,17338,1,0
312,64,17538,1,0
376,168,17738,1,8
256,168,17938,1,8
136,224,18138,6,0,B|224:224,1,80,0|0
376,224,18538,2,0,B|296:224,1,80,0|0
136,168,18938,2,0,B|192:104,1,80
376,168,19338,2,0,B|320:104,1,80,0|0
256,0,19738,2,0,B|256:80,2,80,12|0|12
192,104,20338,2,0,B|224:160|288:160|320:104,1,160,8|0
440,120,20938,1,8
408,240,21138,1,8
376,360,21338,6,0,B|288:360,1,80,0|0
136,360,21738,2,8,B|216:360,1,80,0|0
352,296,22138,2,0,B|296:232,1,80
160,296,22538,2,0,B|216:232,1,80,0|0
256,128,22938,2,0,B|256:40,2,80,12|0|12
192,24,23538,2,0,B|224:-32|288:-32|320:24,1,160,8|0
400,80,24138,6,8,B|320:136,1,80,8|8
112,80,24538,2,8,B|192:136,1,80
184,256,24938,2,8,B|104:312,1,80,12|8
328,256,25338,2,8,B|408:312,1,80,12|8
256,192,25738,1,12
256,192,25938,1,12
256,192,26138,12,0,28138
216,48,28338,1,0
216,48,28538,1,4
216,48,28738,2,0,B|304:72,1,80,0|8
432,96,29138,2,0,B|352:160,1,80,0|12
256,192,29538,2,0,B|344:216,1,80,0|0
424,288,29938,2,0,B|486:238,2,80,0|0|0
304,320,30538,6,8,B|216:320,2,80,8|8|12
200,264,31138,1,0
96,320,31338,1,0
200,264,31538,1,0
80,264,31738,1,0
80,264,31938,2,0,B|80:176,1,80,0|8
24,80,32338,6,0,B|80:24,1,80,0|12
200,80,32738,2,0,B|136:16,1,80,0|0
264,80,33138,2,0,B|320:136,2,80,0|0|0
384,80,33738,1,8
384,80,33938,1,8
448,152,34138,5,12
328,152,34338,1,0
208,152,34538,1,0
112,216,34738,1,0
232,216,34938,1,0
360,216,35138,1,4
360,216,35238,1,4
360,216,35338,1,12
480,216,35538,5,0
480,216,35738,2,0,B|416:272,1,80,12|0
296,272,36138,2,0,B|240:216,1,80,0|0
120,168,36538,2,0,B|200:168,1,80
328,176,36938,2,8,B|272:120,1,80,8|8
152,72,37338,6,0,B|232:72,2,80,12|0|0
80,176,37938,2,0,B|24:240,1,80,0|0
144,232,38338,1,0
40,296,38538,1,8
160,296,38738,1,0
280,296,38938,1,12
160,296,39138,1,0
264,232,39338,5,8
384,232,39538,1,8
384,112,39738,1,0
384,232,39938,1,0
504,232,40138,1,8
384,232,40338,1,8
384,112,40538,2,0,B|384:16|272:16,2,160,0|8|0
504,112,41538,5,8
424,24,41738,1,8
304,40,41938,1,8
216,120,42138,6,0,B|296:120,1,80,4|0
384,200,42538,2,0,B|304:200,2,80,0|0|0
272,248,43138,2,0,B|208:304,1,80,0|8
88,296,43538,2,0,B|148:243,2,80,8|12|0
32,192,44138,5,0
72,80,44338,1,0
72,80,44538,2,0,B|152:80,1,80
152,0,44938,2,8,B|152:80,1,80,8|8
232,80,45338,2,0,B|152:80,1,80,12|0
232,168,45738,1,0
312,256,45938,2,0,B|224:256,1,80,0|0
376,256,46338,2,0,B|432:320,2,80,0|8|8
496,256,46938,5,12
496,136,47138,1,0
376,136,47338,1,0
296,48,47538,1,0
216,136,47738,1,0
216,256,47938,1,4
216,256,48038,1,4
216,256,48138,1,12
72,224,48338,6,0,B|96:312,2,80,8|12|0
176,160,48938,2,8,B|256:160,1,80,0|0
360,224,49338,2,0,B|336:312,1,80
456,272,49738,1,8
392,176,49938,2,8,B|448:96,1,80,0|12
320,104,50338,6,0,B|240:104,1,80,0|0
120,104,50738,1,0
240,104,50938,1,0
144,168,51138,2,0,B|224:168,2,80,0|8|8
104,280,51738,2,0,B|24:280,2,80,12|0|0
224,280,52338,5,0
344,280,52538,2,0,B|408:240|440:320|504:280,1,160
270,185,53338,2,0,B|230:121|310:89|270:25,1,160
274,32,53938,6,0,B|138:32|138:192,1,240
376,192,54938,1,12
240,352,55738,6,0,B|376:352|376:192,1,240
392,56,56538,2,0,B|480:56,1,80,12|0
472,176,56938,2,0,B|472:264,1,80
256,160,57538,2,0,B|320:96,2,80
24,192,58138,5,12
256,256,58538,1,0
488,192,58938,1,0
256,128,59338,1,0
160,352,59738,2,0,B|120:368|120:336|80:352,1,80,12|0
224,352,60138,2,0,B|264:368|264:336|304:352,1,80,4|0
376,288,60738,6,0,B|440:224,1,80
328,168,61138,2,0,B|400:96,1,80,0|12
152,160,61738,2,0,B|96:96,2,80
47,100,62338,1,0
48,224,62538,1,0
168,224,62738,1,0
288,224,62938,1,12
288,224,63338,1,0
432,88,63738,5,8
208,184,64138,1,8
376,352,64538,1,12
136,352,64938,1,8
304,184,65338,1,8
88,88,65738,2,8,B|88:176,2,80
328,88,66538,5,0
216,296,66938,1,0
88,88,67338,1,0
80,216,67538,5,0
88,224,67638,1,0
95,230,67738,2,6,B|144:217|200:262|191:327,1,160
320,326,68338,2,6,B|311:262|367:217|414:230,1,160
320,152,68938,2,6,B|288:200|224:200|184:152,1,160,4|6
384,16,69738,1,8
172,128,70138,1,0
312,324,70538,1,8
424,276,70738,5,0
416,154,70938,2,6,B|367:167|311:122|320:57,1,160,6|6
191,58,71538,2,6,B|200:122|144:167|97:154,1,160,6|6
192,232,72138,2,6,B|224:184|288:184|328:232,1,160,4|6
108,332,72938,1,8
24,108,73338,1,0
256,40,73738,1,8
476,132,74138,5,0
356,132,74338,1,0
476,152,74538,1,8
356,152,74738,1,8
356,272,74938,2,6,B|436:272,2,80,6|4|4
236,272,75538,5,0
152,188,75738,1,0
68,272,75938,1,0
152,188,76138,1,8
68,100,76338,1,8
148,12,76538,1,2
312,188,76938,6,8,B|312:104,1,80
400,188,77338,2,8,B|400:268,2,80,8|8|8
484,184,77938,2,4,B|484:104,1,80,6|6
244,104,78538,1,0
72,160,78838,1,0
72,220,78938,1,0
308,268,79338,1,0
480,220,79638,1,0
480,160,79738,1,0
244,104,80138,1,4
140,320,80538,6,6,B|91:333|35:288|44:223,1,160
172,224,81138,2,6,B|221:237|277:192|268:127,1,160
140,128,81738,2,6,B|91:141|35:96|44:31,1,160,4|6
284,32,82538,1,8
480,168,82938,1,0
240,164,83338,1,8
120,164,83538,1,0
0,164,83738,1,0
416,164,84138,5,6
392,84,84338,2,6,B|343:93|311:157|344:212,1,160
440,244,84938,2,6,B|489:235|521:171|488:116,1,160
216,8,85738,1,8
32,168,86138,1,0
216,320,86538,1,8
336,320,86738,1,0
456,320,86938,5,0
352,264,87138,1,0
456,204,87338,1,8
352,144,87538,1,8
452,80,87738,2,4,B|452:0,2,80,6|4|4
352,144,88338,5,0
264,232,88538,1,0
176,144,88738,1,0
264,56,88938,1,8
352,144,89138,1,8
264,144,89338,1,2
116,332,89738,6,8,B|36:332,1,80
140,276,90138,2,8,B|228:276,2,80
248,224,90738,2,4,B|248:144,1,80,6|6
488,208,91338,1,0
320,272,91638,1,0
264,272,91738,1,0
24,208,92138,1,0
192,144,92438,1,0
248,144,92538,1,0
320,272,92838,1,0
264,272,92938,1,4
256,208,93338,5,4
256,208,93738,1,0
256,192,93938,12,0,96938
288,72,97338,5,8
56,144,97738,1,0
56,264,97938,1,0
288,312,98338,1,8
496,192,98738,1,0
256,192,99138,5,4
256,192,99338,1,0
256,192,99538,12,0,102538
112,304,102938,5,4
392,80,103538,1,0
256,192,104138,1,0
256,192,104538,1,4
