osu file format v12

[General]
AudioFilename: 0001.-.mp3
AudioLeadIn: 2000
PreviewTime: 81743
Countdown: 0
SampleSet: Normal
StackLeniency: 0.7
Mode: 0
LetterboxInBreaks: 1
WidescreenStoryboard: 0

[Editor]
Bookmarks: 22623,77328,157492
DistanceSpacing: 0.7
BeatDivisor: 4
GridSize: 8

[Metadata]
Title:Subarashiki Nichijo
TitleUnicode:素晴らしき日常
Artist:Takahashi Yu
ArtistUnicode:高橋優
Creator:shaoshengss
Version:haobeishuang
Source:
Tags:abdomsisn Spy NHK ni youkoso ljqandylee victorica_db Simple_Star
BeatmapID:272333
BeatmapSetID:103300

[Difficulty]
HPDrainRate:5
CircleSize:4
OverallDifficulty:7
ApproachRate:9
SliderMultiplier:1.9
SliderTickRate:1

[Events]
//Background and Video events
Video,-8865,"0001.-.flv"
0,0,"36856937.jpg",0,0
//Break Periods
2,121345,127795
2,226815,238722
//Storyboard Layer 0 (Background)
//Storyboard Layer 1 (Fail)
//Storyboard Layer 2 (Pass)
//Storyboard Layer 3 (Foreground)
//Storyboard Sound Samples
//Background Colour Transformations
3,100,163,162,255

[TimingPoints]
1136,303.076223670253,3,1,0,40,1,0
81442,-100,3,2,0,90,0,1
110195,-133.333333333333,3,2,0,50,0,1
119589,-114.942528735632,3,2,0,80,0,1
119892,-100,3,2,0,80,0,1
120498,-89.2857142857143,3,2,0,80,0,1
120801,-80,3,2,0,80,0,1
121220,-100,3,2,0,90,0,0
128115,-100,3,2,0,20,0,0
138322,-200,3,2,0,20,0,0
138777,-100,3,2,0,20,0,0
144482,-100,3,2,0,80,0,0
146505,-200,3,2,0,75,0,0
148778,-100,3,2,0,75,0,0
186836,-100,3,2,0,90,0,1
215607,-133.333333333333,3,2,0,50,0,1
225305,-100,3,2,0,90,0,1
225911,-80,3,2,0,90,0,1
226691,-100,3,2,0,90,0,0
241331,-100,3,2,0,90,0,0
288443,-100,3,2,0,5,0,0
289958,-100,3,2,0,55,0,0

[HitObjects]
272,88,8106,1,0,0:0:0:0:
432,176,8409,1,0,0:0:0:0:
408,96,8712,2,0,B|368:104|328:152,1,95
408,96,9015,1,0,0:0:0:0:
272,88,9319,2,0,B|232:128|232:200,1,95
272,88,9622,1,0,0:0:0:0:
75,262,9925,5,0,0:0:0:0:
232,168,10228,1,0,0:0:0:0:
150,148,10531,2,0,B|136:186|160:240,1,95
150,148,10834,1,0,0:0:0:0:
75,262,11137,2,0,B|83:302|136:344,2,95
256,192,11743,1,0,0:0:0:0:
448,248,12046,5,0,0:0:0:0:
448,136,12349,1,0,0:0:0:0:
384,192,12652,1,0,0:0:0:0:
280,192,12955,2,0,L|224:192,2,47.5
384,192,13259,1,0,0:0:0:0:
128,192,13562,5,0,0:0:0:0:
64,136,13865,1,0,0:0:0:0:
64,248,14168,1,0,0:0:0:0:
128,192,14471,2,0,L|176:192,2,47.5
384,192,14774,1,0,0:0:0:0:
256,192,15380,5,0,0:0:0:0:
336,40,15683,2,0,P|296:72|272:120,1,95
276,278,15986,1,0,0:0:0:0:
256,192,16289,1,0,0:0:0:0:
205,27,16592,2,0,P|199:78|216:128,1,95
330,238,16895,1,0,0:0:0:0:
256,192,17199,1,0,0:0:0:0:
104,112,17502,2,0,P|136:152|192:176,1,95
342,172,17805,1,0,0:0:0:0:
256,192,18108,1,0,0:0:0:0:
91,242,18411,2,0,P|142:248|200:224,1,95,0|0,0:0|0:0,0:0:0:0:
304,112,18714,1,0,0:0:0:0:
256,192,19017,1,0,0:0:0:0:
208,272,19320,5,0,0:0:0:0:
312,232,19623,1,0,0:0:0:0:
208,192,19926,1,0,0:0:0:0:
256,88,20229,2,0,L|256:32,2,47.5
208,192,20532,5,0,0:0:0:0:
312,232,20835,1,0,0:0:0:0:
256,344,21139,2,0,L|256:288,2,47.5
112,192,21745,1,0,0:0:0:0:
256,192,22048,1,0,0:0:0:0:
400,192,22351,1,0,0:0:0:0:
400,192,22957,5,0,0:0:0:0:
400,192,23109,1,0,0:0:0:0:
360,88,23260,1,0,0:0:0:0:
360,88,23412,1,0,0:0:0:0:
320,192,23563,1,0,0:0:0:0:
320,192,23715,1,0,0:0:0:0:
280,296,23866,2,0,B|328:304|328:304|376:296,1,95
280,88,24169,2,0,B|232:80|232:80|184:88,1,95
88,296,24472,2,0,B|136:304|136:304|184:296,1,95
200,192,24775,5,0,0:0:0:0:
296,128,24927,1,0,0:0:0:0:
200,192,25079,1,0,0:0:0:0:
320,192,25230,1,0,0:0:0:0:
200,192,25382,1,0,0:0:0:0:
272,296,25533,1,0,0:0:0:0:
119,331,25685,2,0,B|112:288|112:288|128:240,1,95
397,169,25988,2,0,B|405:213|405:213|389:261,1,95
127,147,26291,2,0,B|120:104|120:104|136:56,1,95
192,288,26594,5,0,0:0:0:0:
352,360,26745,1,0,0:0:0:0:
416,224,26897,1,0,0:0:0:0:
256,144,27049,1,0,0:0:0:0:
304,256,27200,1,0,0:0:0:0:
192,288,27352,1,0,0:0:0:0:
352,160,27503,5,0,0:0:0:0:
368,320,27655,1,0,0:0:0:0:
208,336,27806,1,0,0:0:0:0:
192,176,27958,1,0,0:0:0:0:
448,152,28109,2,0,B|456:104|456:104|448:48,1,95
256,192,28412,2,0,L|256:240|256:240,2,47.5
432,232,28715,2,0,B|424:280|424:280|432:336,2,95
464,120,29170,1,0,0:0:0:0:
165,222,29322,2,0,L|256:192,1,95
346,162,29625,2,0,L|255:192,1,95
255,192,29928,1,0,0:0:0:0:
141,78,30231,6,0,B|101:110|101:110|88:152,1,95
424,152,30534,2,0,B|410:110|410:110|370:78,1,95
166,162,30837,1,0,0:0:0:0:
346,162,30989,1,0,0:0:0:0:
166,162,31140,6,0,B|180:204|180:204|220:236,1,95
392,296,31443,2,0,B|376:248|376:248|336:224,1,95
368,80,31746,1,0,0:0:0:0:
256,192,31898,1,0,0:0:0:0:
368,80,32049,2,0,B|326:58|262:66,2,95
256,192,32504,2,0,B|306:166|346:174|378:198|378:198|426:158,1,190
142,78,32959,2,0,B|112:96|88:120|88:160,1,95
370,306,33262,2,0,B|400:288|424:264|424:224,1,95
232,216,33565,1,0,0:0:0:0:
160,104,33868,5,0,0:0:0:0:
160,288,34019,1,0,0:0:0:0:
336,288,34171,1,0,0:0:0:0:
344,112,34322,1,0,0:0:0:0:
160,104,34474,2,0,L|72:64,1,95
256,312,34777,5,0,2:0:0:0:
112,192,34928,1,0,2:0:0:0:
256,64,35080,1,0,2:0:0:0:
400,192,35232,1,0,2:0:0:0:
256,312,35383,1,0,2:0:0:0:
256,64,35535,1,0,0:0:0:0:
103,232,35686,6,0,B|72:256|64:280|64:320,1,95
408,151,35989,2,0,B|440:128|448:104|448:64,1,95
256,96,36292,2,0,B|216:88|216:88|168:112,1,95
256,288,36595,6,0,L|304:291|304:291,1,47.5
333,275,36747,1,0,0:0:0:0:
366,247,36823,1,0,0:0:0:0:
382,217,36898,1,0,0:0:0:0:
385,183,36974,1,0,0:0:0:0:
380,149,37050,1,0,0:0:0:0:
359,122,37126,1,0,0:0:0:0:
328,104,37202,2,0,B|288:80|256:48|256:48|248:96|232:120|184:136,1,190
88,192,37808,5,0,0:0:0:0:
120,280,38111,1,0,0:0:0:0:
440,280,38414,1,0,0:0:0:0:
408,192,38717,1,0,0:0:0:0:
376,104,39020,1,0,0:0:0:0:
208,80,39323,6,0,B|152:80|120:104|88:160,1,142.5
152,128,39626,2,0,B|128:158|120:184|128:232,1,95
304,304,39929,2,0,B|342:304|367:295|401:260,1,95
360,256,40232,2,0,B|391:224|391:200|391:168|391:168|439:152,1,142.5
464,224,40535,1,0,0:0:0:0:
304,184,40838,1,0,0:0:0:0:
152,128,41142,2,0,B|136:152|136:152|120:160|120:160|136:168|136:168|120:176|120:176|104:200|104:200|88:208|88:208|104:216|104:216|88:224|88:224|72:248,2,190
152,128,42051,1,0,0:0:0:0:
288,272,42354,5,0,0:0:0:0:
304,304,42430,1,0,0:0:0:0:
416,232,42657,1,0,0:0:0:0:
336,96,42960,2,0,L|304:0,1,95
168,80,43263,2,0,L|240:144,1,95
192,240,43566,2,0,L|96:224,1,95
128,376,43869,2,0,L|224:352,1,95
360,256,44172,1,0,0:0:0:0:
437,139,44475,1,0,0:0:0:0:
360,256,44778,6,0,B|376:232|376:232|392:224|392:224|376:216|376:216|392:208|392:208|408:184|408:184|424:176|424:176|408:168|408:168|424:160|424:160|440:136,2,190
352,32,45688,1,0,0:0:0:0:
176,104,45991,1,0,0:0:0:0:
352,184,46294,1,0,0:0:0:0:
256,264,46597,2,0,L|256:312,2,47.5
160,288,46900,2,0,L|136:328,2,47.5
400,192,47203,1,0,0:0:0:0:
248,64,47355,1,0,0:0:0:0:
248,64,47809,5,0,0:0:0:0:
256,288,48112,1,0,0:0:0:0:
256,80,48415,2,0,L|256:224|256:224,1,142.5
208,288,48718,2,0,L|80:288,1,126.666666666667
256,288,49022,1,0,0:0:0:0:
96,192,49325,5,0,0:0:0:0:
96,192,49476,1,0,0:0:0:0:
96,192,49628,1,0,0:0:0:0:
256,96,49779,1,0,0:0:0:0:
416,192,49931,1,0,0:0:0:0:
192,88,50234,5,0,0:0:0:0:
88,248,50537,1,0,0:0:0:0:
320,176,50840,1,0,0:0:0:0:
200,336,51143,1,0,0:0:0:0:
352,296,51295,1,0,0:0:0:0:
400,96,52052,5,0,0:0:0:0:
352,32,52204,1,0,0:0:0:0:
304,96,52355,1,0,0:0:0:0:
112,288,52507,2,0,B|160:296|160:296|208:280|208:280|256:288,1,142.5
304,288,52810,1,0,0:0:0:0:
160,96,52962,2,0,B|144:144|144:144|160:192,1,95
352,288,53265,2,0,B|368:240|368:240|352:192,2,95
256,272,53719,1,0,0:0:0:0:
256,176,53871,5,0,0:0:0:0:
256,16,54022,1,0,0:0:0:0:
304,96,54174,1,0,0:0:0:0:
256,176,54325,1,0,0:0:0:0:
352,96,54477,1,0,0:0:0:0:
256,16,54628,1,0,0:0:0:0:
400,96,54780,1,0,0:0:0:0:
400,96,54932,1,0,0:0:0:0:
256,224,55083,1,0,0:0:0:0:
256,224,55235,1,0,0:0:0:0:
168,88,55689,5,0,0:0:0:0:
256,152,55841,1,0,0:0:0:0:
168,88,55992,2,0,B|128:64|128:64|72:56,1,95
192,296,56295,2,0,B|232:320|232:320|288:328,1,95
192,296,56598,1,0,0:0:0:0:
168,88,56750,1,0,0:0:0:0:
104,232,56902,1,0,0:0:0:0:
256,152,57053,1,0,0:0:0:0:
104,232,57205,6,0,P|72:272|64:320,1,95
256,152,57508,2,0,L|232:192,2,47.5
408,192,57811,2,0,P|399:234|367:274,2,95
352,96,58265,1,0,0:0:0:0:
160,288,58417,6,0,P|192:328|232:352,1,95
256,152,58720,2,0,P|224:112|184:88,1,95
352,288,59023,1,0,0:0:0:0:
448,240,59326,6,0,B|400:232|400:232|352:240,1,95
352,336,59629,2,0,B|400:344|400:344|448:336,1,95
256,288,59932,1,0,0:0:0:0:
160,336,60084,1,0,0:0:0:0:
64,240,60235,6,0,B|112:232|112:232|160:240,1,95
160,336,60538,2,0,B|112:344|112:344|64:336,1,95
256,288,60842,1,0,0:0:0:0:
352,336,60993,1,0,0:0:0:0:
256,288,61145,2,0,B|216:304|184:304|144:288,2,95
87,224,61599,2,0,B|134:186|134:186|166:210|206:218|256:192,1,190
208,48,62054,2,0,B|176:80|176:80|160:128,1,95
304,336,62357,2,0,B|336:304|336:304|352:256,1,95
160,336,62660,1,0,0:0:0:0:
72,64,62963,6,0,B|53:118|96:156|96:156,1,95,0|0,0:0|0:0,2:0:0:0:
203,305,63266,2,0,B|201:311|219:256|176:218,1,95
152,88,63569,1,0,0:0:0:0:
72,232,63721,1,0,0:0:0:0:
152,88,63872,6,0,B|148:145|200:171|200:171,1,95
360,296,64175,2,0,B|359:302|362:244|311:219,1,95
304,144,64478,1,0,0:0:0:0:
208,232,64630,1,0,0:0:0:0:
352,96,64782,2,0,B|339:47|339:47|301:12|301:12,1,95
160,192,65085,2,0,B|145:240|145:240|159:289|159:289,1,95
352,328,65388,6,0,L|400:320,1,47.5
431,301,65539,1,0,0:0:0:0:
456,266,65615,1,0,0:0:0:0:
469,225,65691,1,0,0:0:0:0:
470,182,65767,1,0,0:0:0:0:
463,139,65842,1,0,0:0:0:0:
447,98,65918,1,0,0:0:0:0:
418,65,65994,1,0,0:0:0:0:
380,45,66070,1,0,0:0:0:0:
338,34,66145,1,0,0:0:0:0:
294,38,66221,1,0,0:0:0:0:
256,48,66297,2,0,B|248:80|248:80|256:88|256:88|248:88|248:88|256:104|256:104|280:104|304:144|296:176|256:208|216:200,1,190
160,48,66903,5,0,0:0:0:0:
256,48,67206,1,0,0:0:0:0:
352,336,67509,1,0,0:0:0:0:
256,336,67812,1,0,0:0:0:0:
160,336,68115,1,0,0:0:0:0:
112,96,68418,6,0,L|200:136,1,95
400,288,68721,2,0,L|312:248,1,95
64,240,69025,6,0,P|128:216|176:216,1,95
448,160,69328,2,0,B|416:152|384:160|360:184|360:184|304:160,1,142.5
352,96,69631,1,0,0:0:0:0:
400,288,69934,1,0,0:0:0:0:
448,192,70237,2,0,B|408:160|408:160|352:200|288:176|264:104,2,190
352,96,71146,2,0,L|280:192,1,95
160,192,71449,6,0,L|232:264,1,95
112,288,71752,1,0,0:0:0:0:
16,192,71904,1,0,0:0:0:0:
64,96,72055,2,0,B|96:56|96:56|144:40,1,95
256,288,72358,2,0,B|224:328|224:328|176:344,1,95
208,144,72661,2,0,B|248:120|248:120|304:112,1,95
448,336,72965,2,0,B|416:344|392:336|360:320|360:320|312:344,1,142.5
256,288,73268,6,0,L|160:304,1,95
376,248,73571,2,0,L|469:232,1,95
488,224,73798,1,0,0:0:0:0:
496,216,73874,1,0,0:0:0:0:
160,192,74177,2,0,B|144:216|144:216|128:224|128:224|144:232|144:232|128:240|128:240|112:264|112:264|96:272|96:272|112:280|112:280|96:288|96:288|80:312,2,190
32,208,75086,1,0,0:0:0:0:
96,328,75389,1,0,0:0:0:0:
256,288,75692,2,0,B|272:264|272:264|320:256|320:256|304:208|304:208|336:216|336:216|352:192|352:192,2,190
256,288,76450,1,0,0:0:0:0:
112,96,76905,5,0,0:0:0:0:
400,96,77208,1,0,0:0:0:0:
112,96,77511,2,0,B|176:128|152:160|216:192,1,142.5
256,288,77814,2,0,L|168:344,1,95
256,96,78117,2,0,L|344:48,1,95
112,192,78420,6,0,B|184:176|184:208|256:192,1,142.5
304,288,78723,2,0,L|400:320|400:320,1,95
208,144,79026,2,0,L|120:88|120:88,1,95
328,88,79329,5,0,0:0:0:0:
432,184,79481,1,0,0:0:0:0:
272,168,79632,1,0,0:0:0:0:
376,264,79784,1,0,0:0:0:0:
208,192,79935,2,0,B|168:200|152:184|112:192,1,95
256,96,80238,5,0,0:0:0:0:
304,288,80390,1,0,0:0:0:0:
112,240,80541,1,0,0:0:0:0:
208,192,80693,1,0,0:0:0:0:
400,288,80845,1,0,0:0:0:0:
256,384,80996,1,0,0:0:0:0:
352,192,81148,6,0,B|392:184|424:200|464:192,1,106.875004076958,0|0,0:0|0:0,0:0:0:0:
352,192,81451,1,0,0:0:0:0:
256,240,81602,1,0,0:0:0:0:
256,96,81754,5,0,0:0:0:0:
160,144,81905,1,0,0:0:0:0:
63,101,82057,2,0,B|39:165|71:245|159:245,2,190
208,192,82815,1,0,0:0:0:0:
256,288,82966,6,0,P|275:335|277:385,1,95
352,240,83269,2,0,P|393:269|422:311,1,95,0|0,0:0|0:0,3:0:0:0:
400,144,83572,2,0,P|451:146|497:167,1,95
312,88,83875,2,0,B|308:138|278:179|278:179|224:194|181:189,2,190
192,64,84633,2,0,L|256:144,1,95
208,288,85088,1,0,0:0:0:0:
208,288,85391,5,0,0:0:0:0:
304,336,85542,1,0,0:0:0:0:
304,240,85694,2,0,B|320:184|320:184|376:136|376:136|392:80,2,190
136,168,86451,1,0,0:0:0:0:
64,74,86603,2,0,P|31:113|24:160,1,95
154,53,86906,2,0,P|103:53|63:73,1,95
232,104,87209,2,0,P|193:66|155:53,1,95
256,192,87512,2,0,B|264:144|232:104|232:104|320:48,2,190
352,144,88270,2,0,P|360:192|344:248,1,95
352,144,88725,1,0,0:0:0:0:
256,288,89028,5,0,0:0:0:0:
256,192,89179,1,0,0:0:0:0:
208,96,89331,2,0,B|216:144|192:176|144:192|144:192|168:256,2,190
120,104,90240,2,0,B|152:112|152:112|160:136|160:136|184:136|184:136|192:160|192:160|216:160|216:160|224:184|224:184|256:192,1,190
344,224,90695,1,0,0:0:0:0:
344,224,90846,6,0,P|320:264|264:280,1,95
240,104,91149,2,0,P|287:105|329:146,1,95
184,252,91452,2,0,P|161:211|175:154,1,95
256,192,91755,1,0,0:0:0:0:
256,192,91907,1,0,0:0:0:0:
256,192,92058,6,0,B|296:248|272:328|200:344,2,190
184,252,92816,1,0,0:0:0:0:
168,165,92968,2,0,B|127:109|151:29|216:0,1,190
256,192,93422,1,0,0:0:0:0:
240,104,93574,2,0,B|256:72|280:48|320:48,1,95,0|0,0:0|0:0,2:0:0:0:
340,158,93877,2,0,B|406:160|457:99|420:22,1,190
240,104,94331,1,0,0:0:0:0:
152,72,94483,2,0,B|128:40|80:24|40:48,1,95
80,128,94786,2,0,B|16:144|-16:224|16:280,2,190
120,232,95544,2,0,B|152:256|176:248|208:272,1,95
400,192,95998,1,0,0:0:0:0:
256,144,96301,5,0,0:0:0:0:
256,48,96453,1,0,0:0:0:0:
168,0,96605,2,0,B|256:40|256:40|344:0,2,190
168,0,97362,1,0,0:0:0:0:
256,192,97514,2,0,L|256:288,1,95
168,152,97817,2,0,L|256:192,1,95
344,152,98120,2,0,L|256:192,1,95
168,248,98423,2,0,B|256:288|256:288|344:248,2,190
256,192,99181,2,0,L|344:152|344:152,1,95
256,336,99635,1,0,0:0:0:0:
400,336,99938,5,0,0:0:0:0:
256,240,100090,1,0,0:0:0:0:
400,240,100241,2,0,B|456:240|496:224|512:184|512:120,2,190
256,240,100999,1,0,0:0:0:0:
104,144,101151,2,0,P|104:208|96:240,1,95
256,192,101454,2,0,P|221:245|197:268,1,95
352,312,101757,2,0,P|293:338|261:343,1,95
288,48,102060,2,0,B|296:112|360:160|432:152,2,190
176,40,102818,2,0,P|96:32|64:24,1,95
400,48,103272,1,0,0:0:0:0:
256,192,103575,5,0,0:0:0:0:
400,336,103727,1,0,0:0:0:0:
296,336,103878,2,0,B|296:288|320:256|352:248|352:200|344:152,2,190
208,112,104788,2,0,B|144:152|152:240|216:272,1,190
256,192,105242,1,0,0:0:0:0:
256,192,105394,6,0,B|296:216|336:216|368:208,1,95
211,269,105697,2,0,B|231:310|265:332|296:343,1,95
120,288,106000,2,0,B|114:334|130:370|150:396,1,95
208,144,106303,1,0,0:0:0:0:
64,48,106454,1,0,0:0:0:0:
64,144,106606,6,0,B|48:224|80:256|64:336|64:336,2,190
160,192,107364,1,0,0:0:0:0:
160,96,107515,2,0,B|256:80|256:112|352:96,1,190
304,0,107970,1,0,0:0:0:0:
352,192,108121,2,0,B|312:184|296:200|256:192,1,95
352,288,108424,2,0,B|432:280|464:208|432:144,1,190
352,192,108879,1,0,0:0:0:0:
160,288,109031,2,0,B|200:296|216:280|256:288,1,95
160,192,109334,2,0,B|80:184|48:112|80:48,1,190
144,0,109788,1,0,0:0:0:0:
168,96,109940,2,0,L|264:128,1,95
312,240,110243,6,0,B|352:240|400:288|400:336,2,142.500005435944
200,144,111152,2,0,B|160:144|112:96|112:48,2,142.500005435944
448,104,112061,6,0,B|448:152|408:192|352:192,2,142.500005435944
160,192,112971,2,0,B|106:191|66:231|66:279,2,142.500005435944
56,48,113880,6,0,B|104:40|168:88|168:152,1,142.500005435944
256,96,114486,1,0,0:0:0:0:
456,192,114789,2,0,B|408:184|344:232|344:296,1,142.500005435944
256,192,115395,1,0,0:0:0:0:
216,272,115698,6,0,B|160:288|128:272|72:288|72:288,1,142.500005435944
16,352,116304,1,0,0:0:0:0:
96,192,116608,2,0,B|120:152|88:80|32:72,1,142.500005435944
136,32,117214,1,0,0:0:0:0:
192,112,117517,2,0,B|240:160|224:184|272:232,2,142.500005435944
336,152,118426,6,0,B|384:104|352:72|400:24,1,142.500005435944
280,80,119032,1,0,0:0:0:0:
416,192,119335,2,0,B|456:216|472:248|472:264,1,71.2500027179719
344,248,119638,2,0,B|364:289|368:320|360:352,1,82.6500006936264
256,240,119941,2,0,B|250:286|230:321|201:334,1,95
80,296,120244,6,0,B|101:262|143:241|174:252,1,95,0|0,0:0|0:0,0:0:0:0:
88,168,120548,2,0,B|120:152|168:160|208:192,1,106.400001298828,0|0,0:0|0:0,0:0:0:0:
184,80,120851,2,0,B|224:88|264:120|272:168,1,118.75,0|0,0:0|0:0,0:0:0:0:
256,240,121154,1,0,0:0:0:0:
256,192,128428,5,0,0:0:0:0:
112,288,128731,1,0,0:0:0:0:
16,144,129034,1,0,0:0:0:0:
120,192,129337,2,0,B|182:198|246:254|254:310,1,190
400,0,130246,5,0,0:0:0:0:
448,192,130549,1,0,0:0:0:0:
256,144,130852,1,0,0:0:0:0:
448,96,131155,2,0,B|384:64|336:104|264:64,1,190
216,320,132064,5,0,0:0:0:0:
56,224,132368,1,0,0:0:0:0:
136,272,132671,1,0,0:0:0:0:
184,192,132974,2,0,B|232:152|288:136|368:152,1,190
362,150,133883,6,0,B|368:232|456:232|464:312,1,190,0|0,0:0|0:0,0:0:0:0:
368,320,134489,1,0,0:0:0:0:
304,240,134792,2,0,B|272:184|200:160|136:192,1,190
160,96,135701,5,0,0:0:0:0:
208,288,136004,1,0,0:0:0:0:
352,144,136307,1,0,0:0:0:0:
208,192,136611,5,0,0:0:0:0:
304,384,136914,1,0,0:0:0:0:
448,240,137217,1,0,0:0:0:0:
308,284,137520,6,0,B|248:264|184:272|128:312,1,190
416,336,138126,1,0,0:0:0:0:
447,238,138429,6,0,L|408:152,1,95,0|0,0:0|0:0,0:0:0:0:
80,264,139338,6,0,L|56:72,2,190
192,344,140247,2,0,L|384:320,2,190
168,264,141157,2,0,B|200:176|256:208|288:120,1,190
176,80,141763,1,0,0:0:0:0:
304,288,142066,5,0,0:0:0:0:
384,256,142369,1,0,0:0:0:0:
432,160,142672,1,0,0:0:0:0:
384,40,142975,1,0,0:0:0:0:
384,40,144642,5,0,0:0:0:0:
376,48,144718,5,0,0:0:0:0:
368,56,144794,5,0,0:0:0:0:
360,64,144869,5,0,0:0:0:0:
112,192,146612,6,0,B|104:128|136:64|200:40,1,190
310,26,147824,1,0,0:0:0:0:
414,64,148127,1,0,0:0:0:0:
476,157,148431,2,0,B|493:209|467:251,1,95
422,330,149037,1,0,0:0:0:0:
327,371,149340,1,0,0:0:0:0:
225,359,149643,1,0,0:0:0:0:
147,293,149946,1,0,0:0:0:0:
112,192,150249,1,0,0:0:0:0:
368,112,151764,5,0,0:0:0:0:
448,256,152067,1,0,0:0:0:0:
152,144,153886,6,0,B|104:200|120:256|72:320,1,190
216,232,154492,1,0,0:0:0:0:
304,144,154719,1,0,0:0:0:0:
304,144,154795,2,0,B|288:120|248:104|232:80|232:80,1,95
384,56,155098,1,0,0:0:0:0:
448,192,155401,1,0,0:0:0:0:
328,280,155629,5,0,0:0:0:0:
328,280,155704,2,0,B|288:304|256:304|216:296,1,95
128,80,156007,2,0,L|104:32,1,47.5
160,96,156159,2,0,B|200:72|232:72|272:80,1,95
408,176,156462,5,0,0:0:0:0:
392,192,156538,1,0,0:0:0:0:
376,208,156614,2,0,P|328:216|280:208,1,95
248,328,156917,2,0,P|212:294|190:251,1,95
64,264,157220,2,0,P|69:215|90:171,1,95
312,144,157523,5,0,0:0:0:0:
200,144,157674,1,0,0:0:0:0:
384,80,157826,1,0,0:0:0:0:
128,80,157977,1,0,0:0:0:0:
312,144,158129,2,0,B|328:96|328:96|312:48,1,95
200,144,158432,2,0,B|184:192|184:192|200:240,2,95
312,144,158887,1,0,0:0:0:0:
256,48,159038,1,0,0:0:0:0:
256,240,159190,1,0,0:0:0:0:
200,144,159341,6,0,B|176:144|176:144|144:136|144:136|104:144,2,95
312,240,159796,2,0,B|336:240|336:240|368:248|368:248|408:240,2,95
256,336,160251,1,0,0:0:0:0:
200,240,160402,1,0,0:0:0:0:
256,144,160554,1,0,0:0:0:0:
312,240,160705,1,0,0:0:0:0:
191,192,161160,5,0,0:0:0:0:
320,192,161311,1,0,0:0:0:0:
90,204,161463,1,0,0:0:0:0:
421,179,161614,1,0,0:0:0:0:
133,126,161766,1,0,0:0:0:0:
378,258,161917,1,0,0:0:0:0:
256,240,162069,2,0,B|248:208|264:176|256:144,2,95
120,280,162524,6,0,B|104:328|104:328|120:376,1,95
272,320,162827,1,0,0:0:0:0:
256,192,162978,2,0,L|256:240,2,47.5
392,104,163281,2,0,B|408:56|408:56|392:8,2,95
240,64,163736,1,0,0:0:0:0:
160,208,163887,6,0,B|168:248|200:272|240:280,1,95,0|0,0:0|0:0,0:0:0:0:
352,176,164191,2,0,B|344:136|312:112|272:104,1,95,0|0,0:0|0:0,0:0:0:0:
256,192,164494,1,0,0:0:0:0:
149,97,164797,6,0,L|240:128,1,95
362,286,165100,2,0,L|272:256,1,95
312,360,165403,1,0,0:0:0:0:
216,368,165554,1,0,0:0:0:0:
152,296,165706,6,0,B|192:209,1,95
360,88,166009,2,0,B|320:175,1,95
400,256,166312,1,0,0:0:0:0:
312,288,166464,1,0,0:0:0:0:
240,232,166615,2,0,L|276:144,1,95
312,288,166918,1,0,0:0:0:0:
224,320,167070,2,0,B|144:304|128:216|168:168,1,190
256,72,167524,6,0,B|280:56|328:48|368:64,1,95,0|0,0:0|0:0,0:0:0:0:
464,128,167827,2,0,B|440:144|392:152|352:136,1,95,0|0,0:0|0:0,0:0:0:0:
256,184,168130,1,0,0:0:0:0:
71,329,168434,6,0,P|104:304|152:280,1,95,0|0,0:0|0:0,0:0:0:0:
328,222,168737,2,0,P|296:248|248:272,1,95
176,168,169040,1,0,0:0:0:0:
256,72,169191,1,0,0:0:0:0:
95,121,169343,6,0,P|120:144|176:168,1,95
336,118,169646,2,0,P|312:96|256:72,1,95
120,64,169949,1,0,0:0:0:0:
64,184,170100,1,0,0:0:0:0:
104,304,170252,6,0,L|200:320,1,95
448,240,170555,2,0,L|352:248,1,95
176,168,170858,2,0,L|272:160,1,95
352,56,171161,2,0,L|304:48,1,47.5
261,51,171313,1,0,0:0:0:0:
218,59,171389,1,0,0:0:0:0:
180,79,171464,1,0,0:0:0:0:
147,107,171540,1,0,0:0:0:0:
124,143,171616,1,0,0:0:0:0:
117,185,171692,1,0,0:0:0:0:
128,224,171767,2,0,B|144:264|200:224|200:224|176:264|176:328|224:352,1,190
312,288,172374,5,0,0:0:0:0:
216,360,172677,1,0,0:0:0:0:
304,24,172980,1,0,0:0:0:0:
208,96,173283,1,0,0:0:0:0:
112,168,173586,1,0,0:0:0:0:
256,192,173889,6,0,P|304:184|344:160,1,95
256,192,174192,2,0,P|208:200|168:224,1,95
343,160,174495,2,0,P|360:112|352:56,1,95
168,223,174798,2,0,P|152:272|160:328,1,95
224,104,175101,5,0,0:0:0:0:
288,280,175404,1,0,0:0:0:0:
328,128,175707,2,0,B|360:152|360:192|360:192|480:192,1,190
256,192,176314,1,0,0:0:0:0:
184,256,176617,2,0,B|152:232|152:192|152:192|32:192,1,190
112,312,177223,1,0,0:0:0:0:
200,368,177374,1,0,0:0:0:0:
304,336,177526,6,0,B|328:296|368:296|384:296,1,95
389,206,177829,2,0,B|411:247|391:282|384:296,1,95
458,345,178132,2,0,B|412:344|392:309|384:296,1,95
296,176,178435,2,0,B|320:120|376:112|376:112|416:88|424:48,2,190
384,296,179193,1,0,0:0:0:0:
384,296,179269,1,0,0:0:0:0:
384,296,179344,6,0,L|280:280|280:280,1,95
120,152,179647,2,0,B|152:144|184:168|200:192|200:192|296:176,2,190
136,320,180557,2,0,P|118:275|125:229,1,95
304,312,180860,2,0,P|274:349|230:366,1,95
208,176,181163,2,0,P|255:182|291:212,1,95
40,240,181466,2,0,B|64:184|64:184|88:184|88:184|112:128,2,142.5
40,240,182375,6,0,L|72:160,1,47.5
248,160,182678,2,0,L|224:224,1,47.5
224,240,182981,5,0,0:0:0:0:
72,136,183133,1,0,0:0:0:0:
312,208,183284,1,0,0:0:0:0:
136,272,183436,1,0,0:0:0:0:
272,80,183587,1,0,0:0:0:0:
336,288,183890,5,0,0:0:0:0:
168,192,184042,1,0,0:0:0:0:
256,336,184194,1,0,0:0:0:0:
352,128,184345,1,0,0:0:0:0:
136,272,184497,1,0,0:0:0:0:
248,160,184800,5,0,0:0:0:0:
416,240,184951,1,0,0:0:0:0:
224,240,185103,1,0,0:0:0:0:
440,160,185254,1,0,0:0:0:0:
272,80,185406,2,0,B|248:88|248:88|208:88|208:88|176:96,1,95
200,320,185709,5,0,0:0:0:0:
320,240,185860,1,0,0:0:0:0:
168,136,186012,1,0,0:0:0:0:
240,320,186164,1,0,0:0:0:0:
352,208,186315,1,0,0:0:0:0:
176,176,186467,1,0,0:0:0:0:
280,320,186618,6,0,B|304:312|304:312|344:312|344:312|376:304,1,95
320,240,186921,1,0,0:0:0:0:
184,216,187073,1,0,0:0:0:0:
240,320,187224,5,0,0:0:0:0:
104,296,187376,1,0,0:0:0:0:
48,192,187527,2,0,B|24:144|48:96|48:96|56:48|32:8,2,190
136,144,188285,1,0,0:0:0:0:
160,56,188437,2,0,L|256:48,1,95
432,144,188740,2,0,L|336:152,1,95
112,232,189043,2,0,L|208:240,1,95
464,263,189346,2,0,B|402:243|330:278|310:340,2,190
352,192,190104,2,0,L|256:176,1,95
136,144,190558,1,0,0:0:0:0:
136,144,190861,5,0,0:0:0:0:
112,232,191013,1,0,0:0:0:0:
208,208,191164,2,0,B|240:168|232:120|232:120|240:64|280:40,2,190
328,119,191922,1,0,0:0:0:0:
328,120,192074,2,0,P|384:136|408:176,1,95
344,296,192377,2,0,P|328:256|330:203,1,95
432,312,192680,2,0,P|416:360|376:384,1,95
464,232,192983,6,0,L|272:264,1,190
200,176,193437,1,0,0:0:0:0:
120,272,193589,1,0,0:0:0:0:
192,360,193740,2,0,L|288:344,1,95
192,360,194195,1,0,0:0:0:0:
256,128,194498,5,0,0:0:0:0:
256,256,194650,1,0,0:0:0:0:
320,360,194801,2,0,B|376:320|392:256|360:192,1,190
256,256,195407,1,0,0:0:0:0:
152,192,195710,2,0,B|120:128|136:64|192:24,1,190
372,100,196317,2,0,P|336:64|288:56,1,95
288,160,196620,2,0,L|216:232,1,95
208,328,196923,2,0,P|166:319|130:282,1,95
96,192,197226,5,0,0:0:0:0:
128,104,197377,1,0,0:0:0:0:
208,56,197529,2,0,B|240:40|272:40|304:56|304:56|400:56|400:56,1,190
256,128,197984,1,0,0:0:0:0:
304,200,198135,2,0,B|272:216|240:216|208:200,1,95
368,136,198438,2,0,B|400:176|400:232|368:264|368:264|400:304,1,190
488,336,198893,1,0,0:0:0:0:
312,336,199044,6,0,L|256:256,1,95
176,176,199347,2,0,B|151:157|121:144|89:139,1,95
101,233,199650,2,0,B|129:220|155:201|175:176,1,95
89,140,199954,2,0,B|85:170|89:202|100:233,1,95
256,120,200257,2,0,B|232:80|176:72|144:80|144:80|88:40,2,190
174,175,201014,2,0,B|192:200|216:216|256:216,1,95
368,192,201469,1,0,0:0:0:0:
376,192,201772,5,0,0:0:0:0:
336,80,201923,2,0,B|304:88|280:104|264:136,1,95
360,176,202227,1,0,0:0:0:0:
320,64,202378,2,0,B|288:72|264:88|248:120,1,95
248,216,202681,1,0,0:0:0:0:
312,296,202833,1,0,0:0:0:0:
352,200,202984,6,0,B|344:168|328:144|296:128,1,95
208,312,203287,2,0,B|216:344|232:368|264:384,1,95
248,216,203590,2,0,B|216:208|184:208|152:224,1,95
312,296,203893,2,0,B|384:320|448:272|456:208,2,190
352,200,204651,2,0,L|312:112,1,95
352,200,205106,1,0,0:0:0:0:
312,296,205409,5,0,0:0:0:0:
208,128,205560,2,0,B|176:128|144:144|128:176,1,95
402,128,205863,1,0,0:0:0:0:
216,224,206015,2,0,B|200:251|197:287|217:317,1,95
352,200,206318,1,0,0:0:0:0:
208,128,206470,1,0,0:0:0:0:
168,272,206621,6,0,L|72:288,1,95
352,200,206924,2,0,L|456:208,1,95
208,128,207227,2,0,L|112:120,1,95
296,56,207530,2,0,B|352:24|432:48|472:104,2,190
113,120,208288,2,0,L|208:128,1,95
352,200,208743,1,0,0:0:0:0:
224,328,209046,5,0,0:0:0:0:
288,264,209197,1,0,0:0:0:0:
224,200,209349,2,0,B|184:176|184:176|88:176|88:176|48:152,1,190
0,72,209803,1,0,0:0:0:0:
104,256,209955,2,0,B|152:256|152:256|192:280,1,95
248,120,210258,2,0,B|208:96|208:96|112:96|112:96|72:72,2,190
224,200,211016,1,0,0:0:0:0:
288,264,211167,2,0,B|328:288|328:288|376:288,1,95
488,224,211470,2,0,B|448:200|448:200|400:200,1,95
288,168,211773,5,0,0:0:0:0:
240,64,211925,1,0,0:0:0:0:
288,168,212077,2,0,B|320:152|336:128|344:96,1,95
176,168,212380,2,0,B|160:200|160:224|176:264,1,95
344,336,212683,2,0,B|336:304|320:280|288:264,1,95
240,360,212986,2,0,L|392:240,1,190
408,112,213440,1,0,0:0:0:0:
256,192,213592,1,0,0:0:0:0:
392,240,213743,1,0,0:0:0:0:
256,192,213895,6,0,P|260:146|243:101,1,95
97,217,214198,2,0,P|134:243|182:251,1,95
154,67,214501,2,0,P|112:86|81:123,1,95
169,159,214804,2,0,L|104:80,1,95
169,159,215107,2,0,L|269:142,1,95
169,159,215410,2,0,L|133:254,1,95
88,320,215713,6,0,B|112:336|152:344|184:320|184:320|224:320,2,142.500005435944
360,240,216623,2,0,B|336:224|296:216|264:240|264:240|224:240,1,142.500005435944
312,312,217229,1,0,0:0:0:0:
432,288,217532,6,0,L|464:352,1,71.2500027179719
432,288,217835,1,0,0:0:0:0:
360,240,217987,1,0,0:0:0:0:
408,168,218138,1,0,0:0:0:0:
408,168,218441,2,0,B|376:136|312:144|288:192,1,142.500005435944
288,192,219047,1,0,0:0:0:0:
360,240,219350,6,0,L|328:96,1,142.500005435944
384,48,219957,1,0,0:0:0:0:
264,72,220260,2,0,L|192:88,1,71.2500027179719
288,192,220563,2,0,B|285:195|336:120,1,71.2500027179719
408,168,220866,2,0,L|424:240,1,71.2500027179719
360,328,221169,6,0,B|336:328|304:312|288:288|288:288|232:296,1,142.500005435944
256,376,221775,1,0,0:0:0:0:
208,216,222078,2,0,B|200:168|136:128|88:144,2,142.500005435944
112,240,222987,2,0,L|200:112,1,142.500005435944
256,32,223593,1,0,0:0:0:0:
160,56,223897,2,0,B|168:104|232:144|280:128,1,142.500005435944
352,80,224503,1,0,0:0:0:0:
424,144,224806,6,0,L|480:192,1,71.2500027179719
464,280,225109,2,0,L|408:232,1,71.2500027179719
296,216,225412,6,0,L|312:312|312:312,1,95
248,384,225715,2,0,L|232:288,1,95
152,200,226018,6,0,L|96:312,1,118.75
0,328,226321,2,0,L|56:216,1,118.75
160,96,226624,1,0,0:0:0:0:
256,192,239353,12,0,241172,0:0:0:0:
408,224,241475,5,0,0:0:0:0:
360,88,241626,1,0,0:0:0:0:
208,160,241778,2,0,B|144:128|80:168|72:272,2,190
184,320,242536,1,0,0:0:0:0:
336,288,242687,6,0,P|376:344|376:392,1,95
376,192,242990,2,0,P|424:192|480:216,1,95,0|0,0:0|0:0,3:0:0:0:
328,88,243293,2,0,P|360:48|424:48,1,95
160,128,243596,2,0,B|120:104|72:184|72:184|32:144|24:80,2,190
344,208,244354,2,0,L|440:240,1,95
208,288,244809,1,0,0:0:0:0:
208,288,245112,5,0,0:0:0:0:
344,280,245263,1,0,0:0:0:0:
296,152,245415,2,0,L|344:88,1,47.5
208,168,245566,2,0,L|160:120,1,47.5
224,256,245718,2,0,L|176:312,1,47.5
304,240,245870,2,0,L|352:280,1,47.5
296,152,246021,2,0,L|344:88,1,47.5
224,48,246173,5,0,0:0:0:0:
104,96,246324,2,0,P|104:152|64:182,1,95
192,72,246627,2,0,P|160:96|101:92,1,95
264,128,246930,2,0,P|216:112|192:72,1,95
256,192,247233,2,0,B|264:144|232:104|232:104|320:48,2,190
360,264,248143,2,0,P|328:288|264:288,1,95
160,176,248446,1,0,0:0:0:0:
352,144,248597,1,0,0:0:0:0:
448,240,248749,5,0,0:0:0:0:
384,80,248900,1,0,0:0:0:0:
208,104,249052,2,0,B|227:163|227:163|194:169|161:176|161:176|181:235,2,190
120,112,249961,2,0,B|147:112|147:112|147:139|147:139|180:118|180:118|174:159|174:159|201:152|201:152|207:179,1,190
344,224,250567,6,0,P|360:264|416:272,1,95
240,104,250870,2,0,P|256:56|208:24,1,95
184,252,251173,2,0,P|136:256|112:304,1,95
185,253,251476,1,0,0:0:0:0:
320,128,251628,1,0,0:0:0:0:
256,192,251780,6,0,B|296:248|296:248|216:288|216:288|256:344,2,190
416,232,252537,1,0,0:0:0:0:
344,165,252689,2,0,B|385:109|361:29|296:0,1,190
256,192,253143,1,0,0:0:0:0:
272,104,253295,2,0,B|256:72|232:48|192:48,1,95,0|0,0:0|0:0,2:0:0:0:
173,153,253598,2,0,B|107:152|59:89|92:16,1,190
272,104,254053,1,0,0:0:0:0:
152,72,254204,2,0,B|128:40|80:24|40:48,1,95
32,176,254507,2,0,P|80:216|128:224,1,95
192,72,254810,2,0,B|168:40|120:24|80:48,1,95
72,176,255113,2,0,P|120:216|168:224,1,95
272,160,255416,1,0,0:0:0:0:
384,200,255644,1,0,0:0:0:0:
400,184,255720,1,0,0:0:0:0:
416,168,255795,1,0,0:0:0:0:
256,144,256023,5,0,0:0:0:0:
160,56,256174,1,0,0:0:0:0:
80,144,256326,2,0,P|112:232|216:256,1,190
184,176,256932,1,0,0:0:0:0:
120,304,257083,1,0,0:0:0:0:
328,304,257235,2,0,P|384:312|448:280,1,95
400,152,257538,2,0,P|344:136|288:176,1,95
328,304,257841,2,0,P|384:312|448:280,1,95
400,152,258144,2,0,P|358:131|288:176,1,95
464,256,258447,1,0,0:0:0:0:
368,128,258599,1,0,0:0:0:0:
464,256,258750,1,0,0:0:0:0:
368,128,258902,1,0,0:0:0:0:
368,128,259053,2,0,L|272:160|272:160,1,95
216,320,259356,1,0,0:0:0:0:
400,336,259660,5,0,0:0:0:0:
256,240,259811,1,0,0:0:0:0:
400,240,259963,2,0,B|456:240|496:224|512:184|512:120,2,190
256,240,260720,1,0,0:0:0:0:
104,144,260872,2,0,P|104:208|96:240,1,95
256,192,261175,2,0,P|221:245|197:268,1,95
352,312,261478,2,0,P|293:338|261:343,1,95
288,48,261781,2,0,B|296:112|360:160|432:152,2,190
176,40,262539,2,0,P|96:32|56:48,1,95
400,48,262993,1,0,0:0:0:0:
256,192,263296,5,0,0:0:0:0:
432,280,263448,1,0,0:0:0:0:
296,336,263600,2,0,B|296:288|320:256|352:248|352:200|344:152,2,190
208,112,264509,2,0,B|144:152|152:240|216:272,1,190
32,184,265115,6,0,B|72:208|112:208|144:200,1,95
280,74,265418,2,0,B|280:72|248:40|192:56,1,95
272,240,265721,2,0,B|304:264|336:272|376:256,1,95
304,80,266024,1,0,0:0:0:0:
136,136,266176,1,0,0:0:0:0:
160,272,266327,6,0,B|192:344|280:344|320:264,2,190
232,240,267085,1,0,0:0:0:0:
312,208,267236,2,0,B|256:144|200:144|152:208,1,190
64,104,267691,1,0,0:0:0:0:
200,48,267843,2,0,P|248:32|304:40,1,95
440,32,268146,2,0,B|448:104|488:112|464:216,1,190
280,112,268600,1,0,0:0:0:0:
248,288,268752,2,0,B|288:296|304:280|344:288,1,95
160,192,269055,2,0,B|80:184|48:112|80:48,1,190
256,32,269509,1,0,0:0:0:0:
376,192,269661,2,0,P|432:200|472:224,1,95
80,192,270267,5,0,0:0:0:0:
424,192,270570,1,0,0:0:0:0:
136,296,270873,1,0,0:0:0:0:
344,72,271176,1,0,0:0:0:0:
256,352,271479,1,0,0:0:0:0:
352,288,271783,1,0,0:0:0:0:
256,192,271934,1,0,0:0:0:0:
160,88,272086,1,0,0:0:0:0:
432,192,272389,1,0,0:0:0:0:
80,192,272692,1,0,0:0:0:0:
368,80,272995,1,0,0:0:0:0:
144,312,273298,1,0,0:0:0:0:
368,80,273601,5,0,0:0:0:0:
232,48,273904,2,0,B|128:88|128:88|80:192,1,190
152,288,274510,1,0,0:0:0:0:
264,320,274813,2,0,B|360:296|360:296|424:176,1,190
360,72,275419,1,0,0:0:0:0:
152,288,275723,1,0,0:0:0:0:
136,256,275798,1,0,0:0:0:0:
120,224,275874,1,0,0:0:0:0:
112,200,275950,2,0,P|320:120|320:128,1,427.5
272,280,276935,1,0,0:0:0:0:
392,272,277238,5,0,0:0:0:0:
256,168,277541,1,0,0:0:0:0:
368,224,277693,1,0,0:0:0:0:
256,312,277844,1,0,0:0:0:0:
96,88,278147,1,0,0:0:0:0:
400,88,278450,1,0,0:0:0:0:
256,320,278753,1,0,0:0:0:0:
416,192,279056,6,0,B|464:216|480:248|480:264,1,95
328,280,279359,2,0,B|348:313|352:344|336:376,1,95
176,280,279663,2,0,B|170:326|150:361|121:374,1,95
112,192,279966,6,0,B|56:168|40:136|40:96,1,95,0|0,0:0|0:0,0:0:0:0:
200,96,280269,2,0,B|176:56|184:16|216:-8,1,95,0|0,0:0|0:0,0:0:0:0:
336,96,280572,2,0,B|368:64|400:56|448:48,1,95,0|0,0:0|0:0,0:0:0:0:
256,240,280875,1,0,0:0:0:0:
56,272,281178,2,0,B|40:120|240:-40|432:104|448:272,2,570
176,288,283906,5,0,0:0:0:0:
360,296,284209,2,0,P|448:208|400:104,1,237.5
304,48,284815,1,0,0:0:0:0:
160,112,285118,2,0,P|96:224|128:304,1,190
288,248,285724,5,0,0:0:0:0:
320,248,285800,1,0,0:0:0:0:
336,232,285876,1,0,0:0:0:0:
208,96,286027,1,0,0:0:0:0:
64,272,286330,2,0,B|152:328|232:304|240:296,1,142.5
200,304,286633,1,0,0:0:0:0:
440,56,287239,1,0,0:0:0:0:
408,296,287543,1,0,0:0:0:0:
432,320,287618,1,0,0:0:0:0:
112,48,288149,5,0,0:0:0:0:
158,76,288528,2,0,B|160:-40|360:-80|440:144|256:184|256:184|256:280,1,522.5
252,367,289967,1,0,0:0:0:0:
72,192,290270,5,0,0:0:0:0:
416,192,290573,1,0,0:0:0:0:
48,104,291179,5,0,0:0:0:0:
128,200,291483,1,0,0:0:0:0:
280,240,291786,1,0,0:0:0:0:
464,168,292089,2,0,P|360:64|288:64,2,190
128,320,292998,5,0,0:0:0:0:
256,64,293301,1,0,0:0:0:0:
432,240,293604,1,0,0:0:0:0:
416,272,293680,1,0,0:0:0:0:
392,304,293756,1,0,0:0:0:0:
368,328,293831,1,0,0:0:0:0:
328,336,293907,1,0,0:0:0:0:
112,192,294210,5,0,0:0:0:0:
392,72,294513,2,0,P|448:144|424:248,1,190
112,192,295119,1,0,0:0:0:0:
256,56,295423,1,0,0:0:0:0:
400,192,295726,1,0,0:0:0:0:
256,320,296029,1,0,0:0:0:0:
112,192,296332,2,0,L|104:136,4,47.5
48,32,297241,5,0,0:0:0:0:
456,352,297544,1,0,0:0:0:0:
48,344,298150,5,0,0:0:0:0:
456,32,298453,1,0,0:0:0:0:
368,192,298756,1,8,0:0:0:0:
256,80,298908,1,8,0:0:0:0:
144,192,299059,1,8,0:0:0:0:
256,304,299211,1,8,0:0:0:0:
368,128,299363,1,8,0:0:0:0:
48,32,299666,1,8,0:0:0:0:
40,344,299969,1,0,0:0:0:0:
224,192,300272,2,4,P|320:152|416:176,1,190
376,320,300878,5,0,0:0:0:0:
448,176,301181,1,0,0:0:0:0:
336,56,301484,1,0,0:0:0:0:
304,64,301636,1,0,0:0:0:0:
288,88,301787,1,0,0:0:0:0:
240,224,302090,2,0,P|208:272|144:288,1,95
160,296,302393,1,0,0:0:0:0:
160,296,302545,1,0,0:0:0:0:
160,296,302696,1,0,0:0:0:0:
80,128,302999,5,8,0:0:0:0:
128,88,303151,5,0,0:0:0:0:
192,64,303302,5,8,0:0:0:0:
256,56,303454,5,0,0:0:0:0:
320,64,303606,5,8,0:0:0:0:
376,96,303757,5,0,0:0:0:0:
432,128,303909,5,8,0:0:0:0:
424,256,304060,1,0,0:0:0:0:
288,192,304212,1,0,0:0:0:0:
296,48,304363,5,0,0:0:0:0:
288,192,304515,1,0,0:0:0:0:
152,112,304666,1,0,0:0:0:0:
136,272,304818,5,0,0:0:0:0:
272,352,304969,1,0,0:0:0:0:
288,192,305121,2,0,P|240:128|136:80,2,190
432,256,305879,5,0,0:0:0:0:
272,352,306030,1,0,0:0:0:0:
272,200,306182,2,8,L|352:280,2,95
96,144,306636,5,0,0:0:0:0:
232,48,306788,1,0,0:0:0:0:
272,200,306939,2,8,L|192:128,2,95
48,344,307546,5,0,0:0:0:0:
440,32,307849,5,0,0:0:0:0:
