osu file format v13

[General]
AudioFilename: 02 .mp3
AudioLeadIn: 0
PreviewTime: 68007
Countdown: 1
SampleSet: None
StackLeniency: 0.7
Mode: 0
LetterboxInBreaks: 1
WidescreenStoryboard: 1

[Editor]
DistanceSpacing: 1.1
BeatDivisor: 4
GridSize: 4
TimelineZoom: 1.8

[Metadata]
Title:Genjitsu Toyuu Na No Kaibutsu To Tatakau Mono Tachi
TitleUnicode:現実という名の怪物と戦う者たち
Artist:Takahashi Yu
ArtistUnicode:高橋優
Creator:shaoshengss
Version:WAR!
Source:BAKUMAN
Tags:高橋優
BeatmapID:438022
BeatmapSetID:182722

[Difficulty]
HPDrainRate:8
CircleSize:4
OverallDifficulty:8
ApproachRate:9
SliderMultiplier:2.3
SliderTickRate:1

[Events]
//Background and Video events
0,0,"32761195.jpg",0,0
//Break Periods
2,13797,25797
2,97597,98797
2,106597,117997
//Storyboard Layer 0 (Background)
//Storyboard Layer 1 (Fail)
//Storyboard Layer 2 (Pass)
//Storyboard Layer 3 (Foreground)
//Storyboard Sound Samples
//Background Colour Transformations
3,100,163,162,255

[TimingPoints]
797.368018224355,400,4,2,1,30,1,0
3987,-200,4,2,1,35,0,0
5587,-142.857142857143,4,2,1,40,0,0
7187,-111.111111111111,4,2,1,45,0,0
8787,-99.9999999999999,4,2,1,50,0,0
11987,-133.333333333333,4,2,1,50,0,0
28987,-100,4,2,2,50,0,0
39387,-66.6666666666667,4,2,2,50,0,0
39987,-90.9090909090909,4,2,2,50,0,0
41787,-100,4,2,2,50,0,0
51387,-90.9090909090909,4,2,2,50,0,0
54797,-90.9090909090909,4,2,1,50,0,0
58387,-83.3333333333333,4,2,1,60,0,0
58387,-100,4,2,1,60,0,0
58787,-83.3333333333333,4,2,1,60,0,0
59187,-71.4285714285714,4,2,1,60,0,0
59587,-90.9090909090909,4,2,1,60,0,0
60987,-83.3333333333333,4,2,1,60,0,0
64787,-62.5,4,1,0,60,0,0
65987,-111.111111111111,4,2,1,60,0,0
67987,-83.3333333333333,4,3,0,60,0,1
79187,-80,4,3,0,60,0,1
79587,-76.9230769230769,4,3,0,60,0,1
79987,-80,4,3,0,60,0,1
80787,-83.3333333333333,4,3,0,77,0,1
102987,-100,4,3,0,77,0,1
106387,-100,4,2,2,60,0,0
130987,-166.666666666667,4,2,2,50,0,0
131387,-95.2380952380952,4,2,2,60,0,0
133587,-90.9090909090909,4,2,2,60,0,0
138187,-95.2380952380952,4,2,2,60,0,0
143787,-86.9565217391304,4,2,2,60,0,0
148387,-83.3333333333333,4,2,2,60,0,0
148787,-80,4,2,2,60,0,0
149187,-76.9230769230769,4,2,2,60,0,0
150587,-90.9090909090909,4,2,2,60,0,0
156387,-125,4,1,0,60,0,0
157587,-100,4,3,0,60,0,1
166787,-83.3333333333333,4,3,0,60,0,1
175987,-125,4,3,0,60,0,1
176387,-133.333333333333,4,3,0,60,0,1
176787,-83.3333333333333,4,3,0,60,0,1
192787,-90.9090909090909,4,3,0,60,0,1
195587,-100,4,3,0,60,0,1
200767,-83.3333333333333,4,3,0,80,0,1
224787,-80,4,3,0,80,0,1
225187,-76.9230769230769,4,3,0,80,0,1
225587,-74.0740740740741,4,3,0,80,0,1
225987,-76.9230769230769,4,3,0,80,0,1
226387,-80,4,3,0,80,0,1
226787,-80,4,3,0,50,0,1
229587,-71.4285714285714,4,3,0,80,0,1
232187,-100,4,3,0,80,0,1
235987,-100,4,2,2,80,0,1
240787,-142.857142857143,4,3,0,80,0,1
241187,-100,4,3,0,60,0,0

[HitObjects]
56,72,787,5,8,0:0:0:0:
100,188,1497,2,8,B|128:204|128:204|164:200,1,57.5
308,156,1797,1,8,0:0:0:0:
456,311,2397,5,8,0:0:0:0:
412,196,3097,2,8,B|384:180|384:180|347:184,1,57.5
204,228,3397,1,8,0:0:0:0:
48,44,3997,6,0,B|124:24|124:24|200:44|200:120,1,201.25,8|0,0:0|0:0,0:0:0:0:
200,148,4797,1,8,0:0:0:0:
96,120,4997,1,8,0:0:0:0:
456,48,5597,6,0,B|392:48|392:48|364:80|364:80|340:16|340:16|304:48|304:48|240:48,1,281.749991401673,8|0,0:0|0:0,0:0:0:0:
192,48,6397,1,8,0:0:0:0:
280,140,6597,1,8,0:0:0:0:
60,224,7197,6,8,B|128:224|128:224|164:264|164:264|196:176|196:176|232:224|232:224|320:224,1,362.249988945008
368,224,7997,2,8,B|404:188|404:188|452:232,1,103.499996841431
84,60,8797,5,8,0:0:0:0:
404,108,9497,2,8,L|316:92,1,57.5
184,76,9797,1,8,0:0:0:0:
68,292,10397,6,0,P|148:280|184:208,1,115,8|0,0:0|0:0,0:0:0:0:
80,164,10797,1,0,0:0:0:0:
216,224,11197,1,8,0:0:0:0:
400,192,11597,1,0,0:0:0:0:
400,191,11997,5,8,0:0:0:0:
256,192,12197,1,0,0:0:0:0:
108,192,12397,2,0,B|156:192|156:192|160:203|160:203|192:127|192:127|212:255|212:255|248:179|248:179|252:192|252:192|404:191,1,517.500019741059,8|0,0:0|0:0,0:0:0:0:
256,192,26397,12,0,28797,0:0:0:0:
64,52,28997,5,0,0:0:0:0:
108,88,29097,1,0,0:0:0:0:
108,88,29197,2,0,P|160:164|216:172,1,115
212,60,29597,1,12,0:0:0:0:
324,40,29797,1,0,0:0:0:0:
264,176,29997,1,8,0:0:0:0:
372,216,30197,1,0,0:0:0:0:
196,272,30397,1,8,0:0:0:0:
232,380,30597,1,0,0:0:0:0:
328,316,30797,2,0,P|452:288|472:208,1,172.5,8|0,0:0|0:0,0:0:0:0:
468,257,31197,5,12,0:0:0:0:
396,140,31397,1,0,0:0:0:0:
400,300,31597,1,8,0:0:0:0:
232,224,31797,1,0,0:0:0:0:
396,140,31997,2,0,P|356:76|288:52,1,115,8|0,0:0|0:0,0:0:0:0:
336,232,32397,2,0,P|384:184|396:128,1,115,8|0,0:0|0:0,0:0:0:0:
264,144,32797,5,12,0:0:0:0:
264,144,32997,1,0,0:0:0:0:
264,144,33097,1,0,0:0:0:0:
264,144,33197,1,8,0:0:0:0:
264,328,33397,1,0,0:0:0:0:
264,144,33597,2,0,B|220:136|180:168|112:144,1,115,8|0,0:0|0:0,0:0:0:0:
264,328,33997,1,8,0:0:0:0:
264,144,34197,2,2,B|360:120|396:208|500:148,1,230,8|2,0:0|0:0,0:0:0:0:
256,52,35797,5,0,0:0:0:0:
428,140,35997,2,0,L|316:76,1,115,12|0,0:0|0:0,0:0:0:0:
316,200,36397,2,0,B|256:216|256:216|168:188,1,115,8|0,0:0|0:0,0:0:0:0:
84,140,36797,2,0,L|196:76,1,115,8|0,0:0|0:0,0:0:0:0:
256,260,37197,2,0,L|256:128,1,115,8|0,0:0|0:0,0:0:0:0:
256,260,37597,1,8,0:0:0:0:
256,52,37797,1,0,0:0:0:0:
256,260,37997,1,8,0:0:0:0:
256,52,38197,1,0,0:0:0:0:
256,52,38397,6,0,B|296:64|304:108|356:120,2,115,8|0|8,0:0|0:0|0:0,0:0:0:0:
184,144,38997,1,0,0:0:0:0:
332,256,39197,2,0,L|280:212,1,57.5,8|0,0:0|0:0,0:0:0:0:
256,188,39397,6,0,B|196:196|196:196|228:124|228:124|124:152|124:152|160:76|160:76|104:32,1,345.000013160706,8|4,0:0|0:0,0:0:0:0:
300,68,39997,6,0,B|344:80|344:80|372:56|372:56|432:72,1,126.500003860474,8|0,0:0|0:0,0:0:0:0:
404,220,40397,2,0,B|352:264|352:264|272:224,1,126.500003860474,8|0,0:0|0:0,0:0:0:0:
216,112,40797,2,8,B|152:136|120:208|120:208|188:336,2,253.000007720947
72,240,41797,5,8,0:0:0:0:
164,80,41997,1,8,0:0:0:0:
252,244,42197,1,8,0:0:0:0:
148,176,42397,2,0,L|276:260,1,125.350001338882,8|0,0:0|0:0,0:0:0:0:
244,128,42797,2,0,B|297:97|297:97|364:104,1,115,8|0,0:0|0:0,0:0:0:0:
320,212,43197,2,0,B|350:265|350:265|344:332,1,115,8|0,0:0|0:0,0:0:0:0:
240,272,43597,2,0,B|186:302|186:302|119:296,1,115,8|0,0:0|0:0,0:0:0:0:
168,188,43997,5,8,0:0:0:0:
304,212,44197,1,8,0:0:0:0:
408,120,44397,1,8,0:0:0:0:
128,116,44597,5,0,2:0:0:0:
284,144,44797,1,8,2:0:0:0:
403,38,44997,1,0,2:0:0:0:
304,212,45197,5,8,0:0:0:0:
264,80,45397,1,0,0:0:0:0:
304,212,45597,5,8,0:0:0:0:
128,116,45797,1,0,0:0:0:0:
176,244,45997,1,8,0:0:0:0:
332,44,46197,1,0,0:0:0:0:
212,208,46397,1,8,0:0:0:0:
332,44,46597,1,0,0:0:0:0:
332,44,46697,1,0,0:0:0:0:
332,44,46797,1,8,0:0:0:0:
384,132,46997,2,4,B|364:184|364:184|320:68|180:112|164:208|236:264,1,345,12|4,0:0|0:0,0:0:0:0:
296,256,48397,6,0,L|272:180,1,57.5,8|0,0:0|0:0,0:0:0:0:
264,152,48597,1,8,0:0:0:0:
172,104,48797,1,8,0:0:0:0:
316,60,48997,1,0,0:0:0:0:
156,212,49197,1,8,0:0:0:0:
396,140,49397,1,0,0:0:0:0:
240,300,49597,1,8,0:0:0:0:
384,260,49797,1,0,0:0:0:0:
236,72,49997,5,8,0:0:0:0:
316,292,50197,1,0,0:0:0:0:
236,72,50397,2,0,L|280:188,1,115,8|0,0:0|0:0,0:0:0:0:
197,196,50797,1,8,0:0:0:0:
224,40,50997,1,0,0:0:0:0:
346,137,51197,1,8,0:0:0:0:
484,52,51397,5,0,0:0:0:0:
320,56,51597,2,0,B|272:72|232:32|180:56,1,126.500003860474,8|0,0:0|0:0,0:0:0:0:
180,60,52197,5,8,0:0:0:0:
132,160,52397,2,2,B|264:212|316:8|496:72,1,379.500011581421,8|0,0:0|0:0,0:0:0:0:
456,244,54197,5,4,0:0:0:0:
300,336,54397,1,8,0:0:0:0:
136,260,54597,1,8,0:0:0:0:
200,172,54797,1,4,0:0:0:0:
248,196,54897,1,4,0:0:0:0:
304,200,54997,1,4,0:0:0:0:
356,180,55097,1,4,0:0:0:0:
396,140,55197,2,4,B|336:104|336:104|232:132|232:132|136:88|136:88|48:88|56:196,1,413.999987365723,0|4,0:0|0:0,0:0:0:0:
128,164,55997,6,4,B|144:268|228:344|228:344|284:248|404:216,1,413.999987365723,0|4,0:0|0:0,0:0:0:0:
280,188,56797,1,8,0:0:0:0:
180,136,56997,1,0,0:0:0:0:
148,32,57197,1,10,0:0:0:0:
324,108,57397,2,2,B|252:88|252:88|232:24,1,137.999995788574,2|10,0:0|0:0,0:0:0:0:
324,28,57797,5,0,0:0:0:0:
128,160,57997,1,8,0:0:0:0:
396,92,58197,1,0,0:0:0:0:
148,32,58397,6,2,P|80:104|96:200,1,172.5,10|2,0:0|0:0,0:0:0:0:
128,160,58797,6,2,P|196:108|316:116,1,206.999993682861,10|2,0:0|0:0,0:0:0:0:
320,164,59197,6,2,P|224:204|184:336,1,241.499992630005,14|2,0:0|0:0,0:0:0:0:
220,340,59597,6,2,B|320:336|320:336|360:204,1,189.750005790711,14|2,0:0|0:0,0:0:0:0:
360,212,59997,1,8,0:0:0:0:
208,124,60197,1,8,0:0:0:0:
372,60,60397,1,8,0:0:0:0:
208,124,60597,1,4,0:0:0:0:
56,208,60997,6,0,L|156:100,2,137.999995788574,0|8|0,0:0|0:0|0:0,0:0:0:0:
149,106,61597,1,12,0:0:0:0:
300,328,61997,1,8,0:0:0:0:
256,112,62197,1,0,0:0:0:0:
296,84,62297,1,0,0:0:0:0:
308,36,62397,1,12,0:0:0:0:
392,144,62597,1,0,0:0:0:0:
240,52,62797,2,0,L|368:132,1,137.999995788574,8|0,0:0|0:0,0:0:0:0:
480,36,63197,5,12,0:0:0:0:
460,144,63597,5,12,0:0:0:0:
352,272,63997,5,12,0:0:0:0:
132,304,64397,5,12,0:0:0:0:
272,144,64797,6,2,B|244:144|244:144|228:120|228:120|224:172|224:172|212:120|212:120|212:172|212:172|196:120|196:120|196:172|196:172|172:144|172:144|116:144,2,368
76,88,65997,5,0,0:0:0:0:
196,48,66197,5,4,0:0:0:0:
248,44,66297,1,0,0:0:0:0:
296,56,66397,1,4,0:0:0:0:
340,84,66497,1,0,0:0:0:0:
372,124,66597,1,4,0:0:0:0:
232,176,66797,6,0,P|288:276|392:276,2,206.999993682861,0|0|4,0:0|0:0|0:0,0:0:0:0:
56,40,67997,6,0,P|128:112|228:92,1,206.999993682861,8|0,0:0|0:0,0:0:0:0:
272,64,68397,2,2,P|328:160|296:208,1,137.999995788574,10|2,0:0|0:0,0:0:0:0:
216,148,68797,2,0,P|236:288|304:304,1,206.999993682861,8|0,0:0|0:0,0:0:0:0:
336,292,69197,2,2,P|304:224|340:176,1,137.999995788574,10|2,0:0|0:0,0:0:0:0:
428,236,69597,2,8,B|452:168|452:168|432:96,1,137.999995788574
280,172,69997,2,8,B|204:172|204:172|116:88,1,137.999995788574
304,52,70397,2,8,B|368:84|368:84|392:156,1,137.999995788574
390,147,70697,1,0,0:0:0:0:
390,147,70797,1,8,0:0:0:0:
276,288,70997,5,4,0:0:0:0:
108,228,71197,2,8,P|80:148|116:80,1,137.999995788574
268,156,71597,2,0,L|196:156,1,68.9999978942872,8|0,0:0|0:0,0:0:0:0:
144,152,71797,2,0,B|184:56|184:56|300:56,1,206.999993682861,8|0,0:0|0:0,0:0:0:0:
360,56,72197,1,8,0:0:0:0:
360,56,72297,1,0,0:0:0:0:
360,56,72397,5,8,0:0:0:0:
412,228,72597,2,8,B|392:264|360:280|360:280|336:256|296:252,1,137.999995788574
240,232,72897,1,0,0:0:0:0:
176,204,72997,2,8,P|188:104|348:80,1,275.999991577149
384,128,73497,1,0,0:0:0:0:
384,128,73597,1,8,0:0:0:0:
452,308,73797,1,4,0:0:0:0:
316,136,73997,1,4,0:0:0:0:
452,308,74197,1,4,0:0:0:0:
232,296,74397,5,2,0:0:0:0:
172,308,74497,1,2,0:0:0:0:
116,284,74597,1,2,0:0:0:0:
80,232,74697,1,2,0:0:0:0:
88,172,74797,2,2,P|164:200|236:152,1,137.999995788574,10|10,0:0|0:0,0:0:0:0:
152,72,75197,1,8,0:0:0:0:
272,44,75397,1,8,0:0:0:0:
384,80,75597,5,8,0:0:0:0:
452,192,75797,1,8,0:0:0:0:
276,156,75997,1,0,0:0:0:0:
452,192,76197,1,8,0:0:0:0:
248,280,76397,1,0,0:0:0:0:
452,192,76597,1,8,0:0:0:0:
248,280,76797,2,2,L|172:312,2,68.9999978942872
44,188,77197,5,4,0:0:0:0:
212,48,77397,1,8,0:0:0:0:
244,268,77597,1,4,0:0:0:0:
309,53,77797,1,8,0:0:0:0:
382,265,77997,1,4,0:0:0:0:
198,136,78197,1,8,0:0:0:0:
422,133,78397,2,0,B|312:180|312:180|272:140|196:164,1,206.999993682861,8|0,0:0|0:0,0:0:0:0:
176,156,78797,6,10,L|96:132,2,68.9999978942872
400,216,79197,2,8,B|396:156|396:156|328:72,1,143.75
296,180,79597,2,8,B|248:136|248:136|136:156,1,149.499993156433
96,172,79897,1,0,0:0:0:0:
60,236,79997,2,8,B|88:288|88:288|188:304,1,143.75
316,276,80397,2,10,L|244:288,2,71.875
444,148,80797,6,0,P|404:72|312:72,1,137.999995788574,8|0,0:0|0:0,0:0:0:0:
358,58,81097,1,0,0:0:0:0:
358,58,81197,1,8,0:0:0:0:
288,224,81397,2,0,B|220:224|220:224|168:152,3,137.999995788574,0|8|0|8,0:0|0:0|0:0|0:0,0:0:0:0:
392,116,82197,2,8,L|268:44,1,137.999995788574,8|8,0:0|0:0,0:0:0:0:
244,264,82597,2,8,L|312:136,1,137.999995788574
448,316,82997,2,8,L|308:236,1,137.999995788574
492,100,83397,2,0,L|456:180,1,68.9999978942872,8|0,0:0|0:0,0:0:0:0:
432,232,83597,1,8,0:0:0:0:
492,100,83797,2,10,L|412:60,2,68.9999978942872
208,154,84397,5,0,0:0:0:0:
212,316,84597,2,2,B|304:216|304:216|324:220|324:220|300:200|300:200|316:204|316:204|404:112,1,275.999991577149
212,316,85197,1,4,0:0:0:0:
100,196,85397,2,2,B|200:236|256:60|360:112,1,275.999991577149
144,116,85997,2,2,B|88:100|88:32|40:24,1,137.999995788574,6|2,0:0|0:0,0:0:0:0:
312,196,86397,2,2,B|364:212|368:276|440:288,1,137.999995788574,6|2,0:0|0:0,0:0:0:0:
252,308,86797,5,8,0:0:0:0:
136,60,86997,1,8,0:0:0:0:
404,124,87197,1,0,0:0:0:0:
288,164,87397,1,0,0:0:0:0:
504,44,87597,1,8,0:0:0:0:
460,288,87797,1,8,0:0:0:0:
356,200,87997,2,10,P|304:240|212:176,1,137.999995788574
284,92,88397,5,8,0:0:0:0:
296,368,88597,1,8,0:0:0:0:
84,188,88797,1,0,0:0:0:0:
180,132,88997,1,0,0:0:0:0:
316,248,89197,1,8,0:0:0:0:
388,24,89397,1,8,0:0:0:0:
480,296,89597,2,10,L|440:212,2,68.9999978942872
472,60,89997,6,8,P|408:116|352:112,1,137.999995788574
128,84,90397,2,2,P|44:112|20:160,1,137.999995788574
176,332,90797,2,8,P|132:288|160:200,1,137.999995788574
376,220,91197,2,8,L|304:244,2,68.9999978942872
488,12,91597,1,4,0:0:0:0:
288,132,91797,1,4,0:0:0:0:
384,76,91997,5,2,0:0:0:0:
164,68,92397,5,4,0:0:0:0:
396,304,92797,5,4,0:0:0:0:
40,44,93197,5,8,0:0:0:0:
256,92,93397,6,2,L|340:116,1,68.9999978942872
428,140,93597,2,0,P|380:212|208:160,1,275.999991577149,0|8,0:0|0:0,0:0:0:0:
188,136,94097,1,0,0:0:0:0:
144,116,94197,1,0,0:0:0:0:
96,120,94297,1,0,0:0:0:0:
64,156,94397,1,8,0:0:0:0:
60,204,94497,1,0,0:0:0:0:
80,248,94597,1,0,0:0:0:0:
124,264,94697,1,0,0:0:0:0:
172,252,94797,1,8,0:0:0:0:
200,212,94897,1,0,0:0:0:0:
220,168,94997,1,0,0:0:0:0:
256,136,95097,1,0,0:0:0:0:
296,108,95197,6,0,P|336:96|376:100,3,68.9999978942872,8|0|0|0,0:0|0:0|0:0|0:0,0:0:0:0:
408,112,95597,1,8,0:0:0:0:
444,144,95697,1,0,0:0:0:0:
460,192,95797,1,0,0:0:0:0:
448,240,95897,1,0,0:0:0:0:
424,280,95997,2,0,P|368:296|332:276,4,68.9999978942872,8|0|0|0|8,0:0|0:0|0:0|0:0|0:0,0:0:0:0:
348,196,96597,6,2,P|200:280|316:96,1,551.999983154297,14|2,0:0|0:0,0:0:0:0:
256,192,99397,6,0,L|256:108,1,68.9999978942872
256,192,99597,12,0,102797,0:0:0:0:
68,160,102997,5,4,0:0:0:0:
224,276,103197,2,0,P|260:216|264:160,2,115,8|0|8,0:0|0:0|0:0,0:0:0:0:
392,176,103797,2,8,P|388:96|336:48,2,115,4|0|0,0:0|0:0|0:0,0:0:0:0:
196,164,104397,2,8,L|320:144,1,115,8|0,0:0|0:0,0:0:0:0:
256,192,104797,12,4,106397,0:0:0:0:
52,320,118597,5,2,0:0:0:0:
124,188,118797,1,8,0:0:0:0:
272,188,118997,1,8,0:0:0:0:
204,320,119197,2,2,P|288:352|344:328,1,115,10|2,0:0|0:0,0:0:0:0:
284,236,119597,2,8,P|360:192|372:144,1,115
260,136,119997,2,2,P|276:72|248:32,1,115,10|2,0:0|0:0,0:0:0:0:
360,184,120397,2,8,P|344:248|372:288,1,115
200,212,120797,6,2,P|140:184|80:212,1,115,10|2,0:0|0:0,0:0:0:0:
311,171,121197,2,8,P|361:199|415:186,1,115
256,280,121597,1,2,0:0:0:0:
200,116,121797,1,8,0:0:0:0:
256,280,121997,1,10,0:0:0:0:
312,36,122197,1,8,0:0:0:0:
128,60,122397,2,2,P|80:104|68:172,1,115,14|0,0:0|0:0,0:0:0:0:
248,188,122797,1,8,0:0:0:0:
248,188,122997,1,8,0:0:0:0:
412,100,123197,1,8,0:0:0:0:
372,280,123397,2,2,P|428:212|424:160,1,115,2|10,0:0|0:0,0:0:0:0:
336,200,123797,2,4,B|296:240|200:260|200:260|224:232|240:180|240:180|168:208|120:144,1,345,4|12,0:0|0:0,0:0:0:0:
60,120,125397,5,0,0:0:0:0:
236,72,125597,1,10,0:0:0:0:
252,104,125797,1,2,0:0:0:0:
272,132,125997,2,2,L|336:240,1,115,10|2,0:0|0:0,0:0:0:0:
316,36,126397,2,10,L|380:144,1,115
464,308,126797,6,0,B|396:340|396:340|336:324,1,115,8|0,0:0|0:0,0:0:0:0:
464,308,127197,1,8,0:0:0:0:
348,232,127397,1,8,0:0:0:0:
220,284,127597,2,0,B|156:312|156:312|84:276,1,115,8|0,0:0|0:0,0:0:0:0:
216,136,127997,2,10,B|280:108|280:108|352:144,1,115
364,308,128397,2,2,B|428:336|428:336|500:300,1,115,10|2,0:0|0:0,0:0:0:0:
496,288,128697,1,2,0:0:0:0:
476,252,128797,2,0,L|428:192,1,57.5,8|0,0:0|0:0,0:0:0:0:
416,176,128997,2,0,B|296:188|296:188|220:112|220:112|96:124,1,345,8|4,0:0|0:0,0:0:0:0:
103,123,130397,5,10,0:0:0:0:
148,216,130597,1,0,0:0:0:0:
244,252,130797,1,8,0:0:0:0:
224,128,130997,6,2,P|272:92|324:96,1,103.499996841431
364,112,131397,5,6,0:0:0:0:
424,216,131597,1,8,0:0:0:0:
356,316,131797,1,8,0:0:0:0:
200,220,131997,2,2,P|252:176|308:184,1,120.749996315003,10|2,0:0|0:0,0:0:0:0:
112,128,132397,2,0,P|69:168|10:167,1,120.749996315003,10|2,0:0|0:0,0:0:0:0:
108,228,132797,2,2,P|151:280|144:336,1,120.749996315003,8|0,0:0|0:0,0:0:0:0:
200,120,133197,2,0,P|159:77|160:18,1,120.749996315003,8|0,0:0|0:0,0:0:0:0:
384,276,133597,6,8,P|436:224|496:224,1,126.500003860474
308,120,133997,2,8,P|256:172|196:172,1,126.500003860474,8|0,0:0|0:0,0:0:0:0:
384,276,134397,1,10,0:0:0:0:
308,120,134597,1,2,0:0:0:0:
384,276,134797,1,8,0:0:0:0:
404,60,134897,1,8,0:0:0:0:
296,100,135197,1,8,0:0:0:0:
192,52,135397,1,8,0:0:0:0:
92,108,135597,1,10,0:0:0:0:
188,168,135797,2,0,B|248:200|248:200|352:168,1,126.500003860474,0|8,0:0|0:0,0:0:0:0:
303,182,136097,1,0,0:0:0:0:
303,182,136197,1,0,0:0:0:0:
303,182,136297,1,0,0:0:0:0:
303,182,136397,2,0,L|360:212,1,63.2500019302369,8|0,0:0|0:0,0:0:0:0:
408,232,136597,2,0,P|260:328|88:208,1,379.500011581421,8|0,0:0|0:0,0:0:0:0:
464,116,138197,5,0,0:0:0:0:
368,44,138397,1,4,0:0:0:0:
276,120,138597,1,0,0:0:0:0:
276,120,138697,1,0,0:0:0:0:
276,120,138797,1,0,0:0:0:0:
276,120,138897,1,0,0:0:0:0:
276,120,138997,2,0,L|172:48,1,120.749996315003,0|8,0:0|0:0,0:0:0:0:
116,184,139397,1,8,0:0:0:0:
232,272,139597,1,8,0:0:0:0:
360,200,139797,1,8,0:0:0:0:
336,56,139997,6,2,P|392:24|460:36,1,120.749996315003,10|2,0:0|0:0,0:0:0:0:
392,216,140397,2,8,P|424:160|404:108,1,120.749996315003,8|0,0:0|0:0,0:0:0:0:
336,56,140797,1,8,0:0:0:0:
392,216,140997,1,8,0:0:0:0:
240,96,141197,1,8,0:0:0:0:
392,216,141397,1,0,0:0:0:0:
176,196,141597,2,2,L|252:204,1,60.3749981575013,10|2,0:0|0:0,0:0:0:0:
344,212,141797,2,0,B|336:108|244:96|244:96|300:72|312:44|312:44|384:68|388:140,1,362.249988945008,8|0,0:0|0:0,0:0:0:0:
56,88,143797,5,2,0:0:0:0:
152,44,143997,1,10,0:0:0:0:
244,96,144197,1,8,0:0:0:0:
152,144,144397,2,0,L|152:292,1,132.250002522469,8|0,0:0|0:0,0:0:0:0:
236,212,144797,2,0,P|344:244|296:48,1,396.750007567406,12|0,0:0|0:0,0:0:0:0:
312,152,145597,2,0,P|176:120|216:316,1,396.750007567406,12|0,0:0|0:0,0:0:0:0:
236,212,146397,1,12,0:0:0:0:
64,108,146797,1,12,0:0:0:0:
220,80,146997,2,10,L|364:44,1,132.250002522469
404,196,147397,5,0,0:0:0:0:
304,320,147597,1,8,0:0:0:0:
144,312,147797,1,8,0:0:0:0:
252,196,147997,6,2,P|184:232|96:216,1,132.250002522469,10|2,0:0|0:0,0:0:0:0:
176,140,148397,2,2,P|236:100|304:112,1,137.999995788574,10|2,0:0|0:0,0:0:0:0:
252,196,148797,2,2,P|312:248|304:328,1,143.75,8|0,0:0|0:0,0:0:0:0:
220,280,149197,2,2,P|204:348|124:364,1,149.499993156433,8|0,0:0|0:0,0:0:0:0:
128,280,149597,5,12,0:0:0:0:
140,160,149797,1,0,0:0:0:0:
256,68,149997,1,8,0:0:0:0:
432,44,150197,1,8,0:0:0:0:
376,344,150597,6,2,P|288:348|244:308,1,126.500003860474,2|10,0:0|0:0,0:0:0:0:
332,240,150997,1,0,0:0:0:0:
200,168,151197,1,12,0:0:0:0:
352,76,151597,6,0,P|432:92|472:140,1,126.500003860474,8|0,0:0|0:0,0:0:0:0:
376,164,151997,2,0,P|416:232|392:304,1,126.500003860474,8|0,0:0|0:0,0:0:0:0:
264,232,152397,2,0,L|112:232,1,126.500003860474,8|0,0:0|0:0,0:0:0:0:
68,96,152797,6,0,P|124:56|192:64,1,126.500003860474,14|2,0:0|0:0,0:0:0:0:
236,228,153197,2,0,P|173:199|146:136,1,126.500003860474,12|2,0:0|0:0,0:0:0:0:
268,20,153597,2,0,P|274:88|233:143,1,126.500003860474,12|2,0:0|0:0,0:0:0:0:
408,68,153997,6,0,P|448:123|440:192,1,126.500003860474,12|2,0:0|0:0,0:0:0:0:
275,236,154397,2,0,P|303:173|366:146,1,126.500003860474,12|2,0:0|0:0,0:0:0:0:
483,268,154797,2,0,P|414:274|359:233,1,126.500003860474,12|2,0:0|0:0,0:0:0:0:
240,124,155197,6,0,P|152:148|104:120,2,126.500003860474,8|0|8,0:0|0:0|0:0,0:0:0:0:
280,104,155697,1,2,0:0:0:0:
304,64,155797,1,2,0:0:0:0:
340,236,155997,2,2,P|344:156|328:108,1,126.500003860474,10|2,0:0|0:0,0:0:0:0:
244,188,156397,6,10,P|164:216|80:148,2,184,0|0|4,0:0|0:0|0:0,0:0:0:0:
460,48,157597,6,2,P|416:104|348:104,1,115,10|2,0:0|0:0,0:0:0:0:
228,96,157997,1,8,0:0:0:0:
84,128,158197,2,2,P|24:196|40:256,1,115,2|10,0:0|0:0,0:0:0:0:
172,228,158597,1,0,0:0:0:0:
312,284,158797,1,8,0:0:0:0:
236,156,158997,2,10,P|360:180|416:80,1,230
308,72,159597,2,10,P|248:32|168:56,1,115,10|2,0:0|0:0,0:0:0:0:
236,156,159997,2,10,P|172:192|112:176,1,115,10|2,0:0|0:0,0:0:0:0:
148,40,160397,1,8,0:0:0:0:
308,72,160597,1,12,0:0:0:0:
416,192,160797,6,2,P|384:256|316:272,1,115,10|2,0:0|0:0,0:0:0:0:
272,128,161197,1,8,0:0:0:0:
196,268,161397,2,8,P|116:196|116:80,1,230,2|12,0:0|0:0,0:0:0:0:
272,128,161997,1,8,0:0:0:0:
296,288,162197,2,0,P|344:244|240:132,1,230,8|0,0:0|0:0,0:0:0:0:
256,212,162797,1,8,0:0:0:0:
256,212,162997,1,0,0:0:0:0:
116,132,163197,2,2,P|152:76|216:60,1,115,10|2,0:0|0:0,0:0:0:0:
208,156,163597,2,2,P|300:160|328:136,1,115,10|6,0:0|0:0,0:0:0:0:
468,48,163997,5,8,0:0:0:0:
396,216,164197,1,2,0:0:0:0:
320,48,164397,1,8,0:0:0:0:
244,216,164597,1,2,0:0:0:0:
468,48,164797,1,2,0:0:0:0:
324,160,164997,1,10,0:0:0:0:
284,188,165097,1,0,0:0:0:0:
244,216,165197,1,8,0:0:0:0:
392,108,165397,1,4,0:0:0:0:
436,288,165597,5,8,0:0:0:0:
244,320,165797,1,2,0:0:0:0:
68,232,165997,1,8,0:0:0:0:
72,36,166197,1,2,0:0:0:0:
228,156,166397,2,8,L|288:112,2,57.5,8|0|12,0:0|0:0|0:0,0:0:0:0:
448,76,166797,5,8,0:0:0:0:
396,276,166997,1,8,0:0:0:0:
196,332,167197,1,8,0:0:0:0:
40,200,167397,1,8,0:0:0:0:
264,236,167597,1,4,0:0:0:0:
180,48,167797,1,10,0:0:0:0:
200,92,167897,1,0,0:0:0:0:
220,136,167997,1,8,0:0:0:0:
264,236,168197,5,2,0:0:0:0:
300,32,168397,2,2,L|440:76,1,137.999995788574,10|2,0:0|0:0,0:0:0:0:
220,136,168797,2,2,L|292:300,1,137.999995788574,10|2,0:0|0:0,0:0:0:0:
84,96,169197,2,8,L|8:216,1,137.999995788574,8|8,0:0|0:0,0:0:0:0:
244,32,169597,2,10,P|192:80|104:36,2,137.999995788574
472,308,170397,6,2,P|380:340|336:320,1,137.999995788574,10|2,0:0|0:0,0:0:0:0:
204,272,170797,1,8,0:0:0:0:
168,140,170997,2,8,B|244:124|300:176|300:176|448:92,1,275.999991577149,8|0,0:0|0:0,0:0:0:0:
415,110,171497,1,0,0:0:0:0:
415,110,171597,1,8,0:0:0:0:
284,68,171797,6,10,B|208:24|120:44|120:44|68:80|64:180,1,275.999991577149
148,248,172397,2,8,P|192:188|152:128,1,137.999995788574
36,176,172797,1,8,0:0:0:0:
188,240,172997,1,2,0:0:0:0:
300,116,173197,1,8,0:0:0:0:
432,216,173397,2,0,P|368:276|280:268,1,137.999995788574,0|12,0:0|0:0,0:0:0:0:
80,56,173997,5,8,0:0:0:0:
216,56,174197,2,10,B|208:136|132:172|132:172|136:252|240:272,1,275.999991577149
340,296,174797,1,8,0:0:0:0:
384,164,174997,2,2,P|352:92|280:60,1,137.999995788574,2|10,0:0|0:0,0:0:0:0:
252,192,175397,2,2,P|176:232|100:208,1,137.999995788574,2|10,0:0|0:0,0:0:0:0:
168,92,175797,1,4,0:0:0:0:
284,84,175997,6,0,P|324:168|352:176,1,92,8|0,0:0|0:0,0:0:0:0:
368,92,176397,2,0,P|408:116|448:104,1,86.2500032901765,8|0,0:0|0:0,0:0:0:0:
376,228,176797,5,8,0:0:0:0:
220,116,176997,1,2,0:0:0:0:
376,228,177197,1,8,0:0:0:0:
156,228,177397,1,2,0:0:0:0:
376,228,177597,1,4,0:0:0:0:
164,360,177797,1,2,0:0:0:0:
204,336,177897,1,2,0:0:0:0:
244,308,177997,1,2,0:0:0:0:
72,172,178197,5,0,0:0:0:0:
256,296,178397,1,8,0:0:0:0:
138,178,178597,1,8,0:0:0:0:
256,61,178797,1,8,0:0:0:0:
372,178,178997,1,8,0:0:0:0:
98,178,179197,2,2,L|176:176,2,68.9999978942872
64,40,179597,5,8,0:0:0:0:
284,72,179797,1,8,0:0:0:0:
400,260,179997,1,4,0:0:0:0:
448,44,180197,1,4,0:0:0:0:
288,196,180397,1,8,0:0:0:0:
228,228,180497,1,8,0:0:0:0:
160,212,180597,1,8,0:0:0:0:
216,84,180797,2,8,L|228:244,1,137.999995788574
296,320,181197,2,8,P|200:348|144:292,1,137.999995788574
360,216,181597,5,4,0:0:0:0:
360,216,181797,1,8,0:0:0:0:
104,76,181997,1,4,0:0:0:0:
104,76,182197,1,8,0:0:0:0:
140,256,182397,1,4,0:0:0:0:
140,256,182597,1,8,0:0:0:0:
288,92,182797,2,0,P|276:208|120:248,1,275.999991577149,0|4,0:0|0:0,0:0:0:0:
460,52,183597,5,8,0:0:0:0:
384,112,183797,1,2,0:0:0:0:
300,300,183997,1,8,0:0:0:0:
224,240,184197,1,2,0:0:0:0:
140,52,184397,1,8,0:0:0:0:
64,112,184597,1,2,0:0:0:0:
80,320,184797,6,2,P|152:340|216:308,1,137.999995788574,8|2,0:0|0:0,0:0:0:0:
132,124,185197,2,2,P|208:72|272:80,1,137.999995788574,8|2,0:0|0:0,0:0:0:0:
376,240,185597,2,2,P|284:236|224:168,1,137.999995788574,8|2,0:0|0:0,0:0:0:0:
332,20,185997,2,2,P|344:120|316:176,1,137.999995788574,8|2,0:0|0:0,0:0:0:0:
124,140,186397,2,0,P|208:100|284:108,2,137.999995788574,8|0|8,0:0|0:0|0:0,0:0:0:0:
252,304,186997,1,8,0:0:0:0:
368,132,187197,2,8,P|264:208|124:136,1,275.999991577149
248,96,187797,5,4,0:0:0:0:
248,96,187997,2,2,L|248:256,1,137.999995788574,8|2,0:0|0:0,0:0:0:0:
248,96,188397,2,2,B|316:116|316:116|416:88,1,137.999995788574,8|2,0:0|0:0,0:0:0:0:
248,96,188797,2,2,B|180:116|180:116|80:88,1,137.999995788574,8|2,0:0|0:0,0:0:0:0:
248,96,189197,1,12,0:0:0:0:
248,304,189397,2,0,L|248:144,1,137.999995788574,0|4,0:0|0:0,0:0:0:0:
464,80,189997,6,0,B|404:36|404:36|320:36,1,137.999995788574,8|0,0:0|0:0,0:0:0:0:
288,236,190397,2,0,B|348:196|348:196|376:128,1,137.999995788574,8|0,0:0|0:0,0:0:0:0:
324,76,190697,1,0,0:0:0:0:
324,76,190797,1,8,0:0:0:0:
176,224,190997,2,10,P|84:184|92:108,1,137.999995788574
184,112,191397,1,8,0:0:0:0:
312,192,191597,1,8,0:0:0:0:
432,96,191797,5,4,0:0:0:0:
372,60,191897,1,4,0:0:0:0:
304,40,191997,2,2,B|240:72|240:72|152:72,1,137.999995788574,12|0,0:0|0:0,0:0:0:0:
244,192,192397,2,2,B|316:192|316:192|392:232,1,137.999995788574,10|2,0:0|0:0,0:0:0:0:
288,316,192797,6,0,B|216:324|216:324|140:284,1,126.500003860474,8|0,0:0|0:0,0:0:0:0:
64,224,193197,2,0,B|88:164|88:164|168:116,1,126.500003860474,8|8,0:0|0:0,0:0:0:0:
196,248,193597,1,0,0:0:0:0:
308,276,193797,1,0,0:0:0:0:
404,216,193997,1,8,0:0:0:0:
436,108,194197,2,2,B|376:92|320:132|320:132|272:120|232:68|232:68|168:128|82:105|82:105|24:144|24:232,1,506.000015441895
320,304,195797,5,8,0:0:0:0:
220,280,195997,2,2,P|148:288|104:256,1,115,10|10,0:0|0:0,0:0:0:0:
180,188,196397,1,12,0:0:0:0:
284,172,196597,2,0,P|300:96|372:60,2,115,0|8|0,0:0|0:0|0:0,0:0:0:0:
308,220,197097,1,0,0:0:0:0:
360,224,197197,2,2,L|424:176,19,57.5
256,192,199197,12,0,200597,0:0:0:0:
52,64,200797,6,0,P|120:124|248:76,1,206.999993682861,8|0,0:0|0:0,0:0:0:0:
284,76,201197,2,2,P|340:156|320:220,1,137.999995788574,10|2,0:0|0:0,0:0:0:0:
212,168,201597,2,0,P|232:296|344:300,1,206.999993682861,8|0,0:0|0:0,0:0:0:0:
348,292,201997,2,2,P|324:224|360:168,1,137.999995788574,10|2,0:0|0:0,0:0:0:0:
355,171,202297,1,0,0:0:0:0:
355,171,202397,2,2,P|260:164|212:100,1,137.999995788574,10|2,0:0|0:0,0:0:0:0:
324,52,202797,2,2,P|420:72|456:112,1,137.999995788574,10|2,0:0|0:0,0:0:0:0:
272,236,203197,2,8,P|324:188|364:124,1,137.999995788574
148,64,203597,5,8,0:0:0:0:
148,64,203797,1,8,0:0:0:0:
176,284,203997,2,2,P|288:300|328:248,1,137.999995788574,10|2,0:0|0:0,0:0:0:0:
244,200,204397,2,2,P|312:156|308:92,1,137.999995788574,10|2,0:0|0:0,0:0:0:0:
284,56,204697,1,0,0:0:0:0:
340,48,204797,1,8,0:0:0:0:
392,68,204897,1,0,0:0:0:0:
428,108,204997,1,0,0:0:0:0:
324,168,205197,5,8,0:0:0:0:
388,256,205397,2,0,P|284:268|216:184,1,206.999993682861,10|0,0:0|0:0,0:0:0:0:
216,144,205797,2,2,P|328:168|376:136,1,137.999995788574,10|10,0:0|0:0,0:0:0:0:
436,100,206197,1,8,0:0:0:0:
496,192,206397,2,2,P|440:276|372:292,1,137.999995788574,10|2,0:0|0:0,0:0:0:0:
392,180,206797,2,2,P|364:104|312:80,1,137.999995788574,10|2,0:0|0:0,0:0:0:0:
208,52,207197,5,8,0:0:0:0:
52,212,207397,1,0,0:0:0:0:
272,216,207597,1,8,0:0:0:0:
52,212,207797,1,0,0:0:0:0:
204,372,207997,1,8,0:0:0:0:
220,152,208197,1,8,0:0:0:0:
192,216,208297,1,8,0:0:0:0:
220,280,208397,1,0,0:0:0:0:
344,220,208597,5,8,0:0:0:0:
380,180,208697,1,0,0:0:0:0:
348,132,208797,1,8,0:0:0:0:
292,132,208897,1,0,0:0:0:0:
272,184,208997,1,8,0:0:0:0:
452,312,209197,1,8,0:0:0:0:
232,340,209397,1,8,0:0:0:0:
72,188,209597,2,0,L|56:116,2,68.9999978942872
252,60,209997,5,10,0:0:0:0:
404,48,210197,1,10,0:0:0:0:
232,140,210397,5,8,0:0:0:0:
368,205,210597,1,0,0:0:0:0:
176,208,210797,6,2,L|248:336,1,137.999995788574,10|2,0:0|0:0,0:0:0:0:
288,140,211197,2,2,P|212:72|128:68,1,137.999995788574,10|2,0:0|0:0,0:0:0:0:
176,208,211597,1,8,0:0:0:0:
176,208,211797,1,8,0:0:0:0:
340,188,211997,2,2,B|412:160|412:160|452:80,1,137.999995788574,10|2,0:0|0:0,0:0:0:0:
276,80,212397,2,2,B|208:56|208:56|100:88,1,137.999995788574,10|2,0:0|0:0,0:0:0:0:
88,112,212697,1,0,0:0:0:0:
76,180,212797,2,0,B|96:252|96:252|176:308,1,137.999995788574,8|0,0:0|0:0,0:0:0:0:
212,168,213197,2,8,L|152:212,2,68.9999978942872,8|0|8,0:0|0:0|0:0,0:0:0:0:
272,292,213597,6,0,P|352:316|416:284,1,137.999995788574,8|0,0:0|0:0,0:0:0:0:
336,176,213997,1,8,0:0:0:0:
216,104,214197,2,2,P|344:44|472:132,1,275.999991577149,10|2,0:0|0:0,0:0:0:0:
336,176,214797,1,8,0:0:0:0:
200,268,214997,2,0,B|128:268|128:268|80:216,1,137.999995788574,0|8,0:0|0:0,0:0:0:0:
264,88,215397,2,0,P|368:72|416:96,2,137.999995788574,0|8|0,0:0|0:0|0:0,0:0:0:0:
300,272,215997,2,8,L|344:196,2,68.9999978942872,8|0|8,0:0|0:0|0:0,0:0:0:0:
144,328,216397,5,8,0:0:0:0:
36,136,216597,1,0,0:0:0:0:
96,156,216697,1,0,0:0:0:0:
156,136,216797,1,8,0:0:0:0:
380,32,217197,5,12,0:0:0:0:
224,88,217397,2,8,P|324:132|264:280,1,275.999991577149
224,192,217997,1,8,0:0:0:0:
120,232,218197,2,8,P|128:140|320:136,1,275.999991577149,0|0,0:0|0:0,0:0:0:0:
300,264,218797,2,0,L|180:152,1,137.999995788574,8|0,0:0|0:0,0:0:0:0:
368,256,219197,2,0,P|340:316|248:308,1,137.999995788574,8|0,0:0|0:0,0:0:0:0:
108,340,219597,5,8,0:0:0:0:
92,148,219797,1,8,0:0:0:0:
252,40,219997,1,0,0:0:0:0:
428,120,220197,1,0,0:0:0:0:
264,220,220397,1,0,0:0:0:0:
148,64,220597,1,0,0:0:0:0:
180,108,220697,1,0,0:0:0:0:
212,156,220797,2,0,L|316:288,1,137.999995788574,0|4,0:0|0:0,0:0:0:0:
436,92,221197,5,2,0:0:0:0:
320,280,221397,1,8,0:0:0:0:
104,324,221597,1,8,0:0:0:0:
32,116,221797,1,2,0:0:0:0:
212,228,221997,1,8,0:0:0:0:
348,196,222197,1,8,0:0:0:0:
344,60,222397,1,8,0:0:0:0:
68,52,222797,6,2,P|48:120|64:192,1,137.999995788574
280,204,223197,2,2,P|208:136|132:132,1,137.999995788574
148,280,223597,1,0,0:0:0:0:
148,280,223797,1,0,0:0:0:0:
360,212,223997,2,8,P|392:136|352:68,1,137.999995788574
280,144,224397,2,8,P|204:168|140:140,1,137.999995788574
216,64,224797,6,2,P|292:36|376:52,1,143.75
296,140,225197,2,8,P|368:192|380:284,1,149.499993156433
272,252,225597,2,2,P|232:328|140:352,1,155.250000592232
160,236,225997,2,8,P|76:240|16:180,1,149.499993156433
27,201,226297,1,8,0:0:0:0:
27,201,226397,2,2,P|128:164|136:92,1,143.75
296,68,226797,2,0,L|356:40,39,47.9166666666667
264,228,229597,6,0,P|176:232|128:172,1,160.99999508667
200,248,232197,6,0,L|264:196,1,57.5
256,192,232397,12,0,235797,0:0:0:0:
56,116,235997,5,8,0:0:0:0:
332,132,236397,1,8,0:0:0:0:
248,240,236597,1,4,0:0:0:0:
64,40,237197,1,8,0:0:0:0:
340,64,237597,1,8,0:0:0:0:
400,192,237997,1,8,0:0:0:0:
184,152,238197,2,4,P|272:224|376:160,1,230
280,120,238797,6,0,L|256:236,1,115,8|0,0:0|0:0,0:0:0:0:
280,120,239197,2,4,P|140:52|80:116,1,230
180,196,239797,5,2,0:0:0:0:
200,216,239897,5,2,0:0:0:0:
224,232,239997,5,2,0:0:0:0:
348,152,240197,5,2,0:0:0:0:
348,152,240397,1,12,0:0:0:0:
192,120,240797,6,0,P|272:72|344:80,1,160.99999508667
