osu file format v13

[General]
AudioFilename: 02 .mp3
AudioLeadIn: 0
PreviewTime: 68007
Countdown: 1
SampleSet: Soft
StackLeniency: 0.7
Mode: 0
LetterboxInBreaks: 1
WidescreenStoryboard: 1

[Editor]
DistanceSpacing: 1.5
BeatDivisor: 2
GridSize: 8
TimelineZoom: 1

[Metadata]
Title:Genjitsu Toyuu Na No Kaibutsu To Tatakau Mono Tachi
TitleUnicode:現実という名の怪物と戦う者たち
Artist:Takahashi Yu
ArtistUnicode:高橋優
Creator:shaoshengss
Version:Normal
Source:BAKUMAN
Tags:高橋優
BeatmapID:558663
BeatmapSetID:182722

[Difficulty]
HPDrainRate:4
CircleSize:3
OverallDifficulty:3
ApproachRate:4
SliderMultiplier:1
SliderTickRate:2

[Events]
//Background and Video events
0,0,"32761195.jpg",0,0
//Break Periods
2,13796,27677
2,106597,117277
//Storyboard Layer 0 (Background)
//Storyboard Layer 1 (Fail)
//Storyboard Layer 2 (Pass)
//Storyboard Layer 3 (Foreground)
//Storyboard Sound Samples
//Background Colour Transformations
3,100,163,162,255

[TimingPoints]
797.368018224355,400,4,2,1,30,1,0
2397,-100,4,2,1,35,0,0
3997,-100,4,2,1,40,0,0
5597,-100,4,2,1,45,0,0
7197,-100,4,2,1,50,0,0
8797,-100,4,2,1,55,0,0
28997,-100,4,2,2,60,0,0
66797,-100,4,1,2,60,0,0
67997,-100,4,3,0,60,0,1
106397,-100,4,2,2,60,0,0
156397,-100,4,1,0,60,0,0
157597,-100,4,3,0,65,0,1
241597,-100,4,3,0,65,0,0

[HitObjects]
56,56,797,6,0,B|104:80|168:84|168:84|228:136|228:136|280:144|340:168,1,300,8|0,0:0|0:0,0:0:0:0:
256,32,2397,2,0,P|312:40|392:72,1,100
496,104,3197,1,8,0:0:0:0:
392,216,3597,2,0,L|372:272,1,50
328,328,3997,6,0,B|288:328|256:264|256:264|216:232|168:248|168:248|136:200|176:144,1,300,8|0,0:0|0:0,0:0:0:0:
320,168,5597,2,0,B|344:168|368:200|368:200|432:200,1,100,8|0,0:0|0:0,0:0:0:0:
448,56,6397,1,8,0:0:0:0:
296,56,6797,2,8,L|368:56,1,50,8|8,0:0|0:0,0:0:0:0:
344,128,7197,6,0,B|228:128|228:128|200:112|164:104|164:104|96:136|32:104,1,300,8|0,0:0|0:0,0:0:0:0:
160,216,8797,2,0,B|184:224|208:240|208:240|272:240,1,100,8|0,0:0|0:0,0:0:0:0:
408,240,9597,1,8,0:0:0:0:
440,96,9997,2,8,L|400:56,1,50
344,104,10397,6,0,B|312:96|296:64|296:64|256:72|216:64|216:64|224:120|208:152|208:152|125:221,1,300
72,72,11997,1,8,0:0:0:0:
159,194,12397,2,0,B|200:248|200:248|240:248|272:264|272:264|352:248|352:248|392:256|440:312,1,300
460,44,28997,6,0,L|336:92,1,100
296,104,29597,1,12,0:0:0:0:
156,160,29997,1,0,0:0:0:0:
296,216,30397,1,0,0:0:0:0:
156,272,30797,1,8,0:0:0:0:
196,128,31197,6,0,B|236:156|236:156|300:156,1,100,0|8,0:0|0:0,0:0:0:0:
384,44,31997,2,0,B|440:44|440:44|508:76,1,100,0|8,0:0|0:0,0:0:0:0:
412,196,32797,2,0,B|412:252|412:252|388:296,1,100,0|8,0:0|0:0,0:0:0:0:
256,220,33597,1,0,0:0:0:0:
256,220,33997,1,8,0:0:0:0:
384,140,34397,2,0,B|360:88|296:56|296:56|232:56|184:88|184:88|152:80|120:56,1,300,4|0,0:0|0:0,0:0:0:0:
96,208,35997,6,0,B|116:220|148:232|148:232|200:232,1,100,8|0,0:0|0:0,0:0:0:0:
344,232,36797,1,8,0:0:0:0:
272,104,37197,1,0,0:0:0:0:
420,104,37597,1,8,0:0:0:0:
448,248,37997,2,0,P|456:304|448:376,2,100,8|0|8,0:0|0:0|0:0,0:0:0:0:
312,176,39197,2,0,B|232:176|196:216|196:216|144:200|104:208|104:208|55:248|0:240,1,300,4|0,0:0|0:0,0:0:0:0:
32,88,40797,2,0,B|76:60|76:60|152:60,2,100,8|0|8,0:0|0:0|0:0,0:0:0:0:
48,160,41797,6,0,L|72:212,2,50,0|0|0,0:0|0:0|0:0,0:0:0:0:
120,160,42397,1,12,0:0:0:0:
240,72,42797,2,0,B|296:72|296:72|364:108,1,100,0|8,0:0|0:0,0:0:0:0:
464,168,43597,1,0,0:0:0:0:
344,244,43997,2,0,B|292:264|292:264|232:264,1,100,8|0,0:0|0:0,0:0:0:0:
96,264,44797,2,0,B|144:240|144:240|208:240,1,100,8|0,0:0|0:0,0:0:0:0:
184,88,45597,5,8,0:0:0:0:
328,120,45997,1,0,0:0:0:0:
184,168,46397,1,8,0:0:0:0:
328,200,46797,1,0,0:0:0:0:
456,120,47197,2,0,B|416:80|400:48|400:48|344:80|288:48|288:48|256:96|216:128,1,300,12|0,0:0|0:0,0:0:0:0:
344,208,48797,6,0,L|392:248,2,50,4|0|0,0:0|0:0|0:0,0:0:0:0:
200,168,49597,1,8,0:0:0:0:
312,272,49997,1,0,0:0:0:0:
424,168,50397,2,0,L|488:168,2,50,12|0|0,0:0|0:0|0:0,0:0:0:0:
272,168,51197,1,8,0:0:0:0:
144,96,51597,1,4,0:0:0:0:
144,96,51797,2,0,L|272:96,1,100
320,104,52397,2,0,B|320:144|320:144|288:176|248:168|248:168|208:168|165:220|165:220|184:248|256:240,1,300,4|0,0:0|0:0,0:0:0:0:
96,64,54197,5,0,0:0:0:0:
168,64,54397,2,2,B|272:64|272:64|312:88|368:88,1,200,6|2,0:0|0:0,0:0:0:0:
80,184,55997,2,0,L|192:184,1,100,12|0,0:0|0:0,0:0:0:0:
328,184,56797,1,12,0:0:0:0:
248,312,57197,2,8,L|320:312,1,50
416,216,57797,6,0,L|352:216,2,50,0|0|0,0:0|0:0|0:0,0:0:0:0:
424,144,58397,1,8,0:0:0:0:
424,296,58797,1,8,0:0:0:0:
280,336,59197,1,8,0:0:0:0:
136,304,59597,1,8,0:0:0:0:
272,240,59997,2,0,P|392:192|400:24,1,300,4|0,0:0|0:0,0:0:0:0:
272,104,61597,5,4,0:0:0:0:
128,160,61997,2,0,L|64:192,2,50,0|0|0,0:0|0:0|0:0,0:0:0:0:
272,192,62797,1,8,0:0:0:0:
184,72,63197,2,2,B|240:80|304:72|304:72|328:96|360:104|360:104|432:96|480:160,1,300,4|2,0:0|0:0,0:0:0:0:
352,248,64797,2,0,B|312:240|281:247|281:247|248:240|224:212|224:212|168:224|104:200|104:200|168:160,1,300,4|0,0:0|0:0,0:0:0:0:
264,96,66397,1,8,0:0:0:0:
392,24,66797,6,2,L|504:24,2,100,0|0|0,0:0|0:0|0:0,0:0:0:0:
248,160,67997,6,0,B|320:168|368:160|368:160|400:176|432:216|432:216|464:232|552:216,1,300,4|0,0:0|0:0,0:0:0:0:
504,152,69397,2,0,P|472:120|448:104,1,50
320,80,69997,1,8,0:0:0:0:
168,80,70397,1,0,0:0:0:0:
88,208,70797,2,0,L|120:160,1,50,8|0,0:0|0:0,0:0:0:0:
168,216,71197,6,0,B|232:224|280:160|280:160|329:177|368:155|368:155|410:128|480:128,1,300,8|8,0:0|0:0,0:0:0:0:
448,208,72597,2,0,B|416:224|416:224|384:248,1,50
272,304,73197,2,0,P|224:312|168:304,1,100,8|0,0:0|0:0,0:0:0:0:
32,264,73997,1,8,0:0:0:0:
40,112,74397,6,0,L|344:16,1,300,4|0,0:0|0:0,0:0:0:0:
376,208,75797,1,0,0:0:0:0:
376,208,75997,2,0,L|184:272,1,200,4|0,0:0|0:0,0:0:0:0:
80,168,77197,6,0,L|144:144,2,50,8|0|0,0:0|0:0|0:0,0:0:0:0:
152,296,77997,1,0,0:0:0:0:
296,248,78397,2,0,L|416:200,1,100,8|0,0:0|0:0,0:0:0:0:
320,80,79197,2,2,B|248:104|248:104|216:96|184:80|184:80|160:120|168:168|168:168|128:168|80:200,1,300
256,184,80797,6,0,B|304:200|304:200|376:160|376:160|424:176|472:160|472:160|472:112|512:64,1,300
488,248,82397,2,0,P|432:256|376:248,1,100,8|0,0:0|0:0,0:0:0:0:
432,104,83197,1,0,0:0:0:0:
432,104,83597,1,8,0:0:0:0:
296,168,83997,6,0,B|256:180|226:220|226:220|219:194|187:254|120:232|88:192|88:192|46:182|-8:214,1,300,4|0,0:0|0:0,0:0:0:0:
165,126,85597,1,8,0:0:0:0:
310,162,85997,2,0,L|430:106,2,100,0|0|2,0:0|0:0|0:0,0:0:0:0:
216,80,87197,6,2,P|208:224|344:312,1,300
344,160,88797,2,2,P|184:200|80:112,1,300
224,72,90397,2,8,L|336:160,1,100
184,232,91197,1,0,0:0:0:0:
184,232,91597,1,8,0:0:0:0:
88,112,91997,2,0,P|232:88|336:192,1,300,4|0,0:0|0:0,0:0:0:0:
256,192,93597,12,0,97397,0:0:0:0:
256,192,98397,5,0,0:0:0:0:
256,192,99397,12,0,106397,0:0:0:0:
48,112,118597,6,0,L|104:112,2,50,0|0|0,0:0|0:0|0:0,0:0:0:0:
80,184,119197,2,0,B|142:196|183:233|183:233|228:238|272:216|272:216|400:216,1,300,6|0,0:0|0:0,0:0:0:0:
440,88,120797,2,0,B|376:96|376:96|328:88|328:88|288:88|224:120|224:120|184:88|128:80,1,300,6|0,0:0|0:0,0:0:0:0:
152,232,122397,2,0,B|192:256|240:264|240:264|288:208|352:208|352:208|400:216|448:192,1,300,6|0,0:0|0:0,0:0:0:0:
376,56,123997,2,0,B|336:64|336:64|256:56|192:112|192:112|136:80|136:80|96:80,1,300,6|0,0:0|0:0,0:0:0:0:
128,224,125597,6,0,B|176:256|240:240|240:240|280:176|312:176|312:176|368:192|416:168,1,300,6|0,0:0|0:0,0:0:0:0:
280,80,127197,2,0,P|224:104|184:152,1,100,8|0,0:0|0:0,0:0:0:0:
336,80,127997,2,0,P|392:80|440:56,1,100,8|0,0:0|0:0,0:0:0:0:
400,208,128797,2,0,P|272:328|152:304,1,300,6|0,0:0|0:0,0:0:0:0:
256,192,130397,2,0,L|208:144,1,50
168,104,130797,2,0,L|96:24,2,100,0|0|0,0:0|0:0|0:0,0:0:0:0:
320,88,131997,6,0,L|386:162,1,100,8|0,0:0|0:0,0:0:0:0:
488,264,132797,1,8,0:0:0:0:
488,264,133197,1,0,0:0:0:0:
344,312,133597,2,0,P|294:331|232:344,1,100,8|0,0:0|0:0,0:0:0:0:
96,328,134397,1,8,0:0:0:0:
48,184,134797,2,0,L|112:160,1,50
168,136,135197,6,0,B|216:120|216:120|304:120,2,100,8|0|8,0:0|0:0|0:0,0:0:0:0:
112,272,136397,1,4,0:0:0:0:
264,272,136797,2,0,P|312:280|368:272,1,100,8|0,0:0|0:0,0:0:0:0:
312,136,137597,1,8,0:0:0:0:
160,136,137997,2,0,L|224:136,1,50
272,88,138397,6,0,B|328:88|328:88|376:120,1,100,12|0,0:0|0:0,0:0:0:0:
416,256,139197,2,0,B|416:312|416:312|384:352,1,100,8|0,0:0|0:0,0:0:0:0:
256,280,139997,2,0,B|208:280|208:280|128:248,1,100,8|0,0:0|0:0,0:0:0:0:
232,128,140797,2,0,L|296:128,1,50,8|0,0:0|0:0,0:0:0:0:
312,192,141197,2,0,L|368:192,1,50,8|0,0:0|0:0,0:0:0:0:
384,120,141597,2,0,B|304:56|304:56|168:56,2,200,0|0|0,0:0|0:0|0:0,0:0:0:0:
160,184,143797,5,0,0:0:0:0:
232,184,143997,2,0,B|304:184|304:184|360:192|360:192|432:192,1,200,4|0,0:0|0:0,0:0:0:0:
152,72,145597,2,0,L|296:72,1,100
392,136,146397,2,4,P|448:152|504:192,1,100
336,200,147197,2,4,P|320:264|280:312,1,100
192,184,147997,2,0,B|224:120|224:120|312:120|328:32|328:32|416:32,1,300,6|0,0:0|0:0,0:0:0:0:
456,176,149597,2,0,B|432:136|392:120|392:120|352:136|312:136|312:136|288:80|224:32,1,300,6|0,0:0|0:0,0:0:0:0:
104,120,151197,6,0,P|152:168|176:216,1,100,8|0,0:0|0:0,0:0:0:0:
224,336,151997,1,8,0:0:0:0:
224,336,152397,1,0,0:0:0:0:
344,248,152797,1,12,0:0:0:0:
208,184,153197,1,4,0:0:0:0:
280,48,153597,1,12,0:0:0:0:
416,120,153997,6,2,L|360:224,1,100
456,328,154797,1,12,0:0:0:0:
312,280,155197,2,2,L|440:328,1,100
448,168,155997,1,4,0:0:0:0:
448,168,156397,6,2,L|336:208,2,100,0|0|0,0:0|0:0|0:0,0:0:0:0:
344,56,157597,6,0,B|264:56|264:56|208:88|160:80|160:80|96:64|56:136,1,300,6|0,0:0|0:0,0:0:0:0:
136,152,158997,2,0,L|168:208,1,50
304,144,159597,2,0,B|336:184|336:184|400:192,1,100,0|8,0:0|0:0,0:0:0:0:
256,272,160397,2,0,L|320:280,1,50,8|0,0:0|0:0,0:0:0:0:
384,280,160797,6,0,P|464:224|352:104,1,300
208,112,162397,2,0,B|176:192|176:192|280:160|280:160|320:208|392:184,1,300,6|0,0:0|0:0,0:0:0:0:
376,40,163997,1,2,0:0:0:0:
456,168,164397,1,2,0:0:0:0:
360,280,164797,2,2,P|408:272|464:224,1,100,10|2,0:0|0:0,0:0:0:0:
344,136,165597,2,0,L|247:161,1,100,8|0,0:0|0:0,0:0:0:0:
96,192,166397,1,8,0:0:0:0:
40,56,166797,5,4,0:0:0:0:
176,112,167197,2,10,B|224:128|224:128|280:128,2,100,0|0|0,0:0|0:0|0:0,0:0:0:0:
280,216,168397,2,0,L|376:216,1,50
408,216,168797,2,0,P|376:80|216:64,1,300
272,232,170397,6,0,B|176:200|176:200|88:144,1,200,4|0,0:0|0:0,0:0:0:0:
232,88,171597,1,8,0:0:0:0:
304,88,171797,2,0,B|376:88|432:64|432:64|488:80|544:160,1,250,4|0,0:0|0:0,0:0:0:0:
400,216,173197,2,0,L|272:216,1,100
152,216,173997,5,2,0:0:0:0:
152,216,174197,2,0,B|160:144|248:120|248:120|320:144|368:104,1,250,6|0,0:0|0:0,0:0:0:0:
264,240,175597,2,2,L|328:344,2,100,0|0|0,0:0|0:0|0:0,0:0:0:0:
416,216,176797,6,0,B|352:128|352:128|216:128|216:128|168:56,1,300,8|0,0:0|0:0,0:0:0:0:
112,168,178197,1,0,0:0:0:0:
112,168,178397,2,0,B|144:208|144:208|328:208,1,200,8|0,0:0|0:0,0:0:0:0:
216,80,179597,1,4,0:0:0:0:
294,208,179997,2,8,P|382:264|494:264,1,200
416,128,181197,1,4,0:0:0:0:
272,80,181597,2,0,B|216:56|216:56|160:120|160:120|32:120,1,250,4|0,0:0|0:0,0:0:0:0:
240,248,183197,6,0,L|368:304,3,100,8|0|0|4,0:0|0:0|0:0|0:0,0:0:0:0:
328,136,184797,2,0,L|456:192,3,100,8|0|0|4,0:0|0:0|0:0|0:0,0:0:0:0:
376,320,186397,2,0,P|216:288|72:192,1,300,8|4,0:0|0:0,0:0:0:0:
72,72,187997,2,0,B|128:48|192:96|192:96|232:104|280:96|280:96|328:112|352:152|352:152|392:176|480:152,1,400,8|0,0:0|0:0,0:0:0:0:
296,216,189997,6,2,L|208:176,1,50
176,176,190397,2,0,P|104:160|184:248,1,300,2|0,0:0|0:0,0:0:0:0:
312,208,191997,2,0,L|384:208,3,50,0|0|0|0,0:0|0:0|0:0|0:0,0:0:0:0:
352,136,192797,2,0,P|224:72|48:88,1,300,8|0,0:0|0:0,0:0:0:0:
88,232,194397,2,0,P|168:272|288:272,1,200
120,112,195797,5,0,0:0:0:0:
120,112,195997,2,0,B|224:112|224:112|328:152,1,200,6|0,0:0|0:0,0:0:0:0:
256,192,197197,12,0,199197,0:0:0:0:
465,47,199997,6,0,L|369:103,1,100
433,239,200797,2,0,B|384:240|345:287|345:287|288:304|233:287|233:287|200:296|153:335,1,300,2|0,0:0|0:0,0:0:0:0:
88,336,202197,2,0,B|72:288|88:240|88:240|144:184|224:160|224:160|208:112|224:56,1,350,2|0,0:0|0:0,0:0:0:0:
72,96,203997,6,0,B|168:232|240:184|344:232,1,300,2|0,0:0|0:0,0:0:0:0:
208,312,205597,2,0,P|184:144|320:72,1,300,2|4,0:0|0:0,0:0:0:0:
152,168,207197,6,0,L|48:256,1,100,8|0,0:0|0:0,0:0:0:0:
104,88,207997,1,8,0:0:0:0:
104,88,208397,1,0,0:0:0:0:
256,88,208797,2,0,L|376:88,1,100,8|0,0:0|0:0,0:0:0:0:
504,88,209597,1,8,0:0:0:0:
504,88,209997,1,0,0:0:0:0:
376,168,210397,6,0,B|272:168|272:168|224:208|160:176|160:176|128:208|64:184,1,300,8|0,0:0|0:0,0:0:0:0:
216,112,211997,2,2,P|248:80|224:32,1,100
104,112,212797,1,4,0:0:0:0:
104,112,213197,1,8,0:0:0:0:
248,72,213597,6,2,P|200:216|64:248,1,300
104,104,215197,2,2,P|200:216|360:176,1,300
248,72,216797,2,8,L|320:168,1,100
392,272,217597,2,0,B|424:312|424:312|496:312,2,100,0|0|0,0:0|0:0|0:0,0:0:0:0:
304,152,218797,2,8,L|244:72,1,100
96,72,219597,6,0,L|152:72,1,50
120,144,219997,2,2,B|120:200|120:200|200:248|200:248|200:304,1,200
224,152,221197,2,0,B|296:176|304:240|304:240|360:224|368:160|368:160|408:168|456:152,1,300,8|0,0:0|0:0,0:0:0:0:
296,104,222797,6,2,L|264:40,2,50,0|0|0,0:0|0:0|0:0,0:0:0:0:
440,48,223597,2,0,L|392:96,1,50
360,144,223997,2,2,P|288:176|224:160,1,100
120,136,224797,2,0,P|232:64|384:120,1,300,4|8,0:0|0:0,0:0:0:0:
256,208,226397,1,2,0:0:0:0:
256,192,226797,12,0,229197,0:0:0:0:
24,248,229597,6,0,L|136:216,1,100
264,184,230397,1,2,0:0:0:0:
264,184,230797,2,0,B|312:160|328:104|328:104|384:96|440:104|440:104|480:80|504:24,1,300
256,192,232397,12,0,235997,0:0:0:0:
56,288,237197,5,4,0:0:0:0:
176,200,237597,1,8,0:0:0:0:
472,200,238397,1,8,0:0:0:0:
320,200,238797,2,0,L|184:200,1,100
112,40,240397,5,4,0:0:0:0:
264,40,240797,1,14,0:0:0:0:
