osu file format v13

[General]
AudioFilename: 02 .mp3
AudioLeadIn: 0
PreviewTime: 68007
Countdown: 1
SampleSet: Soft
StackLeniency: 0.7
Mode: 0
LetterboxInBreaks: 1
WidescreenStoryboard: 1

[Editor]
DistanceSpacing: 1.2
BeatDivisor: 4
GridSize: 4
TimelineZoom: 1.3

[Metadata]
Title:Genjitsu Toyuu Na No Kaibutsu To Tatakau Mono Tachi
TitleUnicode:現実という名の怪物と戦う者たち
Artist:Takahashi Yu
ArtistUnicode:高橋優
Creator:shaoshengss
Version:Hard
Source:BAKUMAN
Tags:高橋優
BeatmapID:440334
BeatmapSetID:182722

[Difficulty]
HPDrainRate:7
CircleSize:4
OverallDifficulty:6
ApproachRate:8
SliderMultiplier:1.5
SliderTickRate:1

[Events]
//Background and Video events
0,0,"32761195.jpg",0,0
//Break Periods
2,13797,28247
2,106597,117847
//Storyboard Layer 0 (Background)
//Storyboard Layer 1 (Fail)
//Storyboard Layer 2 (Pass)
//Storyboard Layer 3 (Foreground)
//Storyboard Sound Samples
//Background Colour Transformations
3,100,163,162,255

[TimingPoints]
797.368018224355,400,4,2,1,30,1,0
2397,-100,4,2,1,35,0,0
3997,-100,4,2,1,40,0,0
5597,-100,4,2,1,45,0,0
7197,-100,4,2,1,50,0,0
8797,-100,4,2,1,55,0,0
10397,-83.3333333333333,4,2,1,60,0,0
28997,-100,4,2,2,60,0,0
54197,-90.9090909090909,4,2,2,60,0,0
66797,-100,4,1,0,60,0,0
67997,-83.3333333333333,4,3,0,60,0,1
106397,-100,4,2,2,60,0,0
122397,-83.3333333333333,4,2,2,60,0,0
143797,-86.9565217391304,4,2,2,60,0,0
152797,-100,4,2,2,60,0,0
153197,-90.9090909090909,4,2,2,60,0,0
153597,-83.3333333333333,4,2,2,60,0,0
155597,-83.3333333333333,4,2,1,60,0,0
156397,-100,4,2,2,60,0,0
156797,-90.9090909090909,4,2,2,60,0,0
157197,-83.3333333333333,4,2,2,60,0,0
157597,-83.3333333333333,4,3,0,65,0,1
194197,-142.857142857143,4,3,0,65,0,1
195797,-111.111111111111,4,3,0,65,0,1
197597,-100,4,3,0,65,0,1
197997,-90.9090909090909,4,3,0,65,0,1
198397,-83.3333333333333,4,3,0,65,0,1
200797,-80,4,3,0,65,0,1
236597,-86.9565217391304,4,3,0,65,0,1
238197,-95.2380952380952,4,3,0,65,0,1
241597,-95.2380952380952,4,3,0,65,0,0

[HitObjects]
64,56,797,6,0,P|124:60|152:80,2,75,8|0|0,0:0|0:0|0:0,0:0:0:0:
356,128,1597,2,0,P|328:172|208:212,1,150,8|0,0:0|0:0,0:0:0:0:
132,224,2397,2,0,P|192:260|280:252,1,150,8|0,0:0|0:0,0:0:0:0:
408,60,3197,2,0,L|332:96,1,75,8|0,0:0|0:0,0:0:0:0:
424,168,3597,2,0,L|348:204,1,75,2|2,0:0|0:0,0:0:0:0:
428,284,3997,5,8,0:0:0:0:
324,328,4197,1,0,0:0:0:0:
216,296,4397,1,0,0:0:0:0:
176,120,4797,2,0,P|256:148|332:124,1,150,8|0,0:0|0:0,0:0:0:0:
392,56,5597,6,0,P|288:48|232:80,1,150,8|0,0:0|0:0,0:0:0:0:
172,260,6397,2,8,L|248:196,1,75,8|8,0:0|0:0,0:0:0:0:
316,140,6797,1,0,0:0:0:0:
316,140,6997,1,0,0:0:0:0:
440,136,7197,6,0,P|432:192|392:220,1,75,8|0,0:0|0:0,0:0:0:0:
348,288,7597,1,0,0:0:0:0:
140,136,7997,2,0,L|236:136,2,75,8|0|0,0:0|0:0|0:0,0:0:0:0:
440,136,8797,6,0,P|368:156|272:132,1,150,8|0,0:0|0:0,0:0:0:0:
440,136,9597,1,8,0:0:0:0:
232,56,9997,2,8,P|180:92|164:112,1,75
172,100,10397,5,0,0:0:0:0:
144,124,10597,1,0,0:0:0:0:
116,148,10797,1,8,0:0:0:0:
448,332,11197,2,0,L|384:276,2,44.999998626709,0|0|0,0:0|0:0|0:0,0:0:0:0:
432,64,11997,2,0,P|356:72|332:100,1,89.9999972534181
256,112,12397,2,0,B|255:151|255:151|269:158|269:158|246:169|246:169|269:176|269:176|245:187|245:187|269:194|269:194|245:205|245:205|269:212|269:212|245:222|245:222|268:230|268:230|245:240|245:240|268:248|268:248|245:258|245:258|270:262|270:262|245:276|245:276|270:280|270:280|246:290|246:290|270:298|270:298|246:308|246:308|268:310|268:310|259:319|259:319|257:341,1,539.999983520508,0|12,0:0|0:0,0:0:0:0:
76,96,28997,6,0,L|124:88,1,37.5
136,120,29197,2,0,P|136:192|152:208,1,75,8|0,0:0|0:0,0:0:0:0:
280,152,29597,1,8,0:0:0:0:
356,152,29797,1,0,0:0:0:0:
248,256,29997,1,8,0:0:0:0:
308,300,30197,1,0,0:0:0:0:
416,192,30397,2,0,P|424:140|412:104,1,75,0|0,0:0|0:0,0:0:0:0:
280,152,30797,2,0,L|372:152,1,75,8|8,0:0|0:0,0:0:0:0:
220,84,31197,6,0,P|184:52|128:40,1,75,8|8,0:0|0:0,0:0:0:0:
144,192,31597,2,0,P|148:132|164:104,1,75,8|0,0:0|0:0,0:0:0:0:
244,172,31997,1,0,0:0:0:0:
335,237,32197,1,0,0:0:0:0:
232,283,32397,1,0,0:0:0:0:
292,196,32597,1,0,0:0:0:0:
428,156,32797,5,8,0:0:0:0:
376,80,32997,1,0,0:0:0:0:
288,60,33197,1,8,0:0:0:0:
204,92,33397,1,8,0:0:0:0:
260,164,33597,2,2,P|304:168|336:212,1,75,10|2,0:0|0:0,0:0:0:0:
264,252,33997,1,12,0:0:0:0:
304,332,34197,2,8,P|220:332|176:260,1,150,8|8,0:0|0:0,0:0:0:0:
452,56,35797,5,0,0:0:0:0:
340,64,35997,2,2,L|236:76,1,75,10|2,0:0|0:0,0:0:0:0:
340,64,36397,1,8,0:0:0:0:
316,172,36597,2,0,L|260:252,1,75
384,204,36997,2,0,L|300:164,2,75,0|8|0,0:0|0:0|0:0,0:0:0:0:
344,308,37597,5,10,0:0:0:0:
232,332,37797,1,0,0:0:0:0:
124,304,37997,1,10,0:0:0:0:
64,208,38197,1,0,0:0:0:0:
176,188,38397,2,2,P|228:228|260:224,1,75,10|2,0:0|0:0,0:0:0:0:
344,204,38797,1,8,0:0:0:0:
416,116,38997,1,0,0:0:0:0:
308,92,39197,2,0,L|260:116,1,37.5,8|0,0:0|0:0,0:0:0:0:
220,120,39397,2,2,P|148:112|96:172,1,150,10|2,0:0|0:0,0:0:0:0:
148,264,39997,6,8,P|180:224|176:184,1,75,8|0,0:0|0:0,0:0:0:0:
68,204,40397,2,8,P|48:160|68:116,1,75,8|0,0:0|0:0,0:0:0:0:
164,148,40797,2,8,B|224:168|256:120|256:120|256:64,2,150,0|0|0,0:0|0:0|0:0,0:0:0:0:
184,76,41797,5,2,0:0:0:0:
100,124,41997,1,8,0:0:0:0:
120,220,42197,1,8,0:0:0:0:
200,164,42397,2,8,P|244:196|288:196,1,75,8|0,0:0|0:0,0:0:0:0:
336,68,42797,2,0,P|286:90|264:128,1,75,10|2,0:0|0:0,0:0:0:0:
352,236,43197,2,8,P|357:181|335:143,1,75,8|0,0:0|0:0,0:0:0:0:
208,208,43597,1,8,0:0:0:0:
208,208,43797,1,0,0:0:0:0:
216,60,43997,6,8,L|140:32,1,75,8|0,0:0|0:0,0:0:0:0:
296,60,44397,2,8,L|372:32,1,75,8|0,0:0|0:0,0:0:0:0:
256,136,44797,2,8,L|256:228,1,75,8|0,0:0|0:0,0:0:0:0:
256,360,45197,2,0,L|256:264,1,75,8|0,0:0|0:0,0:0:0:0:
404,260,45597,2,0,L|312:216,1,75,8|0,0:0|0:0,0:0:0:0:
108,260,45997,2,0,L|200:216,1,75,8|0,0:0|0:0,0:0:0:0:
256,192,46397,1,8,0:0:0:0:
256,192,46597,2,0,L|256:104,1,75,0|8,0:0|0:0,0:0:0:0:
256,268,46997,2,8,B|292:280|328:284|328:284|364:276|428:284,1,150,4|0,0:0|0:0,0:0:0:0:
60,64,48597,5,0,0:0:0:0:
92,156,48797,2,0,P|152:124|172:124,1,75,12|0,0:0|0:0,0:0:0:0:
164,220,49197,1,8,0:0:0:0:
256,248,49397,1,0,0:0:0:0:
352,224,49597,1,12,0:0:0:0:
352,224,49797,1,0,0:0:0:0:
420,152,49997,6,0,P|380:128|324:132,1,75,8|0,0:0|0:0,0:0:0:0:
352,224,50397,1,12,0:0:0:0:
352,224,50597,1,0,0:0:0:0:
256,248,50797,1,8,0:0:0:0:
256,248,50997,1,0,0:0:0:0:
164,220,51197,2,0,P|184:180|228:156,1,75,12|0,0:0|0:0,0:0:0:0:
256,248,51597,1,0,0:0:0:0:
352,224,51797,2,4,P|312:168|280:156,1,75,4|12,0:0|0:0,0:0:0:0:
256,248,52197,1,0,0:0:0:0:
256,152,52397,2,0,B|256:32|256:32|316:64|380:8,1,225,12|0,0:0|0:0,0:0:0:0:
432,76,54197,5,4,0:0:0:0:
268,76,54397,2,4,L|360:76,1,82.5000025177003,12|4,0:0|0:0,0:0:0:0:
228,188,54797,2,8,L|312:136,1,82.5000025177003
160,232,55197,2,2,P|160:136|292:140,1,247.500007553101,10|2,0:0|0:0,0:0:0:0:
228,188,55997,2,2,P|339:198|353:87,1,247.500007553101,10|2,0:0|0:0,0:0:0:0:
288,132,56797,1,8,0:0:0:0:
200,112,56997,1,8,0:0:0:0:
148,188,57197,1,8,0:0:0:0:
200,264,57397,1,4,0:0:0:0:
460,64,57797,5,4,0:0:0:0:
392,212,57997,1,12,0:0:0:0:
228,188,58197,1,4,0:0:0:0:
348,41,58397,2,2,P|371:75|376:116,1,82.5000025177003,10|2,0:0|0:0,0:0:0:0:
224,176,58797,2,0,P|241:139|274:114,1,82.5000025177003,8|0,0:0|0:0,0:0:0:0:
404,216,59197,2,2,P|363:219|325:203,1,82.5000025177003,10|2,0:0|0:0,0:0:0:0:
348,41,59597,2,0,P|371:75|376:115,1,82.5000025177003,8|0,0:0|0:0,0:0:0:0:
284,112,59997,2,4,L|172:152,1,82.5000025177003,12|4,0:0|0:0,0:0:0:0:
88,176,60397,1,8,0:0:0:0:
244,124,60597,1,4,0:0:0:0:
508,324,60997,5,0,0:0:0:0:
484,228,61197,1,8,0:0:0:0:
420,152,61397,1,0,0:0:0:0:
324,124,61597,1,12,0:0:0:0:
224,296,61997,5,8,0:0:0:0:
308,248,62197,1,0,0:0:0:0:
368,160,62397,1,8,0:0:0:0:
372,44,62597,1,0,0:0:0:0:
468,112,62797,2,4,P|480:168|460:216,1,82.5000025177003,12|4,0:0|0:0,0:0:0:0:
368,160,63197,2,2,B|328:180|328:180|264:180,1,82.5000025177003,10|2,0:0|0:0,0:0:0:0:
176,180,63597,2,2,B|128:180|128:180|92:196,1,82.5000025177003,10|2,0:0|0:0,0:0:0:0:
156,292,63997,2,2,B|188:320|188:320|236:320,1,82.5000025177003,10|2,0:0|0:0,0:0:0:0:
344,320,64397,2,2,B|388:320|388:320|424:296,1,82.5000025177003,10|2,0:0|0:0,0:0:0:0:
344,212,64797,6,8,B|284:152|284:152|196:152,2,165.000005035401,0|0|4,0:0|0:0|0:0,0:0:0:0:
120,152,65997,1,8,0:0:0:0:
224,104,66197,2,0,L|272:72,1,41.2500012588501
258,81,66397,2,0,L|354:93,1,82.5000025177003,8|0,0:0|0:0,0:0:0:0:
308,192,66797,6,2,B|228:192|228:192|148:132,2,150,0|0|0,0:0|0:0|0:0,0:0:0:0:
84,72,67997,6,0,P|176:80|212:128,1,134.999995880127,8|0,0:0|0:0,0:0:0:0:
228,148,68397,2,2,P|284:176|324:160,1,89.9999972534181,10|2,0:0|0:0,0:0:0:0:
284,72,68797,2,0,P|348:52|408:84,1,134.999995880127,8|0,0:0|0:0,0:0:0:0:
444,108,69197,2,2,P|496:108|524:64,1,89.9999972534181,10|2,0:0|0:0,0:0:0:0:
508,180,69597,2,0,P|504:240|460:284,1,89.9999972534181,8|0,0:0|0:0,0:0:0:0:
412,196,69997,2,0,P|364:228|304:208,1,89.9999972534181,8|0,0:0|0:0,0:0:0:0:
348,128,70397,2,0,P|296:112|272:68,1,89.9999972534181,8|0,0:0|0:0,0:0:0:0:
364,36,70797,1,12,0:0:0:0:
436,104,70997,1,4,0:0:0:0:
464,200,71197,6,0,P|432:272|372:296,1,134.999995880127,8|0,0:0|0:0,0:0:0:0:
336,288,71597,2,0,P|304:248|244:236,1,89.9999972534181,8|0,0:0|0:0,0:0:0:0:
252,332,71997,2,0,P|176:344|116:304,1,134.999995880127,8|0,0:0|0:0,0:0:0:0:
124,268,72397,2,0,P|160:228|152:172,1,89.9999972534181,8|0,0:0|0:0,0:0:0:0:
64,200,72797,2,0,P|40:144|56:104,1,89.9999972534181,4|0,0:0|0:0,0:0:0:0:
144,144,73197,2,0,P|192:112|248:120,1,89.9999972534181,4|0,0:0|0:0,0:0:0:0:
212,212,73597,2,0,P|264:248|280:292,1,89.9999972534181,4|0,0:0|0:0,0:0:0:0:
184,304,73997,2,2,L|128:304,2,44.999998626709,8|0|0,0:0|0:0|0:0,0:0:0:0:
328,308,74397,5,8,0:0:0:0:
416,192,74597,1,4,0:0:0:0:
352,64,74797,1,8,0:0:0:0:
208,56,74997,1,4,0:0:0:0:
264,188,75197,2,2,L|364:140,1,89.9999972534181
212,208,75597,1,2,0:0:0:0:
80,264,75797,1,2,0:0:0:0:
72,120,75997,5,0,0:0:0:0:
208,172,76197,1,2,0:0:0:0:
340,116,76397,1,8,0:0:0:0:
472,172,76597,1,4,0:0:0:0:
340,232,76797,2,2,L|340:284,2,44.999998626709,0|0|0,0:0|0:0|0:0,0:0:0:0:
200,268,77197,5,8,0:0:0:0:
200,268,77397,1,0,0:0:0:0:
92,172,77597,1,8,0:0:0:0:
92,172,77797,1,0,0:0:0:0:
228,132,77997,2,0,P|292:152|332:136,1,89.9999972534181,8|0,0:0|0:0,0:0:0:0:
280,44,78397,2,0,P|344:24|392:44,1,89.9999972534181,8|8,0:0|0:0,0:0:0:0:
332,132,78797,6,8,P|380:168|396:228,1,89.9999972534181
340,220,79097,1,2,0:0:0:0:
288,232,79197,2,0,P|284:296|244:340,2,89.9999972534181,0|0|0,0:0|0:0|0:0,0:0:0:0:
184,260,79797,2,2,L|128:240,1,44.999998626709
141,244,79997,2,8,P|172:200|144:140,1,89.9999972534181
60,188,80397,1,4,0:0:0:0:
220,40,80797,6,0,P|236:92|288:120,1,89.9999972534181,8|0,0:0|0:0,0:0:0:0:
262,113,81097,1,2,0:0:0:0:
262,113,81197,1,10,0:0:0:0:
368,128,81397,2,8,P|320:204|212:204,1,179.999994506836,8|0,0:0|0:0,0:0:0:0:
262,113,81997,1,8,0:0:0:0:
156,128,82197,2,0,P|204:204|312:204,1,179.999994506836,8|0,0:0|0:0,0:0:0:0:
262,113,82797,2,8,P|288:52|332:24,1,89.9999972534181,8|0,0:0|0:0,0:0:0:0:
364,128,83197,2,2,P|416:120|456:140,1,89.9999972534181,10|6,0:0|0:0,0:0:0:0:
392,228,83597,6,8,P|376:296|340:328,1,89.9999972534181,8|0,0:0|0:0,0:0:0:0:
340,328,83897,1,2,0:0:0:0:
312,340,83997,2,0,P|252:352|196:324,1,89.9999972534181,8|0,0:0|0:0,0:0:0:0:
264,244,84397,1,12,0:0:0:0:
328,156,84597,2,0,P|248:136|168:196,1,179.999994506836,8|0,0:0|0:0,0:0:0:0:
264,244,85197,1,4,0:0:0:0:
200,332,85397,2,0,P|280:352|360:292,1,179.999994506836,8|0,0:0|0:0,0:0:0:0:
264,244,85997,2,8,L|332:148,1,89.9999972534181,8|0,0:0|0:0,0:0:0:0:
208,172,86397,2,4,L|276:260,1,89.9999972534181,4|0,0:0|0:0,0:0:0:0:
316,172,86797,5,2,0:0:0:0:
316,172,86997,1,8,0:0:0:0:
252,88,87197,2,8,L|136:68,1,89.9999972534181
192,176,87597,2,8,L|144:252,1,89.9999972534181
252,264,87997,2,2,L|312:348,1,89.9999972534181
364,248,88397,1,4,0:0:0:0:
416,144,88597,1,8,0:0:0:0:
264,200,88797,5,4,0:0:0:0:
174,110,88997,1,8,0:0:0:0:
264,21,89197,1,4,0:0:0:0:
353,110,89397,1,8,0:0:0:0:
264,224,89597,2,2,L|264:160,2,44.999998626709,0|0|0,0:0|0:0|0:0,0:0:0:0:
404,196,89997,5,4,0:0:0:0:
352,144,90197,1,0,0:0:0:0:
344,252,90397,1,4,0:0:0:0:
200,248,90597,1,0,0:0:0:0:
200,104,90797,2,0,L|320:104,1,89.9999972534181,4|0,0:0|0:0,0:0:0:0:
292,248,91197,2,4,L|292:140,1,89.9999972534181
436,156,91597,2,4,L|336:156,1,89.9999972534181
384,296,91997,5,10,0:0:0:0:
172,328,92397,5,10,0:0:0:0:
416,176,92797,5,10,0:0:0:0:
72,276,93197,5,12,0:0:0:0:
244,204,93397,6,0,L|216:152,1,44.999998626709
222,164,93597,2,0,P|240:80|292:72,1,134.999995880127,8|0,0:0|0:0,0:0:0:0:
256,192,93997,12,0,96597,0:0:0:0:
316,176,96797,6,0,P|196:192|236:136,1,269.999991760254,0|0,0:0|0:0,0:0:0:0:
256,192,99397,6,0,L|256:144,1,44.999998626709
256,192,99597,12,0,102797,0:0:0:0:
80,76,102997,5,8,0:0:0:0:
156,196,103197,2,8,P|208:148|216:104,2,89.9999972534181,8|0|8,0:0|0:0|0:0,0:0:0:0:
152,340,103797,2,4,P|228:340|260:320,2,89.9999972534181,0|8|0,0:0|0:0|0:0,0:0:0:0:
184,200,104397,1,12,0:0:0:0:
256,192,104797,12,4,106397,0:0:0:0:
56,56,118597,5,2,0:0:0:0:
128,36,118797,1,8,0:0:0:0:
200,64,118997,1,8,0:0:0:0:
228,136,119197,2,8,P|224:192|212:216,1,75,8|0,0:0|0:0,0:0:0:0:
304,164,119597,2,2,P|352:176|396:152,1,75,10|2,0:0|0:0,0:0:0:0:
340,76,119997,2,0,P|404:72|420:80,2,75,8|0|8,0:0|0:0|0:0,0:0:0:0:
376,168,120597,1,8,0:0:0:0:
352,264,120797,5,12,0:0:0:0:
268,312,120997,1,0,0:0:0:0:
172,312,121197,1,8,0:0:0:0:
88,264,121397,1,0,0:0:0:0:
156,196,121597,2,0,P|216:224|252:224,1,75,12|0,0:0|0:0,0:0:0:0:
228,128,121997,1,8,0:0:0:0:
340,188,122197,5,8,0:0:0:0:
296,100,122397,2,0,B|340:112|340:112|404:88,1,89.9999972534181,12|0,0:0|0:0,0:0:0:0:
340,188,122797,2,0,B|340:240|340:240|376:284,1,89.9999972534181,8|0,0:0|0:0,0:0:0:0:
440,204,123197,1,12,0:0:0:0:
364,268,123397,2,0,L|280:316,1,89.9999972534181,0|12,0:0|0:0,0:0:0:0:
160,288,123797,1,0,0:0:0:0:
60,212,123997,2,0,P|56:148|88:116,2,89.9999972534181,8|0|8,0:0|0:0|0:0,0:0:0:0:
184,188,124597,2,0,P|236:176|260:136,1,89.9999972534181,0|8,0:0|0:0,0:0:0:0:
132,168,124997,2,0,P|148:124|120:64,1,89.9999972534181,0|8,0:0|0:0,0:0:0:0:
248,76,125397,5,0,0:0:0:0:
388,188,125597,1,8,0:0:0:0:
304,256,125797,1,0,0:0:0:0:
196,264,125997,2,0,P|136:248|96:212,1,89.9999972534181,8|0,0:0|0:0,0:0:0:0:
196,160,126397,1,8,0:0:0:0:
196,160,126597,1,0,0:0:0:0:
300,184,126797,6,0,P|320:132|368:104,1,89.9999972534181,8|0,0:0|0:0,0:0:0:0:
388,188,127197,1,8,0:0:0:0:
344,264,127397,1,8,0:0:0:0:
344,264,127497,1,0,0:0:0:0:
344,264,127597,2,0,P|280:276|244:256,1,89.9999972534181,8|0,0:0|0:0,0:0:0:0:
244,176,127997,5,8,0:0:0:0:
188,244,128197,1,0,0:0:0:0:
184,156,128397,1,8,0:0:0:0:
128,224,128597,1,0,0:0:0:0:
84,76,128797,2,0,L|104:136,1,44.999998626709,8|0,0:0|0:0,0:0:0:0:
120,192,128997,2,0,L|156:296,1,89.9999972534181,0|8,0:0|0:0,0:0:0:0:
216,340,129397,6,0,P|288:340|336:324,1,89.9999972534181,0|8,0:0|0:0,0:0:0:0:
384,292,129797,2,0,P|432:248|444:208,1,89.9999972534181,0|8,0:0|0:0,0:0:0:0:
352,208,130197,1,0,0:0:0:0:
384,124,130397,2,0,P|316:124|280:160,2,89.9999972534181,8|0|8,0:0|0:0|0:0,0:0:0:0:
352,208,130997,2,0,P|296:300|256:296,1,134.999995880127,8|0,0:0|0:0,0:0:0:0:
240,284,131397,5,0,0:0:0:0:
136,312,131597,1,8,0:0:0:0:
36,272,131797,1,8,0:0:0:0:
148,132,131997,2,0,P|184:72|224:48,1,89.9999972534181,8|0,0:0|0:0,0:0:0:0:
328,188,132397,2,0,P|309:228|276:259,1,89.9999972534181,8|0,0:0|0:0,0:0:0:0:
96,236,132797,2,0,P|132:176|172:152,1,89.9999972534181,8|8,0:0|0:0,0:0:0:0:
272,292,133197,2,0,P|253:332|220:363,1,89.9999972534181,8|0,0:0|0:0,0:0:0:0:
136,260,133597,6,0,L|40:184,1,89.9999972534181,8|0,0:0|0:0,0:0:0:0:
188,148,133997,1,8,0:0:0:0:
312,100,134197,1,0,0:0:0:0:
384,156,134397,1,8,0:0:0:0:
252,128,134597,1,8,0:0:0:0:
252,128,134797,1,8,0:0:0:0:
376,76,134997,5,0,0:0:0:0:
244,48,135197,2,0,P|168:52|128:68,1,89.9999972534181,8|0,0:0|0:0,0:0:0:0:
300,164,135597,2,0,P|239:118|198:104,1,89.9999972534181,8|0,0:0|0:0,0:0:0:0:
200,216,135997,1,8,0:0:0:0:
320,276,136197,1,0,0:0:0:0:
304,116,136397,1,8,0:0:0:0:
140,184,136597,2,0,L|96:160,1,44.999998626709,8|0,0:0|0:0,0:0:0:0:
52,136,136797,6,0,P|80:144|108:212,1,89.9999972534181,8|0,0:0|0:0,0:0:0:0:
212,140,137197,1,8,0:0:0:0:
348,228,137597,1,8,0:0:0:0:
192,268,137997,1,8,0:0:0:0:
268,168,138197,5,0,0:0:0:0:
384,120,138397,1,8,0:0:0:0:
284,44,138597,1,0,0:0:0:0:
268,168,138797,2,0,L|220:236,1,44.999998626709,8|0,0:0|0:0,0:0:0:0:
220,240,138997,2,0,P|144:264|112:248,1,89.9999972534181,8|8,0:0|0:0,0:0:0:0:
172,140,139397,1,0,0:0:0:0:
188,16,139597,1,8,0:0:0:0:
288,92,139797,1,0,0:0:0:0:
292,216,139997,5,8,0:0:0:0:
292,349,140197,1,0,0:0:0:0:
427,351,140397,1,8,0:0:0:0:
427,214,140597,1,0,0:0:0:0:
360,108,140797,2,8,L|360:216,1,89.9999972534181
360,324,141197,1,8,0:0:0:0:
360,200,141397,1,8,0:0:0:0:
248,260,141597,1,8,0:0:0:0:
248,136,141797,2,0,P|156:180|168:352,1,269.999991760254,0|4,0:0|0:0,0:0:0:0:
64,64,143797,5,2,0:0:0:0:
172,116,143997,1,8,0:0:0:0:
292,100,144197,1,8,0:0:0:0:
228,204,144397,1,8,0:0:0:0:
344,244,144597,1,0,0:0:0:0:
424,156,144797,2,0,B|288:156|288:156|180:88,1,258.750004935265,12|0,0:0|0:0,0:0:0:0:
112,188,145597,2,0,B|240:188|240:188|376:272,1,258.750004935265,12|0,0:0|0:0,0:0:0:0:
228,252,146397,2,0,B|264:228|264:228|280:172,1,86.2500016450882,8|0,0:0|0:0,0:0:0:0:
284,68,146797,2,0,L|328:40,1,43.1250008225441,8|0,0:0|0:0,0:0:0:0:
320,44,146997,2,0,P|352:100|332:188,1,129.375002467632,8|0,0:0|0:0,0:0:0:0:
346,163,147397,5,4,0:0:0:0:
268,168,147597,1,8,0:0:0:0:
204,124,147797,1,0,0:0:0:0:
152,64,147997,2,0,P|104:88|80:124,1,86.2500016450882,12|8,0:0|0:0,0:0:0:0:
56,184,148397,2,8,P|56:252|80:304,1,86.2500016450882,4|0,0:0|0:0,0:0:0:0:
96,340,148797,2,4,P|132:308|136:252,1,86.2500016450882,12|8,0:0|0:0,0:0:0:0:
144,196,149197,2,8,P|148:136|168:112,1,86.2500016450882,4|0,0:0|0:0,0:0:0:0:
220,172,149597,5,8,0:0:0:0:
320,196,149797,1,12,0:0:0:0:
296,44,149997,1,8,0:0:0:0:
264,212,150197,1,4,0:0:0:0:
428,116,150597,5,2,0:0:0:0:
316,164,150797,1,8,0:0:0:0:
196,164,150997,1,4,0:0:0:0:
84,120,151197,1,8,0:0:0:0:
328,80,151597,2,8,L|400:180,1,86.2500016450882,12|8,0:0|0:0,0:0:0:0:
176,80,151997,2,8,L|120:172,1,86.2500016450882,12|8,0:0|0:0,0:0:0:0:
256,232,152397,1,0,0:0:0:0:
256,232,152597,1,0,0:0:0:0:
172,168,152797,6,0,P|228:124|280:112,1,112.5,12|0,0:0|0:0,0:0:0:0:
266,113,153197,6,0,P|292:192|323:221,1,123.75000377655,12|0,0:0|0:0,0:0:0:0:
319,219,153597,6,0,P|376:156|446:131,1,134.999995880127,12|0,0:0|0:0,0:0:0:0:
420,135,153997,6,0,B|324:156|324:156|236:136,1,179.999994506836,12|0,0:0|0:0,0:0:0:0:
324,72,154797,1,12,0:0:0:0:
324,72,155197,1,12,0:0:0:0:
72,60,155597,1,8,0:0:0:0:
68,84,155697,1,8,0:0:0:0:
68,108,155797,1,8,0:0:0:0:
72,132,155897,1,8,0:0:0:0:
76,156,155997,2,0,P|136:128|176:120,1,89.9999972534181
160,252,156397,6,2,P|224:292|280:284,1,112.5,12|0,0:0|0:0,0:0:0:0:
320,276,156797,6,2,P|368:212|368:160,1,123.75000377655,12|0,0:0|0:0,0:0:0:0:
356,104,157197,6,2,P|312:56|224:52,1,134.999995880127,12|0,0:0|0:0,0:0:0:0:
180,48,157597,6,0,B|108:48|108:48|52:96,1,134.999995880127,8|0,0:0|0:0,0:0:0:0:
84,104,157997,2,0,P|128:132|148:188,1,89.9999972534181,8|0,0:0|0:0,0:0:0:0:
60,188,158397,2,0,B|96:240|96:240|180:240,1,134.999995880127,8|0,0:0|0:0,0:0:0:0:
176,212,158797,2,8,P|192:160|236:132,1,89.9999972534181,8|0,0:0|0:0,0:0:0:0:
284,224,159197,2,0,P|336:256|392:248,1,89.9999972534181,8|0,0:0|0:0,0:0:0:0:
364,148,159597,2,0,P|365:86|330:42,1,89.9999972534181,8|0,0:0|0:0,0:0:0:0:
260,120,159997,2,8,P|206:149|185:201,1,89.9999972534181
72,108,160397,1,8,0:0:0:0:
156,216,160597,1,4,0:0:0:0:
184,64,160797,6,0,P|260:28|328:56,1,134.999995880127,8|0,0:0|0:0,0:0:0:0:
308,68,161197,2,0,B|288:112|288:112|312:168,1,89.9999972534181,8|0,0:0|0:0,0:0:0:0:
404,112,161597,2,0,P|408:180|364:232,1,134.999995880127,8|0,0:0|0:0,0:0:0:0:
340,232,161997,2,0,B|300:208|300:208|256:208,1,89.9999972534181,8|0,0:0|0:0,0:0:0:0:
148,128,162397,2,0,B|100:152|100:152|76:192,1,89.9999972534181,8|8,0:0|0:0,0:0:0:0:
216,164,162797,2,0,B|219:110|219:110|196:69,1,89.9999972534181,8|0,0:0|0:0,0:0:0:0:
148,204,163197,2,0,B|192:233|192:233|239:234,1,89.9999972534181,8|0,0:0|0:0,0:0:0:0:
232,56,163597,2,0,P|180:84|156:116,1,89.9999972534181,8|4,0:0|0:0,0:0:0:0:
412,44,163997,5,8,0:0:0:0:
360,148,164197,1,4,0:0:0:0:
308,44,164397,1,8,0:0:0:0:
408,104,164597,1,4,0:0:0:0:
304,160,164797,2,0,P|236:176|168:148,1,134.999995880127,10|0,0:0|0:0,0:0:0:0:
152,140,165197,2,0,P|112:184|108:232,1,89.9999972534181,8|0,0:0|0:0,0:0:0:0:
240,232,165597,5,8,0:0:0:0:
356,304,165797,1,2,0:0:0:0:
240,232,165997,1,8,0:0:0:0:
384,160,166197,1,2,0:0:0:0:
244,80,166397,2,4,L|200:112,2,44.999998626709,8|0|0,0:0|0:0|0:0,0:0:0:0:
404,56,166797,6,0,P|464:88|480:120,1,89.9999972534181,8|0,0:0|0:0,0:0:0:0:
364,164,167197,1,8,0:0:0:0:
426,252,167397,1,2,0:0:0:0:
337,315,167597,1,8,0:0:0:0:
276,226,167797,1,4,0:0:0:0:
212,120,167997,2,0,P|160:192|156:236,1,134.999995880127,8|0,0:0|0:0,0:0:0:0:
180,224,168397,2,0,P|236:216|296:240,1,89.9999972534181,8|0,0:0|0:0,0:0:0:0:
352,64,168797,6,0,L|244:80,1,89.9999972534181,8|4,0:0|0:0,0:0:0:0:
84,100,169197,2,0,L|173:86,1,89.9999972534181,8|4,0:0|0:0,0:0:0:0:
320,188,169597,1,8,0:0:0:0:
260,356,169797,1,2,0:0:0:0:
160,208,169997,2,0,P|192:152|228:128,1,89.9999972534181,8|0,0:0|0:0,0:0:0:0:
364,80,170397,6,0,P|304:88|260:112,1,89.9999972534181,8|0,0:0|0:0,0:0:0:0:
160,208,170797,1,8,0:0:0:0:
320,188,170997,2,0,P|280:100|192:56,1,179.999994506836,8|0,0:0|0:0,0:0:0:0:
52,32,171597,1,12,0:0:0:0:
132,172,171797,2,0,P|200:272|292:280,1,179.999994506836,8|0,0:0|0:0,0:0:0:0:
276,124,172397,2,0,P|256:176|260:224,1,89.9999972534181,8|0,0:0|0:0,0:0:0:0:
420,200,172797,1,8,0:0:0:0:
364,76,172997,1,4,0:0:0:0:
248,64,173197,1,8,0:0:0:0:
312,232,173397,1,4,0:0:0:0:
144,164,173597,2,0,L|200:188,2,44.999998626709,8|0|0,0:0|0:0|0:0,0:0:0:0:
316,116,173997,5,8,0:0:0:0:
180,120,174197,2,0,B|256:172|256:172|304:280,1,179.999994506836,8|0,0:0|0:0,0:0:0:0:
156,248,174797,1,12,0:0:0:0:
56,156,174997,2,0,P|44:96|136:36,1,179.999994506836,8|0,0:0|0:0,0:0:0:0:
132,120,175597,2,0,P|140:184|108:220,1,89.9999972534181,8|0,0:0|0:0,0:0:0:0:
292,128,175997,2,0,P|240:166|193:157,1,89.9999972534181,8|0,0:0|0:0,0:0:0:0:
364,272,176397,2,0,P|304:246|289:201,1,89.9999972534181,8|0,0:0|0:0,0:0:0:0:
412,104,176797,6,8,P|368:132|328:136,1,89.9999972534181
232,120,177197,2,0,P|196:104|132:104,1,89.9999972534181,8|4,0:0|0:0,0:0:0:0:
44,116,177597,1,8,0:0:0:0:
44,116,177797,1,2,0:0:0:0:
68,212,177997,2,0,P|124:236|180:232,1,89.9999972534181,8|0,0:0|0:0,0:0:0:0:
252,232,178397,2,0,P|320:224|364:232,1,89.9999972534181,8|2,0:0|0:0,0:0:0:0:
424,280,178797,1,8,0:0:0:0:
464,188,178997,1,4,0:0:0:0:
364,200,179197,1,8,0:0:0:0:
232,52,179597,5,8,0:0:0:0:
232,52,179797,1,2,0:0:0:0:
112,188,179997,1,8,0:0:0:0:
112,188,180197,1,2,0:0:0:0:
284,140,180397,2,8,P|344:132|396:160,1,89.9999972534181
256,280,180797,2,0,P|320:244|328:224,1,89.9999972534181,8|0,0:0|0:0,0:0:0:0:
168,144,181197,2,0,P|224:172|256:212,1,89.9999972534181,8|0,0:0|0:0,0:0:0:0:
140,280,181597,6,0,P|192:308|244:308,1,89.9999972534181,8|0,0:0|0:0,0:0:0:0:
276,304,181897,1,0,0:0:0:0:
328,284,181997,2,0,P|368:256|388:208,1,89.9999972534181,8|0,0:0|0:0,0:0:0:0:
384,112,182397,2,0,P|332:144|280:144,1,89.9999972534181,8|8,0:0|0:0,0:0:0:0:
252,140,182697,1,0,0:0:0:0:
200,128,182797,2,0,P|140:120|96:132,2,89.9999972534181,8|0|4,0:0|0:0|0:0,0:0:0:0:
336,296,183597,6,2,P|400:264|424:216,1,89.9999972534181,10|0,0:0|0:0,0:0:0:0:
460,156,183997,1,10,0:0:0:0:
356,180,184197,1,2,0:0:0:0:
256,140,184397,1,10,0:0:0:0:
152,44,184597,2,2,P|96:128|120:216,1,179.999994506836,8|0,0:0|0:0,0:0:0:0:
208,148,185197,2,2,L|312:176,1,89.9999972534181,8|0,0:0|0:0,0:0:0:0:
160,92,185597,2,2,L|68:148,1,89.9999972534181,8|0,0:0|0:0,0:0:0:0:
220,176,185997,2,2,L|296:129,1,89.9999972534181,8|4,0:0|0:0,0:0:0:0:
172,200,186397,6,10,L|80:256,1,89.9999972534181,8|0,0:0|0:0,0:0:0:0:
220,176,186797,1,8,0:0:0:0:
348,112,186997,2,2,B|260:160|260:160|172:160,1,179.999994506836,8|0,0:0|0:0,0:0:0:0:
280,56,187597,1,8,0:0:0:0:
140,88,187797,2,0,B|152:152|216:184|224:248,1,179.999994506836
240,100,188397,2,2,P|196:144|180:192,1,89.9999972534181,8|0,0:0|0:0,0:0:0:0:
364,188,188797,2,2,P|300:196|256:172,1,89.9999972534181,8|0,0:0|0:0,0:0:0:0:
460,184,189197,2,2,P|436:124|392:100,1,89.9999972534181,10|6,0:0|0:0,0:0:0:0:
48,192,189997,6,2,B|88:204|116:180|156:200,1,89.9999972534181,8|0,0:0|0:0,0:0:0:0:
68,120,190397,1,8,0:0:0:0:
124,268,190597,1,2,0:0:0:0:
96,192,190797,1,8,0:0:0:0:
216,156,190997,2,2,B|300:132|300:132|392:144,1,179.999994506836,8|0,0:0|0:0,0:0:0:0:
304,236,191597,2,2,P|352:216|380:172,1,89.9999972534181,8|0,0:0|0:0,0:0:0:0:
272,112,191997,5,8,0:0:0:0:
101,110,192197,1,2,0:0:0:0:
186,27,192397,1,8,0:0:0:0:
187,195,192597,1,2,0:0:0:0:
264,292,192797,2,2,P|312:292|356:268,1,89.9999972534181,8|0,0:0|0:0,0:0:0:0:
296,224,193197,2,2,P|337:200|363:157,1,89.9999972534181,10|2,0:0|0:0,0:0:0:0:
288,152,193597,5,8,0:0:0:0:
204,220,193797,1,10,0:0:0:0:
124,148,193997,1,8,0:0:0:0:
224,104,194197,2,2,P|304:72|364:168,1,209.999993591309,8|0,0:0|0:0,0:0:0:0:
44,344,195797,5,2,0:0:0:0:
116,352,195997,2,2,P|172:352|200:348,1,67.4999979400635,8|0,0:0|0:0,0:0:0:0:
256,332,196397,1,8,0:0:0:0:
324,304,196597,1,8,0:0:0:0:
392,272,196797,2,0,P|432:240|444:208,1,67.4999979400635,8|0,0:0|0:0,0:0:0:0:
368,200,197197,6,0,L|328:160,3,33.7499989700318,0|0|0|0,0:0|0:0|0:0|0:0,0:0:0:0:
304,188,197597,6,0,L|320:128,3,37.5,0|0|0|0,0:0|0:0|0:0|0:0,0:0:0:0:
276,124,197997,6,0,L|336:100,3,41.2500012588501,0|0|0|0,0:0|0:0|0:0|0:0,0:0:0:0:
300,60,198397,6,0,L|360:76,8,44.999998626709,0|0|0|0|0|0|0|0|0,0:0|0:0|0:0|0:0|0:0|0:0|0:0|0:0|0:0,0:0:0:0:
56,200,200797,6,0,P|88:156|128:140,1,93.75,8|0,0:0|0:0,0:0:0:0:
228,140,201197,1,8,0:0:0:0:
332,144,201397,2,0,P|416:112|456:24,1,187.5,8|0,0:0|0:0,0:0:0:0:
340,48,201997,1,12,0:0:0:0:
440,136,202197,2,0,P|416:204|308:248,1,187.5,8|0,0:0|0:0,0:0:0:0:
308,116,202797,2,0,P|332:168|316:252,1,140.625,8|0,0:0|0:0,0:0:0:0:
318,247,203197,2,0,P|288:208|244:196,1,93.75,8|0,0:0|0:0,0:0:0:0:
208,320,203597,5,8,0:0:0:0:
88,264,203797,5,4,0:0:0:0:
196,176,203997,6,0,P|220:112|252:88,1,93.75,8|0,0:0|0:0,0:0:0:0:
340,196,204397,1,8,0:0:0:0:
444,100,204597,2,0,P|360:56|256:88,1,187.5,8|0,0:0|0:0,0:0:0:0:
340,196,205197,1,12,0:0:0:0:
340,196,205397,2,0,P|284:236|168:212,1,187.5
144,200,205897,1,0,0:0:0:0:
120,180,205997,2,0,B|140:136|140:136|184:104,1,93.75,8|0,0:0|0:0,0:0:0:0:
304,168,206397,2,0,B|248:184|248:184|208:176,1,93.75,8|0,0:0|0:0,0:0:0:0:
316,84,206797,2,0,L|272:104,2,46.875,8|0|0,0:0|0:0|0:0,0:0:0:0:
452,124,207197,5,8,0:0:0:0:
340,36,207397,1,2,0:0:0:0:
280,164,207597,1,8,0:0:0:0:
140,160,207797,1,2,0:0:0:0:
156,300,207997,1,8,0:0:0:0:
24,348,208197,1,2,0:0:0:0:
24,348,208297,1,2,0:0:0:0:
24,348,208397,1,10,0:0:0:0:
8,180,208597,1,2,0:0:0:0:
92,32,208797,5,8,0:0:0:0:
236,72,208997,1,2,0:0:0:0:
128,176,209197,1,8,0:0:0:0:
272,216,209397,1,2,0:0:0:0:
344,232,209597,1,12,0:0:0:0:
448,56,209997,5,8,0:0:0:0:
388,100,210197,1,2,0:0:0:0:
240,72,210397,1,8,0:0:0:0:
104,140,210597,1,2,0:0:0:0:
232,220,210797,1,8,0:0:0:0:
368,152,210997,1,2,0:0:0:0:
220,148,211197,2,0,L|344:152,1,93.75
368,152,211597,5,12,0:0:0:0:
368,152,211797,1,0,0:0:0:0:
240,72,211997,2,0,L|340:16,1,93.75,8|8,0:0|0:0,0:0:0:0:
264,164,212397,2,8,L|182:209,1,93.75
148,224,212697,1,0,0:0:0:0:
112,240,212797,2,0,B|68:264|68:264|44:312,1,93.75,8|0,0:0|0:0,0:0:0:0:
120,172,213197,2,0,B|164:148|164:148|183:108,1,93.75,8|0,0:0|0:0,0:0:0:0:
52,36,213597,6,0,P|84:96|152:136,1,140.625,8|0,0:0|0:0,0:0:0:0:
180,140,213997,1,8,0:0:0:0:
216,140,214097,1,0,0:0:0:0:
252,140,214197,2,0,P|352:164|420:228,1,187.5,8|0,0:0|0:0,0:0:0:0:
280,288,214797,1,8,0:0:0:0:
376,172,214997,2,0,B|292:228|292:228|184:228,1,187.5,8|0,0:0|0:0,0:0:0:0:
388,100,215597,2,0,L|468:52,1,93.75,8|0,0:0|0:0,0:0:0:0:
320,64,215997,2,0,L|239:111,1,93.75,8|4,0:0|0:0,0:0:0:0:
92,96,216397,5,8,0:0:0:0:
60,196,216597,5,2,0:0:0:0:
112,284,216797,5,8,0:0:0:0:
296,192,217197,5,8,0:0:0:0:
192,196,217397,2,2,P|224:112|320:80,1,187.5,8|0,0:0|0:0,0:0:0:0:
384,148,217997,1,12,0:0:0:0:
332,240,218197,2,2,P|240:304|156:296,1,187.5,10|2,0:0|0:0,0:0:0:0:
68,272,218797,2,8,L|152:208,1,93.75
68,144,219197,2,4,L|152:80,1,93.75
244,68,219597,5,10,0:0:0:0:
375,118,219797,1,6,0:0:0:0:
324,249,219997,1,10,0:0:0:0:
193,199,220197,1,6,0:0:0:0:
375,118,220397,1,0,0:0:0:0:
375,118,220597,1,2,0:0:0:0:
193,199,220797,2,0,L|284:156,1,93.75,8|4,0:0|0:0,0:0:0:0:
244,68,221197,6,8,L|152:116,1,93.75
64,148,221597,1,8,0:0:0:0:
156,268,221797,1,2,0:0:0:0:
288,200,221997,1,8,0:0:0:0:
416,280,222197,1,2,0:0:0:0:
488,148,222397,2,0,P|432:172|376:184,1,93.75,8|0,0:0|0:0,0:0:0:0:
252,196,222797,5,8,0:0:0:0:
240,212,222997,1,2,0:0:0:0:
352,116,223197,1,8,0:0:0:0:
340,132,223397,1,2,0:0:0:0:
464,44,223597,1,8,0:0:0:0:
452,60,223797,1,2,0:0:0:0:
304,52,223997,2,0,P|240:100|200:104,1,93.75,8|0,0:0|0:0,0:0:0:0:
116,124,224397,2,0,P|60:136|16:164,1,93.75,8|0,0:0|0:0,0:0:0:0:
104,236,224797,5,4,0:0:0:0:
320,304,225197,5,4,0:0:0:0:
92,52,225597,6,0,P|148:76|192:80,1,93.75,8|0,0:0|0:0,0:0:0:0:
224,80,225897,1,0,0:0:0:0:
268,80,225997,2,0,P|320:80|384:96,1,93.75,8|0,0:0|0:0,0:0:0:0:
392,236,226397,5,12,0:0:0:0:
248,192,226597,2,0,L|304:212,1,46.875
256,192,226797,12,0,229197,0:0:0:0:
348,100,229597,6,0,P|248:116|180:188,1,187.5,0|0,0:0|0:0,0:0:0:0:
256,192,232197,6,0,L|256:140,1,46.875
256,192,232397,12,0,235397,0:0:0:0:
60,116,235797,5,2,0:0:0:0:
120,256,235997,2,0,P|168:232|200:180,2,93.75,8|0|0,0:0|0:0|0:0,0:0:0:0:
256,224,236597,6,0,P|280:164|272:132,1,86.2500016450882,0|8,0:0|0:0,0:0:0:0:
140,164,237197,1,8,0:0:0:0:
240,72,237597,6,8,P|280:116|288:148,2,86.2500016450882,0|0|0,0:0|0:0|0:0,0:0:0:0:
356,140,238197,6,0,P|356:196|336:224,2,78.7499975967408,0|8|0,0:0|0:0|0:0,0:0:0:0:
224,160,238797,1,8,0:0:0:0:
224,160,239197,1,8,0:0:0:0:
352,72,239797,5,2,0:0:0:0:
364,88,239897,5,2,0:0:0:0:
376,104,239997,5,2,0:0:0:0:
268,152,240197,5,8,0:0:0:0:
156,188,240397,2,0,P|104:212|68:244,1,78.7499975967408,8|0,0:0|0:0,0:0:0:0:
188,292,240797,2,0,P|372:288|460:168,1,314.999990386963,8|0,0:0|0:0,0:0:0:0:
