osu file format v5

[General]
AudioFilename: Hitomi Takahashi - Candy Line Single - 01. CANDY LINE.mp3
AudioLeadIn: 0
PreviewTime: 40701
Countdown: 1
SampleSet: Soft
StackLeniency: 0.2
Mode: 0
LetterboxInBreaks: 1

[Editor]
Bookmarks: 7072,39529,75037,92498,107967,139607,173357,222576
DistanceSpacing: 0.800000011920929
BeatDivisor: 4
GridSize: 8

[Metadata]
Title:Candy Line
Artist:Takahashi Hitomi
Creator:HarryOrunitia
Version:Hard
Source:Gintama 4th Ending
Tags:Hitomi Takahashi Candy Line Jpop Gintama Anime

[Difficulty]
HPDrainRate:7
CircleSize:5
OverallDifficulty:7
SliderMultiplier:1.4
SliderTickRate:1

[Events]
//Background and Video events
0,0,"bscap0000.jpg"
Video,-9100,"Takahashi Hitomi - Candy Line (2).avi"
//Break Periods
2,60579,62526
2,68548,70026
2,72532,76823
2,123626,130026
2,159953,161901
2,193703,195651
2,203079,224948
//Storyboard Layer 0 (Background)
//Storyboard Layer 1 (Fail)
//Storyboard Layer 2 (Pass)
//Storyboard Layer 3 (Foreground)
//Storyboard Sound Samples
//Background Colour Transformations
3,100,163,162,255

[TimingPoints]
1551,468.75,4,2,0,100,1,0
40704,-50,4,1,0,70,0,1
75041,-100,4,2,0,100,0,0
139607,-50,4,1,0,70,0,0
140311,-50,4,1,0,70,0,1
173357,-50,4,1,0,70,0,0
174060,-50,4,1,0,70,0,1
222576,-100,4,2,0,100,0,0
240506,-50,4,2,0,100,0,0

[Colours]
Combo1 : 0,128,0
Combo2 : 254,184,210
Combo3 : 64,0,64
Combo4 : 211,1,22

[HitObjects]
408,80,8348,1,0
352,80,8582,1,0
380,32,8816,2,2,B|380:184,1,140
216,280,9988,5,2
160,280,10223,1,0
104,280,10457,1,2
160,280,10691,2,0,B|160:176,3,70,0|0|0|2
432,64,12801,5,2
376,64,13035,1,0
404,112,13269,1,2
376,64,13504,1,0
432,64,13738,1,2
404,112,13973,1,0
404,112,14207,1,2
405,115,14441,2,0,B|405:19,3,70,0|0|0|2
64,48,15848,5,0
120,48,16082,1,2
91,96,16316,2,0,B|91:195,3,70,0|0|0|2
264,232,17488,5,2
320,232,17723,1,0
264,232,17957,1,2
320,232,18191,1,0
208,232,18660,1,2
328,192,20301,5,0
312,136,20535,1,0
256,112,20769,1,0
200,136,21004,1,0
184,192,21238,1,0
208,240,21473,1,0
264,256,21707,1,0
320,240,21941,2,0,L|198:137,1,140,0|2
480,32,24051,5,4
32,352,24754,1,4
368,192,25691,5,4
312,192,25926,1,2
256,192,26160,1,4
200,192,26394,1,2
144,192,26629,1,4
256,40,28035,5,0
256,96,28269,1,2
256,152,28504,1,0
256,208,28738,1,2
256,264,28973,1,0
160,328,29441,2,0,L|376:328,1,210,0|4
32,192,31551,5,4
480,192,32254,1,4
256,304,33191,5,4
256,248,33426,1,2
256,192,33660,1,4
256,136,33894,1,2
256,80,34129,1,4
216,216,35301,6,0,B|216:136,1,70,0|0
304,152,35769,2,0,B|304:224,1,70
312,280,36238,2,2,L|192:280,2,105
256,192,37410,12,0,39051
32,64,40926,6,0,L|88:64|104:24|128:80|160:24|192:80|216:24|248:80|272:24|304:80|336:24|368:80|400:24|424:72|496:72,1,840
424,288,42801,5,0
312,288,43035,1,0
200,288,43269,1,2
88,288,43504,1,0
256,144,43973,1,2
256,32,45144,5,2
88,192,45613,1,2
256,352,46082,1,2
432,192,46551,1,2
224,192,47019,5,0
336,192,47254,2,2,L|400:224|344:280,2,140
256,192,48426,12,0,49832
256,24,50301,5,2
200,120,50535,1,0
312,120,50769,1,2
256,216,51004,2,2,L|368:312|468:213,1,280
88,192,52644,6,2,L|88:48|224:48,1,280
424,192,53582,2,2,L|424:336|288:336,1,280
312,224,54285,1,0
200,224,54519,1,2
256,128,54754,1,0
256,352,55223,1,2
256,64,55926,5,2
416,192,56160,1,0
256,328,56394,1,2
96,192,56629,1,2
256,64,57332,5,2
96,192,57566,1,0
256,328,57801,1,2
416,192,58035,1,0
184,80,58738,6,0,L|336:80,3,140
368,296,59910,1,2
256,296,60144,1,0
144,296,60379,1,2
472,336,63426,5,2
384,272,63660,1,0
296,208,63894,1,2
208,136,64129,1,2
64,40,64832,5,2
160,104,65066,1,0
248,168,65301,1,2
344,232,65535,1,2
64,40,66238,5,0
64,40,66473,1,0
64,40,66707,1,0
64,40,67176,1,2
188,227,67644,2,2,L|332:227,1,140
464,40,68348,1,2
256,40,70926,5,0
64,160,71394,1,0
176,160,71629,1,4
368,272,72098,1,0
256,272,72332,1,0
104,304,77723,5,0
160,304,77957,1,2
216,304,78191,1,0
192,256,78426,1,2
160,208,78660,1,0
128,256,78894,1,10
72,112,79363,5,2
128,112,79598,1,0
184,112,79832,1,10
240,112,80066,2,0,L|320:112,2,70,0|0|0
184,112,80769,1,10
184,320,82176,6,0,L|280:320,1,70,10|0
256,264,82644,2,0,L|344:264,1,70,10|0
328,208,83113,2,0,L|416:208,1,70,10|0
400,152,83582,1,10
400,96,83816,2,0,L|304:96,2,70,0|10|0
456,96,84519,1,10
288,96,85223,5,0
256,96,85340,1,0
224,96,85457,1,10
224,152,85691,2,0,B|224:248,2,70,0|10|0
224,96,86394,1,10
336,96,86863,5,10
336,152,87098,1,0
336,208,87332,1,10
336,152,87566,1,0
336,96,87801,1,10
336,152,88035,1,0
336,208,88269,1,10
80,320,89676,6,0,L|160:304,1,70,10|0
152,248,90144,2,0,L|224:280,1,70,10|0
232,224,90613,2,2,L|304:200,1,70,10|0
312,144,91082,2,0,L|384:168,1,70,10|0
400,112,91551,2,2,L|472:96,2,70,2|2|10
176,64,92957,5,2
232,64,93191,1,0
152,144,93660,1,0
208,144,93894,1,10
264,144,94129,1,0
320,144,94363,1,2
320,200,94598,1,0
376,200,94832,1,10
432,200,95066,1,0
432,256,95301,1,2
376,256,95535,5,0
320,256,95769,1,10
320,312,96004,1,0
264,312,96238,1,2
208,312,96473,1,0
208,256,96707,1,10
208,200,96941,1,0
176,152,97176,6,2,B|248:112,1,70
272,72,97644,2,2,B|328:128,1,70,10|2
360,160,98113,2,2,B|424:104,1,70
440,160,98582,2,2,B|504:208,1,70,10|2
432,296,99285,1,0
384,264,99519,1,10
328,264,99754,1,0
272,264,99988,1,2
216,264,100223,1,0
160,264,100457,1,10
160,208,100691,6,2,L|160:128|232:128,1,140,10|6
272,128,101394,2,2,L|352:128,1,70,2|6
400,128,101863,2,2,L|400:200,1,70,2|6
400,256,102332,1,2
344,256,102566,1,0
288,256,102801,2,2,L|200:256,3,70,2|2|2|6
160,256,103738,1,2
160,312,103973,1,0
104,312,104207,1,2
48,312,104441,1,0
48,256,104676,6,2,L|48:184,1,70,2|6
104,184,105144,2,2,L|176:184,1,70
232,184,105613,2,2,L|232:104,3,70,2|2|2|6
288,112,106551,1,2
288,168,106785,1,0
344,168,107019,1,2
400,168,107254,1,0
456,168,107488,1,2
360,112,107957,5,12
256,48,108426,6,8,L|256:208,1,140,8|8
256,240,109129,1,4
224,336,110066,6,8,L|320:336,4,70,8|8|8|8|12
104,192,112410,5,0
136,144,112644,1,8
168,192,112879,1,0
224,192,113113,1,8
256,144,113348,1,0
288,192,113582,1,0
320,144,113816,2,8,L|400:216|488:128,1,210
256,352,115926,5,8
256,32,116629,1,4
256,304,117566,5,0
280,288,117683,1,0
304,272,117801,1,8
256,248,118035,1,0
256,216,118152,1,0
256,192,118269,1,8
256,136,118504,1,0
208,168,118738,2,8,L|368:168,1,140,8|12
408,72,119676,5,8
408,128,119910,1,0
408,184,120144,1,8
408,240,120379,1,0
408,264,120496,1,0
408,288,120613,2,8,L|288:288,2,105
256,192,121785,12,0,123426
256,72,130926,5,2
352,272,131805,5,2
352,272,132039,1,0
296,272,132274,1,2
240,272,132508,1,2
376,48,133621,5,2
144,48,133973,1,2
256,192,134383,1,2
120,328,135613,5,2
256,328,136082,1,2
256,328,136551,2,2,L|256:88,1,210
256,256,137664,1,2
256,192,138426,12,0,139832
480,328,140301,6,0,L|424:328|408:288|384:344|352:288|320:344|296:288|264:344|240:288|208:344|176:288|144:344|112:288|88:336|16:336,1,840
136,136,142176,5,0
224,64,142410,1,0
304,136,142644,1,0
224,216,142879,2,2,L|72:216,2,140
120,320,144519,6,2,L|144:344|200:328,2,70
216,272,144988,6,2,L|248:256|304:272,2,70
320,320,145457,6,2,L|352:344|408:320,2,70
400,248,145926,5,2
400,136,146160,1,0
304,192,146394,1,0
192,192,146629,5,0
136,192,146746,1,2
136,136,146863,1,0
192,136,146980,1,2
136,136,147098,1,2
164,27,147332,1,2
256,192,147801,12,0,149207
400,104,149676,5,2
400,216,149910,1,0
304,160,150144,1,2
202,121,150379,5,0
176,72,150496,1,0
232,72,150613,1,2
176,168,150848,5,2
204,216,150965,1,0
232,168,151082,1,0
256,24,152019,5,2
56,192,152488,1,2
256,360,152957,1,2
424,208,153426,1,2
368,208,153543,1,0
312,208,153660,1,0
200,208,153894,1,0
128,120,154129,2,2,L|408:120,1,280
208,256,155301,6,2,L|256:304|320:248,3,140
208,128,156707,6,2,L|256:80|320:136,3,140
360,288,158113,5,0
144,288,158348,1,0
144,88,158582,1,0
360,88,158816,1,0
205,233,159285,6,2,L|316:134,2,140,2|2|2
96,240,162801,6,2,L|48:192|104:128,3,140
416,240,164207,6,2,L|464:192|408:128,3,140
256,328,165613,5,0
200,224,165848,1,0
256,224,165965,1,0
312,224,166082,1,0
136,80,166551,1,2
360,80,167019,2,2,L|264:80,2,70
256,192,167723,12,0,169598
256,56,170301,5,0
256,168,170769,2,0,L|120:248,1,140
240,280,171473,2,0,L|376:200,1,140
216,192,173348,6,0,B|304:192,5,70
256,192,174051,12,0,175457
72,144,175926,6,2,L|104:256|144:128|184:264|208:208,1,420
232,136,176863,2,0,L|264:64|288:120|304:96,2,140,0|0|2
256,352,178269,5,2
448,192,178738,1,2
256,32,179207,1,2
64,192,179676,1,2
176,192,179910,6,0,L|184:232|240:248,2,70
264,120,180379,2,2,L|328:136|336:240,3,140
256,192,181316,1,2
256,192,181551,12,0,182957
152,144,183426,6,2,L|168:104|224:96,2,70
248,192,183894,1,2
288,296,184129,2,2,L|352:256|352:160,3,140
256,360,185769,6,2,L|400:360|400:224,1,280
256,24,186707,2,2,L|112:24|112:160,1,280
224,168,187410,1,0
256,120,187527,1,0
288,168,187644,1,2
328,272,187879,2,2,L|184:272,3,140
40,48,189051,5,2
120,120,189285,2,2,B|184:176,2,70
40,48,189754,1,2
472,336,190457,5,2
384,264,190691,2,2,B|320:208,2,70
472,336,191160,1,2
352,88,191863,5,2
352,304,192098,1,2
152,304,192332,1,2
152,88,192566,1,2
256,261,193035,2,2,L|256:117,2,140
208,128,196551,6,2,L|256:80|320:136,3,140
208,256,197957,6,2,L|256:304|320:248,3,140
256,64,199363,5,2
200,160,199598,1,0
312,160,199832,1,2
328,272,200066,2,2,L|176:272,2,140
256,176,200769,1,0
256,64,201004,1,0
256,192,201121,12,0,202879
256,296,225848,5,2
200,200,226316,1,2
312,200,226785,1,0
256,40,227488,5,2
256,96,227723,1,0
256,152,227957,1,2
256,208,228191,2,2,L|256:368,1,140
224,56,230301,6,2,L|304:56,1,70
296,112,230769,2,2,L|216:112,1,70
224,168,231238,2,2,L|304:168,1,70
256,208,231707,1,2
224,256,231941,2,2,L|296:256,2,70
64,48,233348,5,0
120,48,233582,1,2
176,48,233816,1,0
120,144,234285,1,2
72,304,234988,5,2
128,304,235223,1,0
184,304,235457,1,2
240,304,235691,1,0
158,227,236160,1,2
288,320,237801,6,2,L|208:320,1,70
168,296,238269,6,2,L|120:232,1,70
120,184,238738,6,2,L|128:96,1,70
168,80,239207,6,2,L|248:64,1,70
288,72,239676,6,2,L|360:96|400:168,1,140
480,328,240613,6,2,L|424:328|408:288|384:344|352:288|320:344|296:288|264:344|240:288|208:344|176:288|144:344|112:288|88:336|16:336,1,840
