osu file format v11

[General]
AudioFilename: Bokutachi no Yukue.mp3
AudioLeadIn: 0
PreviewTime: 61031
Countdown: 0
SampleSet: Normal
StackLeniency: 0.6
Mode: 1
LetterboxInBreaks: 1

[Editor]
DistanceSpacing: 0.8
BeatDivisor: 8
GridSize: 8

[Metadata]
Title:Bokutachi no Yukue
TitleUnicode:僕たちの行方
Artist:Takahashi Hitomi
ArtistUnicode:高橋瞳
Creator:minyeob
Version:lepidon! - Taiko Oni
Source:Mobile Suit Gundam SEED Destiny
Tags:lepidopodus
BeatmapID:54313
BeatmapSetID:14832

[Difficulty]
HPDrainRate:7
CircleSize:6
OverallDifficulty:5
ApproachRate:5
SliderMultiplier:1.4
SliderTickRate:1

[Events]
//Background and Video events
0,0,"Seed background.jpg"
//Break Periods
2,103659,109748
2,174143,182582
//Storyboard Layer 0 (Background)
//Storyboard Layer 1 (Fail)
//Storyboard Layer 2 (Pass)
//Storyboard Layer 3 (Foreground)
//Storyboard Sound Samples
//Background Colour Transformations
3,100,163,162,255

[TimingPoints]
12270,587.371512481645,4,1,0,100,1,0
12270,-50,4,1,0,100,0,0
32240,587.371512481645,4,1,0,100,1,0
42813,587.371512481645,4,1,0,100,1,0
80404,-50,4,1,0,100,0,0
82754,-50,4,1,0,100,0,1
103899,-100,4,1,0,100,0,0
150889,-50,4,1,0,100,0,0
153239,-50,4,1,0,100,0,1
174384,-100,4,1,0,100,0,0
203753,587.371512481645,4,1,0,100,1,0
224898,-50,4,1,0,100,0,0
228423,-50,4,1,0,100,0,1
249568,-100,4,1,0,100,0,0

[Colours]
Combo1 : 192,192,192
Combo2 : 255,255,128
Combo3 : 255,128,192
Combo4 : 128,64,64

[HitObjects]
90,84,12270,1,0,0:0:0
185,77,12563,1,0,0:0:0
279,93,12857,1,8,0:0:0
373,109,13151,1,8,0:0:0
411,137,13297,1,0,0:0:0
114,294,14325,1,0,0:0:0
97,199,14619,1,0,0:0:0
105,103,14913,1,0,0:0:0
193,64,15206,1,8,0:0:0
288,59,15500,1,8,0:0:0
332,78,15647,1,0,0:0:0
93,143,16968,1,0,0:0:0
188,134,17262,1,0,0:0:0
235,125,17409,1,0,0:0:0
282,134,17556,1,8,0:0:0
377,141,17850,1,0,0:0:0
405,179,17996,1,0,0:0:0
399,226,18143,1,0,0:0:0
390,273,18290,1,8,0:0:0
296,296,18584,1,0,0:0:0
249,283,18731,1,0,0:0:0
205,262,18877,1,0,0:0:0
196,214,19024,1,8,0:0:0
186,166,19171,1,0,0:0:0
180,118,19318,1,0,0:0:0
415,73,19905,1,0,0:0:0
405,168,20199,1,0,0:0:0
399,215,20346,2,0,L|304:311|107:261|104:96,1,490
152,95,21667,5,0,0:0:0
242,63,21961,1,8,0:0:0
332,94,22255,1,0,0:0:0
372,120,22402,1,0,0:0:0
409,149,22549,1,8,0:0:0
438,187,22695,1,0,0:0:0
424,233,22842,1,0,0:0:0
340,280,23136,1,8,0:0:0
292,276,23283,1,0,0:0:0
199,249,23576,1,0,0:0:0
168,211,23723,1,8,0:0:0
142,170,23870,1,0,0:0:0
138,122,24017,1,0,0:0:0
227,86,24311,1,8,0:0:0
322,95,24604,1,0,0:0:0
368,107,24751,1,0,0:0:0
412,124,24898,1,8,0:0:0
453,148,25045,1,0,0:0:0
435,192,25192,1,0,0:0:0
420,237,25339,1,0,0:0:0
378,261,25485,1,8,0:0:0
330,264,25632,1,0,0:0:0
235,247,25926,1,0,0:0:0
203,211,26073,1,8,0:0:0
174,172,26220,1,0,0:0:0
164,124,26366,1,0,0:0:0
225,50,26660,1,0,0:0:0
271,60,26807,1,0,0:0:0
315,77,26954,1,8,0:0:0
391,135,27247,1,0,0:0:0
410,178,27394,1,0,0:0:0
438,216,27541,1,0,0:0:0
420,260,27688,1,8,0:0:0
323,263,27982,1,0,0:0:0
275,258,28129,1,0,0:0:0
228,245,28275,1,0,0:0:0
190,215,28422,1,8,0:0:0
125,143,28716,2,0,L|117:59|457:61|421:326|216:328|128:272,1,980
96,217,32240,5,0,0:0:0
89,145,32680,1,0,0:0:0
92,121,32827,1,8,0:0:0
137,106,33121,1,0,0:0:0
160,102,33267,1,0,0:0:0
183,98,33414,1,0,0:0:0
206,98,33561,1,8,0:0:0
230,99,33708,1,0,0:0:0
277,103,34002,1,8,0:0:0
322,117,34295,1,0,0:0:0
361,143,34589,1,0,0:0:0
406,198,35030,1,0,0:0:0
395,219,35176,1,8,0:0:0
349,234,35470,1,0,0:0:0
325,237,35617,1,0,0:0:0
301,238,35764,1,0,0:0:0
277,244,35911,1,8,0:0:0
253,238,36057,1,0,0:0:0
212,211,36351,1,8,0:0:0
179,175,36645,1,0,0:0:0
174,127,36938,1,0,0:0:0
240,98,37379,1,0,0:0:0
264,97,37526,1,8,0:0:0
310,108,37820,1,0,0:0:0
332,116,37966,1,0,0:0:0
353,126,38113,1,0,0:0:0
374,136,38260,1,8,0:0:0
390,152,38407,1,0,0:0:0
411,194,38701,1,8,0:0:0
381,232,38994,1,0,0:0:0
256,192,39288,12,0,42225,0:0:0
104,79,42813,5,0,0:0:0
127,74,42959,1,0,0:0:0
198,81,43400,1,8,0:0:0
245,84,43694,1,0,0:0:0
268,85,43840,1,0,0:0:0
315,88,44134,1,0,0:0:0
338,92,44281,1,8,0:0:0
382,110,44575,1,0,0:0:0
401,221,45162,1,0,0:0:0
384,238,45309,1,0,0:0:0
313,253,45749,1,8,0:0:0
267,267,46043,1,0,0:0:0
243,262,46190,1,0,0:0:0
214,223,46484,1,8,0:0:0
196,206,46630,1,0,0:0:0
164,169,46924,1,8,0:0:0
174,147,47071,1,0,0:0:0
184,125,47218,1,0,0:0:0
210,85,47511,1,0,0:0:0
232,75,47658,1,0,0:0:0
302,87,48099,1,8,0:0:0
343,111,48393,1,0,0:0:0
363,124,48539,1,0,0:0:0
402,150,48833,1,0,0:0:0
420,164,48980,1,8,0:0:0
378,250,49567,1,0,0:0:0
331,263,49861,1,0,0:0:0
349,218,50155,1,0,0:0:0
283,267,50448,1,8,0:0:0
259,263,50595,1,0,0:0:0
216,241,50889,1,8,0:0:0
199,223,51036,1,0,0:0:0
179,178,51329,1,8,0:0:0
188,156,51476,1,0,0:0:0
337,79,52210,5,0,0:0:0
358,88,52357,1,0,0:0:0
389,152,52798,1,8,0:0:0
410,194,53092,1,0,0:0:0
405,217,53238,1,0,0:0:0
375,254,53532,1,0,0:0:0
354,265,53679,1,8,0:0:0
306,256,53973,1,0,0:0:0
210,246,54560,1,0,0:0:0
186,240,54707,1,0,0:0:0
144,181,55147,1,8,0:0:0
150,133,55441,1,0,0:0:0
160,111,55588,1,0,0:0:0
206,100,55882,1,8,0:0:0
230,99,56028,1,0,0:0:0
277,105,56322,1,8,0:0:0
299,114,56469,1,0,0:0:0
321,123,56616,1,0,0:0:0
350,161,56909,1,0,0:0:0
363,180,57056,1,0,0:0:0
384,248,57497,1,8,0:0:0
360,289,57790,1,0,0:0:0
336,295,57937,1,0,0:0:0
288,288,58231,1,0,0:0:0
264,289,58378,1,8,0:0:0
223,262,58672,1,0,0:0:0
194,223,58965,1,0,0:0:0
179,204,59112,1,0,0:0:0
162,186,59259,1,0,0:0:0
144,141,59553,1,0,0:0:0
172,102,59846,1,8,0:0:0
193,91,59993,1,0,0:0:0
240,87,60287,1,8,0:0:0
263,88,60434,1,0,0:0:0
310,97,60727,1,8,0:0:0
332,105,60874,1,0,0:0:0
406,199,61608,5,0,0:0:0
336,264,62196,1,8,0:0:0
288,256,62489,1,0,0:0:0
198,221,63077,1,0,0:0:0
183,201,63224,1,8,0:0:0
172,179,63371,1,8,0:0:0
199,86,63958,1,0,0:0:0
246,80,64252,1,8,0:0:0
269,81,64398,1,8,0:0:0
337,102,64839,1,8,0:0:0
355,116,64986,1,8,0:0:0
391,177,65426,1,8,0:0:0
396,200,65573,1,8,0:0:0
357,261,66014,1,8,0:0:0
333,263,66161,1,8,0:0:0
309,268,66307,1,0,0:0:0
216,242,66895,1,8,0:0:0
184,206,67188,1,0,0:0:0
133,124,67776,1,0,0:0:0
139,100,67923,1,0,0:0:0
159,86,68069,1,8,0:0:0
181,77,68216,1,8,0:0:0
205,77,68363,1,0,0:0:0
252,73,68657,1,0,0:0:0
294,95,68951,1,8,0:0:0
314,107,69097,1,8,0:0:0
366,155,69538,1,8,0:0:0
376,176,69685,1,8,0:0:0
346,241,70125,1,8,0:0:0
334,262,70272,1,8,0:0:0
310,262,70419,1,0,0:0:0
285,261,70566,1,0,0:0:0
262,253,70713,1,8,0:0:0
238,249,70859,1,8,0:0:0
217,236,71006,1,0,0:0:0
175,212,71300,1,0,0:0:0
157,195,71447,1,0,0:0:0
147,172,71594,1,8,0:0:0
140,124,71887,1,8,0:0:0
148,101,72034,1,8,0:0:0
169,90,72181,1,0,0:0:0
215,78,72475,1,0,0:0:0
239,76,72622,1,0,0:0:0
263,75,72768,1,8,0:0:0
310,83,73062,1,8,0:0:0
330,96,73209,1,8,0:0:0
349,110,73356,1,0,0:0:0
376,149,73650,1,8,0:0:0
395,192,73943,1,0,0:0:0
404,239,74237,1,8,0:0:0
398,286,74531,1,0,0:0:0
349,284,74824,1,0,0:0:0
325,283,74971,1,0,0:0:0
209,252,75705,1,0,0:0:0
150,175,76293,1,8,0:0:0
133,129,76586,1,0,0:0:0
217,83,77174,1,0,0:0:0
239,76,77321,1,0,0:0:0
262,78,77467,1,8,0:0:0
285,79,77614,1,0,0:0:0
308,82,77761,1,0,0:0:0
330,91,77908,1,8,0:0:0
352,100,78055,1,0,0:0:0
374,111,80551,5,4,0:0:0
382,206,80845,1,4,0:0:0
306,265,81138,1,4,0:0:0
212,240,81432,1,4,0:0:0
125,199,81726,1,4,0:0:0
125,102,82020,1,4,0:0:0
214,66,82313,1,0,0:0:0
261,69,82460,1,0,0:0:0
308,74,82607,1,0,0:0:0
351,93,82754,1,0,0:0:0
424,154,83047,1,8,0:0:0
407,248,83341,1,0,0:0:0
373,281,83488,1,0,0:0:0
325,276,83635,1,8,0:0:0
277,267,83782,1,0,0:0:0
234,244,83929,1,0,0:0:0
189,223,84075,1,0,0:0:0
148,196,84222,1,8,0:0:0
149,148,84369,1,0,0:0:0
182,57,84663,1,0,0:0:0
229,49,84810,1,8,0:0:0
274,64,84956,1,0,0:0:0
316,85,85103,1,0,0:0:0
399,133,85397,1,8,0:0:0
410,228,85691,1,0,0:0:0
391,272,85837,1,0,0:0:0
343,279,85984,1,8,0:0:0
295,269,86131,1,0,0:0:0
251,249,86278,1,0,0:0:0
206,229,86425,1,0,0:0:0
163,207,86572,1,8,0:0:0
171,159,86719,1,0,0:0:0
226,80,87012,1,0,0:0:0
272,72,87159,1,8,0:0:0
356,117,87453,1,0,0:0:0
418,189,87746,1,0,0:0:0
401,234,87893,1,0,0:0:0
356,251,88040,1,8,0:0:0
260,257,88334,1,0,0:0:0
213,244,88481,1,0,0:0:0
175,214,88627,1,0,0:0:0
160,168,88774,1,8,0:0:0
195,78,89068,1,0,0:0:0
241,66,89215,1,0,0:0:0
288,71,89362,1,0,0:0:0
332,88,89509,1,8,0:0:0
375,108,89655,1,0,0:0:0
408,142,89802,1,0,0:0:0
414,189,89949,1,0,0:0:0
417,236,90096,1,8,0:0:0
369,244,90243,1,0,0:0:0
323,260,90390,1,0,0:0:0
275,251,90536,1,0,0:0:0
227,254,90683,1,8,0:0:0
190,223,90830,1,0,0:0:0
169,179,90977,1,0,0:0:0
149,135,91124,1,8,0:0:0
206,58,91417,1,0,0:0:0
302,57,91711,1,0,0:0:0
348,70,91858,1,0,0:0:0
386,98,92005,1,0,0:0:0
407,141,92152,5,0,0:0:0
408,237,92445,1,8,0:0:0
322,280,92739,1,0,0:0:0
274,271,92886,1,0,0:0:0
226,261,93033,1,8,0:0:0
184,236,93180,1,0,0:0:0
160,194,93326,1,0,0:0:0
145,147,93473,1,0,0:0:0
149,99,93620,1,8,0:0:0
196,92,93767,1,0,0:0:0
291,87,94061,1,0,0:0:0
337,97,94208,1,8,0:0:0
373,128,94354,1,0,0:0:0
393,171,94501,1,0,0:0:0
345,254,94795,1,8,0:0:0
248,253,95089,1,0,0:0:0
200,245,95235,1,0,0:0:0
172,205,95382,1,8,0:0:0
163,157,95529,1,0,0:0:0
163,108,95676,1,0,0:0:0
195,75,95823,1,0,0:0:0
242,78,95970,1,8,0:0:0
288,90,96116,1,0,0:0:0
372,135,96410,1,0,0:0:0
403,166,96557,1,8,0:0:0
362,253,96851,1,0,0:0:0
266,265,97144,1,0,0:0:0
218,260,97291,1,0,0:0:0
182,227,97438,1,8,0:0:0
156,134,97732,1,0,0:0:0
185,95,97879,1,0,0:0:0
223,65,98025,1,0,0:0:0
268,79,98172,1,8,0:0:0
358,111,98466,1,0,0:0:0
398,135,98613,1,0,0:0:0
433,167,98760,1,0,0:0:0
430,214,98906,1,8,0:0:0
397,248,99053,1,0,0:0:0
350,261,99200,1,0,0:0:0
302,267,99347,1,0,0:0:0
254,273,99494,1,8,0:0:0
217,241,99641,1,0,0:0:0
184,205,99788,1,0,0:0:0
162,162,99934,1,0,0:0:0
177,116,100081,1,8,0:0:0
198,73,100228,1,0,0:0:0
244,64,100375,1,8,0:0:0
285,87,100522,1,0,0:0:0
325,113,100669,1,0,0:0:0
368,132,100815,1,8,0:0:0
407,159,100962,1,0,0:0:0
431,200,101109,1,0,0:0:0
423,247,101256,1,8,0:0:0
326,246,101550,5,0,0:0:0
278,247,101696,1,0,0:0:0
230,237,101843,1,8,0:0:0
182,231,101990,1,8,0:0:0
161,187,102137,1,0,0:0:0
156,139,102284,1,0,0:0:0
225,72,102578,1,0,0:0:0
320,72,102871,1,0,0:0:0
399,125,103165,1,4,0:0:0
404,220,103459,1,4,0:0:0
256,192,110948,12,0,112710,0:0:0
104,79,113297,5,0,0:0:0
127,74,113444,1,0,0:0:0
198,81,113884,1,8,0:0:0
245,84,114178,1,0,0:0:0
268,85,114325,1,0,0:0:0
315,88,114619,1,0,0:0:0
338,92,114766,1,8,0:0:0
382,110,115059,1,0,0:0:0
401,221,115647,1,0,0:0:0
384,238,115793,1,0,0:0:0
313,253,116234,1,8,0:0:0
267,267,116528,1,0,0:0:0
243,262,116674,1,0,0:0:0
214,223,116968,1,8,0:0:0
196,206,117115,1,0,0:0:0
164,169,117409,1,8,0:0:0
174,147,117556,1,0,0:0:0
184,125,117702,1,0,0:0:0
210,85,117996,1,0,0:0:0
232,75,118143,1,0,0:0:0
302,87,118583,1,8,0:0:0
343,111,118877,1,0,0:0:0
363,124,119024,1,0,0:0:0
402,150,119318,1,0,0:0:0
420,164,119464,1,8,0:0:0
378,250,120052,1,0,0:0:0
331,263,120346,1,0,0:0:0
349,218,120639,1,0,0:0:0
283,267,120933,1,8,0:0:0
259,263,121080,1,0,0:0:0
216,241,121373,1,8,0:0:0
199,223,121520,1,0,0:0:0
179,178,121814,1,8,0:0:0
188,156,121961,1,0,0:0:0
337,79,122695,5,0,0:0:0
358,88,122842,1,0,0:0:0
389,152,123282,1,8,0:0:0
410,194,123576,1,0,0:0:0
405,217,123723,1,0,0:0:0
375,254,124017,1,0,0:0:0
354,265,124163,1,8,0:0:0
306,256,124457,1,0,0:0:0
210,246,125045,1,0,0:0:0
186,240,125191,1,0,0:0:0
144,181,125632,1,8,0:0:0
150,133,125926,1,0,0:0:0
160,111,126072,1,0,0:0:0
206,100,126366,1,8,0:0:0
230,99,126513,1,0,0:0:0
277,105,126807,1,8,0:0:0
299,114,126953,1,0,0:0:0
321,123,127100,1,0,0:0:0
350,161,127394,1,0,0:0:0
363,180,127541,1,0,0:0:0
384,248,127981,1,8,0:0:0
360,289,128275,1,0,0:0:0
336,295,128422,1,0,0:0:0
288,288,128716,1,0,0:0:0
264,289,128862,1,8,0:0:0
223,262,129156,1,0,0:0:0
194,223,129450,1,0,0:0:0
179,204,129597,1,0,0:0:0
162,186,129743,1,0,0:0:0
144,141,130037,1,0,0:0:0
172,102,130331,1,8,0:0:0
193,91,130478,1,0,0:0:0
240,87,130771,1,8,0:0:0
263,88,130918,1,0,0:0:0
310,97,131212,1,8,0:0:0
332,105,131359,1,0,0:0:0
406,199,132093,5,0,0:0:0
336,264,132680,1,8,0:0:0
288,256,132974,1,0,0:0:0
198,221,133561,1,0,0:0:0
183,201,133708,1,8,0:0:0
172,179,133855,1,8,0:0:0
199,86,134442,1,0,0:0:0
246,80,134736,1,8,0:0:0
269,81,134883,1,8,0:0:0
337,102,135324,1,8,0:0:0
355,116,135470,1,8,0:0:0
391,177,135911,1,8,0:0:0
396,200,136058,1,8,0:0:0
357,261,136498,1,8,0:0:0
333,263,136645,1,8,0:0:0
309,268,136792,1,0,0:0:0
216,242,137379,1,8,0:0:0
184,206,137673,1,0,0:0:0
133,124,138260,1,0,0:0:0
139,100,138407,1,0,0:0:0
159,86,138554,1,8,0:0:0
181,77,138701,1,8,0:0:0
205,77,138848,1,0,0:0:0
252,73,139141,1,0,0:0:0
294,95,139435,1,8,0:0:0
314,107,139582,1,8,0:0:0
366,155,140022,1,8,0:0:0
376,176,140169,1,8,0:0:0
346,241,140610,1,8,0:0:0
334,262,140757,1,8,0:0:0
310,262,140904,1,0,0:0:0
285,261,141050,1,0,0:0:0
262,253,141197,1,8,0:0:0
238,249,141344,1,8,0:0:0
217,236,141491,1,0,0:0:0
175,212,141785,1,0,0:0:0
157,195,141931,1,0,0:0:0
147,172,142078,1,8,0:0:0
140,124,142372,1,8,0:0:0
148,101,142519,1,8,0:0:0
169,90,142666,1,0,0:0:0
215,78,142959,1,0,0:0:0
239,76,143106,1,0,0:0:0
263,75,143253,1,8,0:0:0
310,83,143547,1,8,0:0:0
330,96,143694,1,8,0:0:0
349,110,143840,1,0,0:0:0
376,149,144134,1,8,0:0:0
395,192,144428,1,0,0:0:0
404,239,144721,1,8,0:0:0
398,286,145015,1,0,0:0:0
349,284,145309,1,0,0:0:0
325,283,145456,1,0,0:0:0
209,252,146190,1,0,0:0:0
150,175,146777,1,8,0:0:0
133,129,147071,1,0,0:0:0
217,83,147658,1,0,0:0:0
239,76,147805,1,0,0:0:0
262,78,147952,1,8,0:0:0
285,79,148099,1,0,0:0:0
308,82,148246,1,0,0:0:0
330,91,148393,1,8,0:0:0
352,100,148539,1,0,0:0:0
374,111,151036,5,4,0:0:0
382,206,151329,1,4,0:0:0
306,265,151623,1,4,0:0:0
212,240,151917,1,4,0:0:0
125,199,152210,1,4,0:0:0
125,102,152504,1,4,0:0:0
214,66,152798,1,0,0:0:0
261,69,152945,1,0,0:0:0
308,74,153092,1,0,0:0:0
351,93,153238,1,0,0:0:0
424,154,153532,1,8,0:0:0
407,248,153826,1,0,0:0:0
373,281,153973,1,0,0:0:0
325,276,154119,1,8,0:0:0
277,267,154266,1,0,0:0:0
234,244,154413,1,0,0:0:0
212,233,154487,1,0,0:0:0
189,223,154560,1,0,0:0:0
148,196,154707,1,8,0:0:0
149,148,154854,1,0,0:0:0
182,57,155147,1,0,0:0:0
229,49,155294,1,8,0:0:0
274,64,155441,1,0,0:0:0
316,85,155588,1,0,0:0:0
399,133,155882,1,8,0:0:0
410,228,156175,1,0,0:0:0
391,272,156322,1,0,0:0:0
343,279,156469,1,8,0:0:0
295,269,156616,1,0,0:0:0
251,249,156763,1,0,0:0:0
228,239,156836,1,0,0:0:0
206,229,156909,1,0,0:0:0
163,207,157056,1,8,0:0:0
171,159,157203,1,0,0:0:0
226,80,157497,1,0,0:0:0
272,72,157644,1,8,0:0:0
356,117,157937,1,0,0:0:0
418,189,158231,1,0,0:0:0
401,234,158378,1,0,0:0:0
356,251,158525,1,8,0:0:0
260,257,158818,1,0,0:0:0
213,244,158965,1,0,0:0:0
175,214,159112,1,0,0:0:0
160,168,159259,1,8,0:0:0
195,78,159553,1,0,0:0:0
241,66,159699,1,0,0:0:0
288,71,159846,1,0,0:0:0
332,88,159993,1,8,0:0:0
375,108,160140,1,0,0:0:0
408,142,160287,1,0,0:0:0
414,189,160434,1,0,0:0:0
417,236,160580,1,8,0:0:0
369,244,160727,1,0,0:0:0
323,260,160874,1,0,0:0:0
275,251,161021,1,0,0:0:0
227,254,161168,1,8,0:0:0
190,223,161315,1,0,0:0:0
169,179,161462,1,0,0:0:0
149,135,161608,1,8,0:0:0
206,58,161902,1,0,0:0:0
302,57,162196,1,0,0:0:0
348,70,162343,1,0,0:0:0
386,98,162489,1,0,0:0:0
407,141,162636,5,0,0:0:0
408,237,162930,1,8,0:0:0
322,280,163224,1,0,0:0:0
274,271,163371,1,0,0:0:0
226,261,163517,1,8,0:0:0
184,236,163664,1,0,0:0:0
160,194,163811,1,0,0:0:0
152,171,163884,1,0,0:0:0
145,147,163958,1,0,0:0:0
149,99,164105,1,8,0:0:0
196,92,164252,1,0,0:0:0
291,87,164545,1,0,0:0:0
337,97,164692,1,8,0:0:0
373,128,164839,1,0,0:0:0
393,171,164986,1,0,0:0:0
345,254,165279,1,8,0:0:0
248,253,165573,1,0,0:0:0
200,245,165720,1,0,0:0:0
172,205,165867,1,8,0:0:0
163,157,166014,1,0,0:0:0
163,108,166161,1,0,0:0:0
175,87,166234,1,0,0:0:0
195,75,166307,1,0,0:0:0
242,78,166454,1,8,0:0:0
288,90,166601,1,0,0:0:0
372,135,166895,1,0,0:0:0
403,166,167042,1,8,0:0:0
362,253,167335,1,0,0:0:0
266,265,167629,1,0,0:0:0
218,260,167776,1,0,0:0:0
182,227,167923,1,8,0:0:0
156,134,168216,1,0,0:0:0
185,95,168363,1,0,0:0:0
223,65,168510,1,0,0:0:0
268,79,168657,1,8,0:0:0
358,111,168951,1,0,0:0:0
336,128,169024,1,0,0:0:0
398,135,169097,1,0,0:0:0
433,167,169244,1,0,0:0:0
430,214,169391,1,8,0:0:0
397,248,169538,1,0,0:0:0
350,261,169685,1,0,0:0:0
302,267,169832,1,0,0:0:0
254,273,169978,1,8,0:0:0
217,241,170125,1,0,0:0:0
184,205,170272,1,0,0:0:0
162,162,170419,1,0,0:0:0
177,116,170566,1,8,0:0:0
198,73,170713,1,0,0:0:0
244,64,170859,1,8,0:0:0
285,87,171006,1,0,0:0:0
325,113,171153,1,0,0:0:0
368,132,171300,1,8,0:0:0
407,159,171447,1,0,0:0:0
431,200,171594,1,0,0:0:0
423,247,171741,1,8,0:0:0
326,246,172034,5,0,0:0:0
278,247,172181,1,0,0:0:0
230,237,172328,1,8,0:0:0
182,231,172475,1,8,0:0:0
161,187,172622,1,0,0:0:0
156,139,172768,1,0,0:0:0
225,72,173062,1,0,0:0:0
320,72,173356,1,0,0:0:0
399,125,173650,1,4,0:0:0
404,220,173943,1,4,0:0:0
112,176,183782,5,0,0:0:0
200,176,184075,1,0,0:0:0
224,176,184369,1,8,0:0:0
256,216,184663,1,0,0:0:0
256,240,184810,1,0,0:0:0
328,160,184956,1,0,0:0:0
352,160,185103,1,8,0:0:0
376,232,185397,1,0,0:0:0
400,248,185691,1,0,0:0:0
416,224,185837,1,8,0:0:0
392,136,186131,1,0,0:0:0
336,136,186425,1,0,0:0:0
336,144,186719,1,8,0:0:0
376,184,187012,1,0,0:0:0
296,224,187159,1,0,0:0:0
280,248,187306,1,0,0:0:0
304,248,187453,1,8,0:0:0
360,240,187746,1,0,0:0:0
336,256,187893,1,0,0:0:0
408,216,188040,1,0,0:0:0
424,192,188187,1,8,0:0:0
368,176,188481,1,0,0:0:0
288,200,188774,1,0,0:0:0
312,208,189068,1,8,0:0:0
344,256,189362,1,0,0:0:0
360,280,189509,1,0,0:0:0
384,288,189655,1,0,0:0:0
400,264,189802,1,8,0:0:0
424,184,190096,1,0,0:0:0
432,160,190390,1,0,0:0:0
448,136,190536,1,8,0:0:0
368,128,190830,1,0,0:0:0
312,128,191124,1,0,0:0:0
288,136,191271,1,0,0:0:0
312,152,191417,1,8,0:0:0
352,192,191711,1,0,0:0:0
352,192,191858,1,0,0:0:0
336,216,192005,1,0,0:0:0
424,240,192152,1,8,0:0:0
376,272,192445,1,0,0:0:0
320,272,192739,1,0,0:0:0
336,248,192886,1,8,0:0:0
112,176,193180,5,0,0:0:0
168,192,193473,1,0,0:0:0
200,176,193620,1,0,0:0:0
224,176,193767,1,8,0:0:0
256,216,194061,1,0,0:0:0
304,160,194208,1,0,0:0:0
328,160,194354,1,0,0:0:0
352,160,194501,1,8,0:0:0
328,208,194648,1,0,0:0:0
376,240,194942,1,0,0:0:0
400,248,195089,1,0,0:0:0
416,224,195235,1,8,0:0:0
392,136,195529,1,0,0:0:0
376,192,195823,1,0,0:0:0
312,136,195970,1,0,0:0:0
320,112,196116,1,8,0:0:0
368,88,196410,1,0,0:0:0
392,80,196557,1,0,0:0:0
416,80,196704,1,0,0:0:0
440,96,196851,1,8,0:0:0
456,120,197144,1,0,0:0:0
448,176,197291,1,0,0:0:0
440,200,197438,1,0,0:0:0
424,224,197585,1,8,0:0:0
368,216,197879,1,0,0:0:0
408,256,198172,1,0,0:0:0
288,200,198319,1,0,0:0:0
288,176,198466,1,8,0:0:0
312,128,198760,1,0,0:0:0
336,112,198906,1,0,0:0:0
360,104,199053,1,0,0:0:0
384,112,199200,1,8,0:0:0
408,128,199347,1,0,0:0:0
440,176,199641,1,0,0:0:0
440,208,199788,1,0,0:0:0
440,232,199934,1,8,0:0:0
256,192,200228,12,0,203165,0:0:0
406,199,203753,5,0,0:0:0
336,264,204340,1,8,0:0:0
288,256,204634,1,0,0:0:0
198,221,205221,1,0,0:0:0
183,201,205368,1,8,0:0:0
172,179,205515,1,8,0:0:0
199,86,206102,1,0,0:0:0
246,80,206396,1,8,0:0:0
269,81,206543,1,8,0:0:0
337,102,206983,1,8,0:0:0
355,116,207130,1,8,0:0:0
391,177,207570,1,8,0:0:0
396,200,207717,1,8,0:0:0
357,261,208158,1,8,0:0:0
333,263,208305,1,8,0:0:0
309,268,208451,1,0,0:0:0
216,242,209039,1,8,0:0:0
184,206,209333,1,0,0:0:0
133,124,209920,1,0,0:0:0
139,100,210067,1,0,0:0:0
159,86,210214,1,8,0:0:0
181,77,210360,1,8,0:0:0
205,77,210507,1,0,0:0:0
252,73,210801,1,0,0:0:0
294,95,211095,1,8,0:0:0
314,107,211241,1,8,0:0:0
366,155,211682,1,8,0:0:0
376,176,211829,1,8,0:0:0
346,241,212269,1,8,0:0:0
334,262,212416,1,8,0:0:0
310,262,212563,1,0,0:0:0
285,261,212710,1,0,0:0:0
262,253,212857,1,8,0:0:0
240,232,213004,1,8,0:0:0
90,84,213150,5,0,0:0:0
185,77,213444,1,0,0:0:0
279,93,213738,1,8,0:0:0
373,109,214032,1,8,0:0:0
384,136,214178,2,0,L|432:304|96:272|80:160,1,595
64,208,217556,1,0,0:0:0
90,84,217849,5,0,0:0:0
185,77,218143,1,0,0:0:0
279,93,218437,1,8,0:0:0
411,137,218730,1,8,0:0:0
400,160,218877,2,0,L|288:336|88:272|72:88,1,595
176,296,222548,1,0,0:0:0
160,272,222695,1,0,0:0:0
168,248,222842,1,8,0:0:0
192,232,222989,1,0,0:0:0
216,216,223136,1,0,0:0:0
240,208,223283,1,8,0:0:0
264,200,223429,1,0,0:0:0
288,192,223576,1,8,0:0:0
256,192,223723,12,0,224898,0:0:0
374,111,225045,5,4,0:0:0
382,206,225338,1,4,0:0:0
306,265,225632,1,4,0:0:0
212,240,225926,1,4,0:0:0
125,199,226219,1,4,0:0:0
125,102,226513,1,4,0:0:0
214,66,226807,1,0,0:0:0
261,69,226954,1,0,0:0:0
308,74,227101,1,0,0:0:0
344,352,227835,1,8,0:0:0
336,296,227982,1,8,0:0:0
328,240,228128,1,8,0:0:0
328,240,228275,1,8,0:0:0
351,93,228422,1,0,0:0:0
424,154,228716,1,8,0:0:0
407,248,229009,1,0,0:0:0
373,281,229156,1,0,0:0:0
325,276,229303,1,8,0:0:0
277,267,229450,1,0,0:0:0
234,244,229597,1,0,0:0:0
212,233,229670,1,0,0:0:0
189,223,229744,1,0,0:0:0
148,196,229891,1,8,0:0:0
149,148,230037,1,0,0:0:0
182,57,230331,1,0,0:0:0
200,80,230404,1,0,0:0:0
229,49,230478,1,8,0:0:0
274,64,230625,1,0,0:0:0
316,85,230772,1,0,0:0:0
399,133,231065,1,8,0:0:0
410,228,231359,1,0,0:0:0
391,272,231506,1,0,0:0:0
343,279,231653,1,8,0:0:0
295,269,231799,1,0,0:0:0
251,249,231946,1,0,0:0:0
228,239,232020,1,0,0:0:0
206,229,232093,1,0,0:0:0
163,207,232240,1,8,0:0:0
171,159,232387,1,0,0:0:0
226,80,232681,1,0,0:0:0
249,73,232754,1,0,0:0:0
272,72,232827,1,8,0:0:0
356,117,233121,1,0,0:0:0
418,189,233415,1,0,0:0:0
401,234,233562,1,0,0:0:0
356,251,233708,1,8,0:0:0
260,257,234002,1,0,0:0:0
213,244,234149,1,0,0:0:0
175,214,234296,1,0,0:0:0
160,168,234443,1,8,0:0:0
195,78,234736,1,0,0:0:0
217,69,234810,1,0,0:0:0
241,66,234883,1,0,0:0:0
288,71,235030,1,0,0:0:0
332,88,235177,1,8,0:0:0
375,108,235324,1,0,0:0:0
408,142,235471,1,0,0:0:0
414,189,235617,1,0,0:0:0
417,236,235764,1,8,0:0:0
369,244,235911,1,0,0:0:0
323,260,236058,1,0,0:0:0
275,251,236205,1,0,0:0:0
227,254,236352,1,8,0:0:0
190,223,236498,1,0,0:0:0
192,192,236645,1,0,0:0:0
149,135,236792,1,8,0:0:0
206,58,237086,1,0,0:0:0
302,57,237380,1,0,0:0:0
283,78,237453,1,0,0:0:0
348,70,237526,1,0,0:0:0
386,98,237673,1,0,0:0:0
407,141,237820,5,0,0:0:0
408,237,238114,1,8,0:0:0
322,280,238407,1,0,0:0:0
274,271,238554,1,0,0:0:0
226,261,238701,1,8,0:0:0
184,236,238848,1,0,0:0:0
160,194,238995,1,0,0:0:0
152,171,239068,1,0,0:0:0
145,147,239142,1,0,0:0:0
149,99,239288,1,8,0:0:0
196,92,239435,1,0,0:0:0
291,87,239729,1,0,0:0:0
315,90,239802,1,0,0:0:0
337,97,239876,1,8,0:0:0
373,128,240023,1,0,0:0:0
393,171,240170,1,0,0:0:0
345,254,240463,1,8,0:0:0
248,253,240757,1,0,0:0:0
200,245,240904,1,0,0:0:0
172,205,241051,1,8,0:0:0
163,157,241197,1,0,0:0:0
163,108,241344,1,0,0:0:0
175,87,241418,1,0,0:0:0
195,75,241491,1,0,0:0:0
242,78,241638,1,8,0:0:0
288,90,241785,1,0,0:0:0
372,135,242078,1,0,0:0:0
392,146,242152,1,0,0:0:0
403,166,242225,1,8,0:0:0
362,253,242519,1,0,0:0:0
266,265,242813,1,0,0:0:0
218,260,242960,1,0,0:0:0
182,227,243106,1,8,0:0:0
156,134,243400,1,0,0:0:0
185,95,243547,1,0,0:0:0
223,65,243694,1,0,0:0:0
268,79,243841,1,8,0:0:0
358,111,244134,1,0,0:0:0
379,122,244208,1,0,0:0:0
398,135,244281,1,0,0:0:0
433,167,244428,1,0,0:0:0
430,214,244575,1,8,0:0:0
397,248,244722,1,0,0:0:0
350,261,244869,1,0,0:0:0
302,267,245015,1,0,0:0:0
254,273,245162,1,8,0:0:0
217,241,245309,1,0,0:0:0
184,205,245456,1,0,0:0:0
162,162,245603,1,0,0:0:0
177,116,245750,1,8,0:0:0
198,73,245896,1,0,0:0:0
244,64,246043,1,8,0:0:0
285,87,246190,1,0,0:0:0
325,113,246337,1,0,0:0:0
368,132,246484,1,8,0:0:0
407,159,246631,1,0,0:0:0
278,247,246704,1,0,0:0:0
278,247,246777,1,0,0:0:0
423,247,246924,1,8,0:0:0
326,246,247218,5,0,0:0:0
278,247,247365,1,0,0:0:0
230,237,247512,1,8,0:0:0
182,231,247659,1,8,0:0:0
161,187,247805,1,0,0:0:0
156,139,247952,1,0,0:0:0
225,72,248246,1,4,0:0:0
320,72,248540,1,4,0:0:0
399,125,248833,1,4,0:0:0
404,220,249127,1,4,0:0:0
