osu file format v11

[General]
AudioFilename: Bokutachi no Yukue.mp3
AudioLeadIn: 0
PreviewTime: 61031
Countdown: 0
SampleSet: Normal
StackLeniency: 0.8
Mode: 0
LetterboxInBreaks: 1

[Editor]
DistanceSpacing: 0.8
BeatDivisor: 4
GridSize: 8

[Metadata]
Title:Bokutachi no Yukue
TitleUnicode:僕たちの行方
Artist:Takahashi Hitomi
ArtistUnicode:高橋瞳
Creator:minyeob
Version:Normal
Source:Mobile Suit Gundam SEED Destiny
Tags:lepidopodus
BeatmapID:54084
BeatmapSetID:14832

[Difficulty]
HPDrainRate:4
CircleSize:4
OverallDifficulty:4
ApproachRate:4
SliderMultiplier:1.6
SliderTickRate:1

[Events]
//Background and Video events
0,0,"Seed background.jpg"
//Break Periods
2,32440,37969
2,103658,111977
//Storyboard Layer 0 (Background)
//Storyboard Layer 1 (Fail)
//Storyboard Layer 2 (Pass)
//Storyboard Layer 3 (Foreground)
//Storyboard Sound Samples
//Background Colour Transformations
3,100,163,162,255

[TimingPoints]
12270,587.371512481645,4,1,1,100,1,0
20439,-200,4,1,1,100,0,0
21173,-100,4,1,1,100,0,0
28652,-200,4,1,1,100,0,0
32250,-100,4,1,1,100,0,0
61912,-100,4,2,1,100,0,0
69108,-200,4,2,1,100,0,0
70126,-100,4,2,1,100,0,0
74394,-200,4,2,1,100,0,0
75412,-100,4,2,1,100,0,0
77982,-200,4,2,1,100,0,0
77982,-200,4,2,1,100,0,0
79534,-100,4,2,1,100,0,0
80488,-100,4,1,1,100,0,0
131946,-100,4,2,1,100,0,0
139509,-200,4,2,1,100,0,0
145750,-100,4,2,1,100,0,0
150595,-100,4,1,1,100,0,0

[Colours]
Combo1 : 192,192,192
Combo2 : 255,255,128
Combo3 : 255,128,192
Combo4 : 128,64,64

[HitObjects]
367,85,12270,1,0,0:0:0
247,130,12857,1,8,0:0:0
247,130,13151,1,0,0:0:0
126,173,13738,1,0,0:0:0
126,173,14032,1,8,0:0:0
3,134,14619,6,0,B|51:60|139:48,1,160,0|8,0:0|0:0,0:0:0
257,60,15794,1,0,0:0:0
301,105,16087,2,0,B|336:186,1,80,0|8,0:0|0:0,0:0:0
291,227,16675,2,0,B|263:320,1,80
153,322,17556,5,8,0:0:0
106,277,17850,2,0,B|114:198|175:120,1,160
223,100,18731,2,0,B|266:110|294:158,2,80,8|0|0,0:0|0:0|0:0,0:0:0
106,49,19905,1,8,0:0:0
106,49,20199,1,0,0:0:0
106,50,20493,6,0,B|106:139,1,80,0|8,0:0|0:0,0:0:0
76,238,21667,5,0,0:0:0
194,189,22255,1,8,0:0:0
194,189,22549,1,0,0:0:0
194,189,22842,2,0,B|276:200|318:293,2,160,0|8|0,0:0|0:0|0:0,0:0:0
108,116,24604,1,8,0:0:0
108,116,24898,1,0,0:0:0
108,116,25192,2,0,B|132:32|225:6,1,160,0|8,0:0|0:0,0:0:0
280,9,26073,5,0,0:0:0
280,72,26366,2,0,B|371:72,2,80,4|0|8,0:0|0:0|0:0,0:0:0
215,71,27247,1,0,0:0:0
215,71,27541,2,0,B|119:82|97:182,1,160,0|8,0:0|0:0,0:0:0
105,289,28716,6,0,B|154:268|219:309|271:278,1,160
259,217,30478,2,0,B|245:184|272:164|252:131,2,80,8|0|8,0:0|0:0|0:0,0:0:0
258,218,32240,1,4,0:0:0
256,192,39289,12,0,42225,0:0:0
100,292,42813,5,4,0:0:0
141,171,43400,1,8,0:0:0
86,61,43988,1,0,0:0:0
209,28,44575,1,8,0:0:0
265,58,44869,1,0,0:0:0
321,28,45162,6,0,B|416:41,1,80
377,99,45750,2,0,B|402:186,1,80,8|0,0:0|0:0,0:0:0
351,218,46337,2,0,B|249:360,1,160,0|8,0:0|0:0,0:0:0
166,257,47512,6,0,B|124:328|26:347,2,160,0|8|0,0:0|0:0|0:0,0:0:0
168,192,48980,1,0,0:0:0
232,191,49274,2,0,B|247:112|354:89,1,160,8|0,0:0|0:0,0:0:0
461,144,50449,1,8,0:0:0
461,144,50742,1,0,0:0:0
414,263,51330,1,8,0:0:0
414,263,51623,1,8,0:0:0
306,333,52211,6,0,B|140:333,1,160,0|8,0:0|0:0,0:0:0
146,268,53092,2,0,B|153:220|207:216,1,80
263,218,53679,2,0,B|314:218|325:162,1,80,0|8,0:0|0:0,0:0:0
372,133,54267,5,0,0:0:0
372,133,54560,2,0,B|328:56|233:32,1,160,0|8,0:0|0:0,0:0:0
185,36,55441,1,0,0:0:0
186,100,55735,2,0,B|186:188,1,80
121,180,56322,2,0,B|88:256|124:345,1,160,8|0,0:0|0:0,0:0:0
248,334,57497,6,0,B|345:334,1,80,8|0,0:0|0:0,0:0:0
420,245,58378,2,0,B|419:154,1,80,0|8,0:0|0:0,0:0:0
420,100,58966,1,0,0:0:0
420,36,59259,2,0,B|336:48|303:155,1,160,0|8,0:0|0:0,0:0:0
180,139,60434,2,0,B|149:56|56:38,1,160,0|8,0:0|0:0,0:0:0
35,97,61315,1,0,0:0:0
34,161,61609,1,4,0:0:0
162,221,62196,5,0,0:0:0
162,221,62490,1,0,0:0:0
162,221,62783,2,0,B|67:239|55:344,2,160,0|2|0,0:0|0:0|0:0,0:0:0
245,299,64546,1,0,0:0:0
245,299,64839,1,0,0:0:0
245,299,65133,2,0,B|346:296|352:194,2,160,0|2|0,0:0|0:0|0:0,0:0:0
245,234,66601,6,0,B|245:144,1,80,0|2,0:0|0:0,0:0:0
244,89,67189,1,0,0:0:0
366,45,67776,2,0,B|366:140,1,80,0|2,0:0|0:0,0:0:0
366,189,68363,2,0,B|458:189,2,80
299,188,69245,6,0,B|286:229|319:251|285:279,1,80
147,332,70419,5,0,0:0:0
104,283,70713,1,0,0:0:0
148,237,71007,2,0,B|210:242|260:288,2,120
104,190,72181,2,0,B|44:201|-8:244,2,120
161,154,73356,1,0,0:0:0
161,154,73650,2,0,B|201:158|232:200,2,80
103,126,74531,6,0,B|109:84|144:55,1,80
255,95,75706,6,0,B|256:272,1,160
359,318,76880,2,0,B|285:355,1,80
219,351,77468,2,0,B|138:312,1,80
177,259,78055,6,0,B|254:220|337:266,1,160
443,201,79817,1,2,0:0:0
334,132,80551,6,0,B|249:132,1,80
200,95,81139,2,0,B|200:191,1,80
240,224,81726,2,0,B|141:223,1,80
95,224,82314,2,0,B|95:278,3,40
215,337,83341,5,8,0:0:0
279,338,83635,2,0,B|366:327|399:236,1,160
344,205,84516,2,0,B|319:133|224:96,1,160,8|0,0:0|0:0,0:0:0
114,44,85691,1,8,0:0:0
81,98,85985,1,0,0:0:0
45,221,86572,2,0,B|71:309,1,80,0|8,0:0|0:0,0:0:0
129,316,87159,5,0,0:0:0
184,347,87453,2,4,B|256:382|353:342,3,160,4|0|4|0,0:0|0:0|0:0|0:0,0:0:0
433,260,89803,2,0,B|472:185|425:104,1,160,0|8,0:0|0:0,0:0:0
378,65,90684,1,0,0:0:0
328,24,90977,2,0,B|252:64|165:21,1,160,0|8,0:0|0:0,0:0:0
67,96,92152,5,4,0:0:0
64,223,92739,2,0,B|64:320,1,80
192,302,93620,1,0,0:0:0
251,325,93914,2,0,B|329:356|426:316,1,160,8|0,0:0|0:0,0:0:0
454,202,95089,1,8,0:0:0
408,156,95383,1,0,0:0:0
456,114,95676,2,0,B|444:67|385:50,1,80
355,15,96264,2,0,B|304:23|284:76,1,80,8|0,0:0|0:0,0:0:0
329,107,96851,6,4,B|249:139|164:103,3,160,4|0|4|0,0:0|0:0|0:0|0:0,0:0:0
176,247,99200,2,4,B|248:209|339:253,3,160,4|0|4|0,0:0|0:0|0:0|0:0,0:0:0
248,348,101550,5,0,0:0:0
183,346,101844,1,0,0:0:0
119,345,102137,1,8,0:0:0
58,270,102578,2,4,B|106:185,1,80
77,139,103165,2,4,B|38:65,1,80
256,89,113297,5,4,0:0:0
258,290,114178,1,0,0:0:0
258,290,114472,1,4,0:0:0
376,176,115353,1,0,0:0:0
335,225,115647,2,0,B|165:225,1,160,0|8,0:0|0:0,0:0:0
130,178,116528,1,0,0:0:0
176,133,116822,2,0,B|347:133,1,160,0|8,0:0|0:0,0:0:0
396,112,117703,6,0,B|396:31,2,80
396,176,118584,1,8,0:0:0
332,176,118877,2,0,B|240:176,1,80
251,111,119465,2,0,B|171:80|92:115,1,160,0|0,0:0|0:0,0:0:0
93,177,120346,6,0,B|91:343,1,160,0|8,0:0|0:0,0:0:0
155,339,121227,1,0,0:0:0
155,274,121521,1,0,0:0:0
218,275,121814,2,8,B|317:275,1,80
362,276,122402,5,0,0:0:0
361,212,122695,2,0,B|450:231|460:335,2,160,0|8|0,0:0|0:0|0:0,0:0:0
256,138,124457,1,8,0:0:0
256,138,124751,1,0,0:0:0
256,138,125045,2,0,B|176:152|140:242,2,160,0|8|0,0:0|0:0|0:0,0:0:0
376,94,126807,6,0,B|324:17,1,80
269,44,127394,2,0,B|105:44,1,160,0|8,0:0|0:0,0:0:0
55,78,128275,2,0,B|88:161,1,80
111,208,128863,1,0,0:0:0
167,178,129156,2,0,B|348:178,1,160,8|0,0:0|0:0,0:0:0
427,256,130331,5,8,0:0:0
374,293,130625,1,0,0:0:0
322,255,130919,2,0,B|227:255,1,80,0|8,0:0|0:0,0:0:0
192,213,131506,2,8,B|191:313,1,80,8|8,0:0|0:0,0:0:0
135,324,132093,6,0,B|135:150,1,160
135,99,132974,1,0,0:0:0
247,36,133562,1,0,0:0:0
247,36,133855,2,0,B|337:36,2,80
247,100,134736,1,0,0:0:0
247,100,135030,2,0,B|152:100,2,80,0|0|2,0:0|0:0|0:0,0:0:0
375,100,136205,2,2,B|376:266,1,160,2|0,0:0|0:0,0:0:0
263,262,137380,5,0,0:0:0
263,325,137673,1,0,0:0:0
198,325,137967,2,0,B|198:156,1,160
195,100,138848,2,0,B|122:64|34:103,1,160
38,166,139729,6,0,B|49:196|25:222|43:249,1,80
152,305,140904,5,0,0:0:0
152,305,141198,1,0,0:0:0
152,305,141491,2,0,B|320:305,1,160
376,208,143253,1,0,0:0:0
376,208,143547,1,0,0:0:0
376,208,143841,2,0,B|376:119,3,80
264,64,146190,6,0,B|188:100,1,80
129,81,146778,2,0,B|21:215,1,160
46,267,147659,1,0,0:0:0
46,267,147952,2,0,B|126:314,1,80
179,308,148540,6,0,B|355:308,1,160
340,180,149714,2,0,B|163:180,1,160
119,91,150889,6,4,B|194:52,1,80
257,39,151477,1,8,0:0:0
324,55,151770,2,4,B|406:97,1,80
397,155,152358,2,0,B|397:206,6,40
274,191,153826,5,8,0:0:0
274,191,154120,1,0,0:0:0
146,191,154707,2,0,B|60:190,2,80,0|8|0,0:0|0:0|0:0,0:0:0
148,126,155588,2,0,B|125:46|27:29,2,160,0|8|0,0:0|0:0|0:0,0:0:0
212,127,157057,1,0,0:0:0
212,127,157350,2,0,B|211:219,2,80,8|0|4,0:0|0:0|0:0,0:0:0
316,52,158525,5,0,0:0:0
421,124,159112,2,0,B|454:201|418:294,1,160
256,192,160287,12,12,162049,0:0:0
108,81,162637,6,0,B|200:103,1,80
236,138,163224,2,0,B|320:102,1,80,8|0,0:0|0:0,0:0:0
371,121,163811,2,0,B|444:163,3,80,0|0|8|0,0:0|0:0|0:0|0:0,0:0:0
413,219,164986,6,0,B|329:263,1,80
282,232,165573,2,0,B|197:190,1,80,8|0,0:0|0:0,0:0:0
153,166,166161,1,0,0:0:0
153,166,166455,1,8,0:0:0
206,128,166748,1,8,0:0:0
206,128,167042,1,8,0:0:0
181,68,167336,6,4,B|258:27|346:74,2,160,4|0|4,0:0|0:0|0:0,0:0:0
258,193,169098,1,8,0:0:0
334,321,169685,2,4,B|257:362|169:315,2,160
258,193,171447,1,8,0:0:0
256,192,172035,12,12,173944,0:0:0
