osu file format v11

[General]
AudioFilename: Bokutachi no Yukue.mp3
AudioLeadIn: 0
PreviewTime: 61031
Countdown: 0
SampleSet: Normal
StackLeniency: 0.8
Mode: 0
LetterboxInBreaks: 1

[Editor]
DistanceSpacing: 0.8
BeatDivisor: 4
GridSize: 8

[Metadata]
Title:Bokutachi no Yukue
TitleUnicode:僕たちの行方
Artist:Takahashi Hitomi
ArtistUnicode:高橋瞳
Creator:minyeob
Version:Insane
Source:Mobile Suit Gundam SEED Destiny
Tags:lepidopodus
BeatmapID:54402
BeatmapSetID:14832

[Difficulty]
HPDrainRate:7
CircleSize:5
OverallDifficulty:7
ApproachRate:7
SliderMultiplier:2.4
SliderTickRate:1

[Events]
//Background and Video events
0,0,"Seed background.jpg"
//Break Periods
2,32440,38389
2,104099,112397
2,174144,182882
2,203953,212251
//Storyboard Layer 0 (Background)
//Storyboard Layer 1 (Fail)
//Storyboard Layer 2 (Pass)
//Storyboard Layer 3 (Foreground)
//Storyboard Sound Samples
//Background Colour Transformations
3,100,163,162,255

[TimingPoints]
12270,587.371512481645,4,1,1,100,1,0
61912,-100,4,2,1,100,0,0
70126,-100,4,2,1,100,0,0
77982,-200,4,2,1,100,0,0
77982,-200,4,2,1,100,0,0
79534,-100,4,2,1,100,0,0
80488,-100,4,1,1,100,0,0
131946,-100,4,2,1,100,0,0
150669,-100,4,1,1,100,0,0
200522,-100,4,1,1,60,0,0
213150,-200,4,2,1,80,0,0
222547,-200,4,2,1,80,0,0
224896,-100,4,1,1,100,0,0
227099,-200,4,1,1,10,0,0
227686,-100,4,1,1,70,0,0
227980,-100,4,1,1,90,0,0
228420,-100,4,1,1,100,0,0

[Colours]
Combo1 : 192,192,192
Combo2 : 255,255,128
Combo3 : 255,128,192
Combo4 : 128,64,64

[HitObjects]
478,123,12269,5,4,0:0:0
479,224,12563,1,0,0:0:0
400,279,12857,1,8,0:0:0
400,182,13151,1,0,0:0:0
400,182,13297,1,0,0:0:0
400,182,13444,1,0,0:0:0
325,120,13738,1,0,0:0:0
325,120,14032,1,8,0:0:0
248,185,14325,1,0,0:0:0
151,183,14619,6,0,B|151:56,1,120
239,25,15206,1,8,0:0:0
327,62,15500,2,0,B|328:193,1,120
237,214,16087,1,0,0:0:0
157,268,16381,2,0,B|203:322|284:335,1,120,8|0,0:0|0:0,0:0:0
338,276,16968,5,4,0:0:0
339,179,17262,1,0,0:0:0
339,179,17409,1,0,0:0:0
339,179,17556,1,4,0:0:0
418,125,17850,1,0,0:0:0
418,125,18143,2,4,B|418:309,2,180
341,66,19318,5,0,0:0:0
244,66,19612,2,0,B|160:66,1,60
135,66,19905,1,8,0:0:0
59,125,20199,1,0,0:0:0
128,191,20493,2,0,B|128:263,3,60
125,298,21080,6,0,B|209:298,1,60
186,249,21374,1,4,0:0:0
234,249,21521,1,0,0:0:0
235,201,21667,2,0,B|290:212|332:276,1,120
317,366,22255,2,0,B|379:351|424:299,1,120,8|0,0:0|0:0,0:0:0
510,278,22842,2,0,B|476:222|402:194,1,120
327,175,23430,1,8,0:0:0
248,229,23723,1,4,0:0:0
251,325,24017,5,0,0:0:0
380,199,24311,1,8,0:0:0
254,70,24604,1,8,0:0:0
129,199,24898,1,0,0:0:0
129,199,25045,1,0,0:0:0
251,325,25339,2,0,B|251:393,2,60
190,323,25779,5,8,0:0:0
190,226,26073,2,0,B|190:77,1,120,8|12,0:0|0:0,0:0:0
365,27,26954,1,8,0:0:0
365,122,27247,2,4,B|365:252,1,120
449,288,27835,1,0,0:0:0
366,337,28129,1,8,0:0:0
282,289,28422,1,0,0:0:0
183,288,28716,5,4,0:0:0
104,232,29010,1,0,0:0:0
105,136,29303,1,8,0:0:0
185,83,29597,1,4,0:0:0
373,33,30184,1,0,0:0:0
373,33,30331,1,0,0:0:0
373,33,30478,1,8,0:0:0
459,74,30772,1,0,0:0:0
256,192,31065,12,4,32240,0:0:0
256,192,39289,12,0,42225,0:0:0
260,335,42813,5,4,0:0:0
163,334,43107,1,0,0:0:0
219,256,43400,1,8,0:0:0
122,256,43694,1,0,0:0:0
122,256,43841,1,4,0:0:0
169,172,44134,1,0,0:0:0
169,172,44281,1,4,0:0:0
265,173,44575,2,0,B|264:297,1,120,8|0,0:0|0:0,0:0:0
358,310,45162,5,0,0:0:0
358,261,45309,1,0,0:0:0
358,211,45456,1,0,0:0:0
311,124,45750,1,8,0:0:0
260,205,46043,1,0,0:0:0
260,253,46190,1,0,0:0:0
163,254,46484,1,8,0:0:0
165,206,46631,1,0,0:0:0
210,121,46924,1,8,0:0:0
76,317,47512,6,0,B|76:191,1,120
148,73,48099,2,0,B|148:206,1,120,8|0,0:0|0:0,0:0:0
220,317,48687,2,0,B|220:192,1,120,0|0,0:0|0:0,0:0:0
293,75,49274,2,0,B|293:208,1,120,8|0,0:0|0:0,0:0:0
292,291,49861,1,0,0:0:0
292,291,50008,1,0,0:0:0
292,291,50155,1,0,0:0:0
368,349,50449,1,8,0:0:0
460,375,50742,1,0,0:0:0
425,285,51036,5,0,0:0:0
466,198,51330,1,8,0:0:0
426,110,51623,1,8,0:0:0
203,265,52211,6,0,B|347:265,1,120,4|0,0:0|0:0,0:0:0
332,162,52798,2,0,B|273:25,1,120,8|0,0:0|0:0,0:0:0
242,52,53239,2,0,B|181:183,1,120
155,161,53679,2,0,B|101:45,1,120,0|8,0:0|0:0,0:0:0
29,112,54267,5,0,0:0:0
27,207,54560,1,0,0:0:0
27,255,54707,1,0,0:0:0
28,303,54854,1,0,0:0:0
124,303,55148,2,0,B|262:304,1,120,8|0,0:0|0:0,0:0:0
245,183,55735,2,0,B|244:313,1,120
365,303,56322,2,0,B|222:303,1,120,8|0,0:0|0:0,0:0:0
150,236,56910,5,0,0:0:0
350,235,57203,1,0,0:0:0
200,161,57497,1,8,0:0:0
306,159,57791,1,0,0:0:0
254,87,58084,1,0,0:0:0
254,87,58378,2,0,B|253:224,2,120,0|8|0,0:0|0:0|0:0,0:0:0
136,119,59259,6,0,B|203:239,1,120
378,122,59847,2,0,B|307:233,1,120,8|0,0:0|0:0,0:0:0
256,299,60434,1,0,0:0:0
256,299,60728,1,8,0:0:0
256,203,61021,1,8,0:0:0
256,172,61168,1,0,0:0:0
256,141,61315,1,8,0:0:0
256,110,61462,1,0,0:0:0
255,79,61609,1,4,0:0:0
84,166,62196,5,0,0:0:0
84,166,62490,1,2,0:0:0
145,92,62783,2,0,B|393:93,1,240
444,163,63665,1,0,0:0:0
384,239,63958,2,0,B|136:239,1,240
83,314,64839,1,0,0:0:0
162,368,65133,1,2,0:0:0
254,341,65427,1,0,0:0:0
345,368,65720,1,2,0:0:0
429,321,66014,1,0,0:0:0
367,247,66308,6,0,B|367:107,1,120
296,61,66895,1,2,0:0:0
226,127,67189,2,0,B|226:269,1,120
150,305,67776,1,2,0:0:0
72,248,68070,1,0,0:0:0
150,193,68363,2,0,B|150:65,1,120
230,20,68951,1,0,0:0:0
286,97,69245,2,2,B|412:97,1,120
478,162,69832,1,0,0:0:0
408,228,70126,6,0,B|408:293,1,60
359,288,70419,1,2,0:0:0
359,336,70566,1,0,0:0:0
310,335,70713,1,0,0:0:0
207,336,71007,6,0,B|82:336,1,120
87,287,71447,1,0,0:0:0
135,287,71594,1,2,0:0:0
136,190,71888,2,0,B|137:123,1,60
83,118,72181,1,0,0:0:0
111,79,72328,1,2,0:0:0
159,79,72475,1,0,0:0:0
188,116,72622,1,0,0:0:0
236,117,72769,5,2,0:0:0
331,116,73062,2,0,B|332:190,1,60
380,176,73356,1,0,0:0:0
378,272,73650,2,0,B|314:271,1,60
318,319,73944,1,2,0:0:0
222,316,74237,1,0,0:0:0
136,272,74531,5,0,0:0:0
102,237,74678,1,2,0:0:0
78,194,74825,1,0,0:0:0
64,148,74971,1,0,0:0:0
56,100,75118,1,2,0:0:0
56,100,75412,1,0,0:0:0
255,6,75706,6,0,B|255:146,1,120
359,152,76293,1,2,0:0:0
306,246,76587,1,0,0:0:0
198,246,76880,1,0,0:0:0
149,148,77174,1,0,0:0:0
256,162,77468,2,0,B|256:27,1,120,2|0,0:0|0:0,0:0:0
256,192,78055,12,0,79817,0:0:0
286,81,80405,5,0,0:0:0
286,81,80551,2,0,B|204:80,3,60
225,131,81139,2,0,B|224:208,3,60
176,193,81726,2,0,B|103:192,3,60
116,240,82314,2,0,B|116:269,6,30
73,317,83048,5,0,0:0:0
166,335,83341,1,8,0:0:0
260,318,83635,2,0,B|324:338,1,60
317,335,83929,1,0,0:0:0
317,335,84076,1,8,0:0:0
317,335,84223,1,0,0:0:0
402,291,84516,2,0,B|448:244,1,60
418,206,84810,2,0,B|368:133,1,60,8|0,0:0|0:0,0:0:0
360,114,85104,5,0,0:0:0
287,50,85397,1,0,0:0:0
215,113,85691,1,8,0:0:0
142,50,85985,1,0,0:0:0
142,50,86131,1,0,0:0:0
68,111,86425,1,0,0:0:0
68,111,86572,1,0,0:0:0
139,174,86866,2,0,B|139:313,1,120,8|0,0:0|0:0,0:0:0
186,296,87306,1,0,0:0:0
186,344,87453,6,4,B|291:394|434:338,1,240
471,262,88334,1,0,0:0:0
471,262,88481,1,0,0:0:0
471,262,88628,2,0,B|457:200|394:160,1,120
339,94,89215,1,8,0:0:0
339,94,89509,1,0,0:0:0
265,32,89803,2,0,B|159:92|144:235,1,240,0|8,0:0|0:0,0:0:0
260,292,90684,1,0,0:0:0
393,225,90977,6,0,B|374:91|251:22,1,240,0|8,0:0|0:0,0:0:0
217,31,91711,1,8,0:0:0
168,30,91858,1,8,0:0:0
119,30,92005,1,8,0:0:0
70,30,92152,5,4,0:0:0
19,111,92446,1,0,0:0:0
64,195,92739,1,8,0:0:0
111,111,93033,1,0,0:0:0
135,111,93180,1,8,0:0:0
224,190,93474,1,0,0:0:0
200,191,93620,1,8,0:0:0
175,191,93767,1,0,0:0:0
151,191,93914,1,8,0:0:0
46,263,94208,6,0,B|197:263,1,120,4|4,0:0|0:0,0:0:0
190,263,94648,1,0,0:0:0
214,263,94795,1,0,0:0:0
216,359,95089,1,8,0:0:0
312,359,95383,1,0,0:0:0
312,359,95529,2,0,B|440:359,1,120
432,310,95970,2,8,B|298:310,1,120,8|8,0:0|0:0,0:0:0
314,213,96557,5,8,0:0:0
217,213,96851,2,4,B|217:81,1,120
120,91,97438,1,8,0:0:0
120,91,97732,2,4,B|120:229,1,120
117,307,98319,1,0,0:0:0
213,305,98613,1,8,0:0:0
436,72,99200,5,0,0:0:0
390,156,99494,1,4,0:0:0
362,194,99641,1,0,0:0:0
329,228,99788,1,8,0:0:0
254,287,100082,1,4,0:0:0
168,327,100375,1,4,0:0:0
256,192,100522,12,0,101550,0:0:0
323,319,101844,5,0,0:0:0
276,328,101990,1,0,0:0:0
228,332,102137,1,8,0:0:0
49,331,102578,2,4,B|112:224,1,120
103,139,103165,2,4,B|41:31,1,120
43,34,103606,1,0,0:0:0
43,34,103753,1,0,0:0:0
43,34,103899,1,4,0:0:0
256,89,113297,5,4,0:0:0
169,46,113591,1,0,0:0:0
83,89,113885,1,8,0:0:0
168,131,114178,2,4,B|168:275,1,120
259,209,114766,1,0,0:0:0
260,160,114913,1,0,0:0:0
260,111,115060,1,8,0:0:0
352,134,115353,6,4,B|352:278,1,120
258,279,115941,1,0,0:0:0
166,250,116234,1,8,0:0:0
77,286,116528,1,0,0:0:0
78,189,116822,2,0,B|329:189,1,240,4|8,0:0|0:0,0:0:0
318,140,117556,1,0,0:0:0
318,140,117703,6,0,B|318:56,2,60
414,138,118290,1,0,0:0:0
415,234,118584,1,8,0:0:0
319,234,118877,1,0,0:0:0
320,185,119024,1,0,0:0:0
320,136,119171,2,0,B|190:136,1,120
151,136,119612,1,0,0:0:0
151,136,119758,2,0,B|120:191|151:262,1,120,8|0,0:0|0:0,0:0:0
243,251,120346,5,4,0:0:0
101,134,120933,1,8,0:0:0
166,63,121227,1,4,0:0:0
256,31,121521,1,0,0:0:0
256,31,121667,1,0,0:0:0
256,31,121814,1,4,0:0:0
344,67,122108,1,8,0:0:0
408,137,122402,1,0,0:0:0
257,192,122695,5,4,0:0:0
101,250,122989,5,0,0:0:0
166,321,123283,1,8,0:0:0
256,353,123576,1,0,0:0:0
256,353,123723,1,0,0:0:0
256,353,123870,1,4,0:0:0
344,317,124164,1,0,0:0:0
408,247,124457,1,8,0:0:0
337,98,125045,5,4,0:0:0
252,142,125339,1,0,0:0:0
252,142,125485,1,0,0:0:0
252,142,125632,1,8,0:0:0
169,93,125926,2,0,B|231:22|343:15,1,180,4|0,0:0|0:0,0:0:0
372,33,126513,2,0,B|412:166,1,120,4|8,0:0|0:0,0:0:0
364,234,127101,1,0,0:0:0
400,322,127394,6,0,B|250:322,1,120,0|0,0:0|0:0,0:0:0
186,346,127982,1,8,0:0:0
96,311,128275,2,0,B|46:201,1,120,4|0,0:0|0:0,0:0:0
126,147,128863,2,0,B|244:86,1,120,4|8,0:0|0:0,0:0:0
302,159,129450,1,0,0:0:0
396,140,129744,6,0,B|453:89,2,60,4|0|4,0:0|0:0|0:0,0:0:0
388,187,130184,2,0,B|442:234,2,60,4|0|4,0:0|0:0|0:0,0:0:0
334,198,130625,1,4,0:0:0
292,221,130772,1,0,0:0:0
249,197,130919,2,0,B|114:197,1,120,0|8,0:0|0:0,0:0:0
108,153,131359,2,0,B|249:154,1,120
276,155,131800,1,8,0:0:0
329,73,132093,5,4,0:0:0
139,39,132681,1,2,0:0:0
78,113,132974,1,0,0:0:0
146,180,133268,2,0,B|187:230|202:289,1,120
105,278,133855,2,0,B|201:212|340:202,1,240,2|0,0:0|0:0,0:0:0
408,258,134736,1,0,0:0:0
436,166,135030,1,2,0:0:0
356,112,135324,1,0,0:0:0
276,166,135618,6,0,B|164:107,1,120
115,31,136205,2,0,B|28:279,1,240,2|0,0:0|0:0,0:0:0
117,307,137086,1,0,0:0:0
206,271,137380,2,0,B|153:159,1,120,2|0,0:0|0:0,0:0:0
399,69,138261,1,0,0:0:0
337,142,138554,2,0,B|407:257,1,120,2|0,0:0|0:0,0:0:0
335,298,139142,5,0,0:0:0
260,357,139435,1,0,0:0:0
182,299,139729,2,0,B|257:173,1,120,2|0,0:0|0:0,0:0:0
267,102,140316,1,0,0:0:0
310,82,140463,1,2,0:0:0
330,125,140610,1,0,0:0:0
298,160,140757,1,0,0:0:0
254,139,140904,5,2,0:0:0
157,138,141198,1,0,0:0:0
157,233,141491,2,0,B|75:350,1,120
160,141,142079,2,0,B|87:24,1,120,2|0,0:0|0:0,0:0:0
200,36,142666,6,0,B|270:142,1,120
215,217,143253,1,2,0:0:0
266,297,143547,1,0,0:0:0
362,298,143841,1,0,0:0:0
416,219,144134,1,0,0:0:0
364,138,144428,1,2,0:0:0
364,138,144575,1,0,0:0:0
267,137,144869,1,0,0:0:0
267,137,145015,1,0,0:0:0
216,218,145309,1,0,0:0:0
216,218,145456,1,0,0:0:0
216,218,145603,1,2,0:0:0
311,298,145897,1,0,0:0:0
264,64,146190,6,0,B|181:165,1,120
264,64,146778,2,0,B|216:12,1,60
264,64,147071,2,0,B|319:7,1,60,2|0,0:0|0:0,0:0:0
263,63,147365,2,0,B|360:177,1,120
303,238,147952,1,0,0:0:0
258,257,148099,1,0,0:0:0
213,238,148246,1,2,0:0:0
137,328,148540,6,0,B|386:329,1,240,0|2,0:0|0:0,0:0:0
259,246,149421,1,0,0:0:0
202,162,149714,1,0,0:0:0
202,162,149861,2,0,B|333:162,1,120,2|2,0:0|0:0,0:0:0
321,113,150302,2,0,B|176:113,1,120,0|2,0:0|0:0,0:0:0
151,260,150889,5,4,0:0:0
94,134,151183,1,0,0:0:0
94,134,151330,1,0,0:0:0
94,134,151477,1,8,0:0:0
206,72,151770,1,0,0:0:0
206,72,151917,1,8,0:0:0
205,71,152064,2,0,B|214:136|269:188,1,120,0|8,0:0|0:0,0:0:0
309,228,152504,2,0,B|374:215|434:156,1,120
372,119,152945,1,8,0:0:0
372,119,153092,1,0,0:0:0
414,58,153239,5,4,0:0:0
411,297,153826,1,8,0:0:0
345,196,154120,1,0,0:0:0
265,106,154413,1,0,0:0:0
204,105,154560,1,8,0:0:0
202,165,154707,1,0,0:0:0
141,164,154854,1,8,0:0:0
140,224,155001,1,8,0:0:0
141,104,155294,5,0,0:0:0
76,205,155588,2,0,B|76:81,1,120
196,86,156176,1,8,0:0:0
196,205,156469,1,0,0:0:0
256,205,156616,1,8,0:0:0
330,110,156910,1,8,0:0:0
390,110,157057,1,0,0:0:0
390,169,157203,1,0,0:0:0
389,229,157350,1,8,0:0:0
255,247,157644,5,0,0:0:0
185,154,157938,2,0,B|185:26,1,120,4|0,0:0|0:0,0:0:0
331,34,158525,2,0,B|331:162,1,120,4|0,0:0|0:0,0:0:0
256,248,159112,1,4,0:0:0
149,303,159406,2,4,B|253:352|400:296,1,240
256,192,160287,12,4,162049,0:0:0
111,247,162637,5,0,0:0:0
215,188,162930,1,0,0:0:0
109,130,163224,1,8,0:0:0
215,74,163518,2,0,B|253:75|253:75|275:92,1,60
271,148,163811,1,0,0:0:0
271,148,163958,2,0,B|324:148|324:148|342:120,1,60,8|0,0:0|0:0,0:0:0
329,81,164252,1,0,0:0:0
329,81,164399,2,8,B|397:81|397:81|448:132,1,120,8|8,0:0|0:0,0:0:0
439,238,164986,5,0,0:0:0
396,280,165133,1,0,0:0:0
344,310,165280,1,0,0:0:0
291,280,165427,1,0,0:0:0
248,238,165573,1,8,0:0:0
346,169,165867,2,0,B|345:87,1,60
345,48,166161,1,0,0:0:0
345,48,166308,1,0,0:0:0
345,48,166455,2,0,B|258:48|258:48|210:90,1,120,0|8,0:0|0:0,0:0:0
231,190,167042,1,8,0:0:0
307,97,167336,6,0,B|309:224,1,120,4|0,0:0|0:0,0:0:0
389,306,167923,1,8,0:0:0
345,346,168070,1,0,0:0:0
284,347,168217,1,0,0:0:0
239,306,168363,1,0,0:0:0
310,209,168657,1,0,0:0:0
310,209,168804,1,0,0:0:0
308,90,169098,2,0,B|308:220,1,120,8|0,0:0|0:0,0:0:0
110,300,169685,5,4,0:0:0
309,299,170272,1,0,0:0:0
309,299,170419,1,0,0:0:0
309,299,170566,1,4,0:0:0
307,28,171153,1,0,0:0:0
307,28,171300,1,0,0:0:0
307,28,171447,1,8,0:0:0
256,192,172035,12,12,173944,0:0:0
104,104,183782,5,0,0:0:0
70,194,184076,1,0,0:0:0
70,194,184223,1,0,0:0:0
70,194,184369,1,8,0:0:0
143,256,184663,2,0,B|207:290,1,60
240,264,184957,2,0,B|304:248,1,60
340,271,185250,1,0,0:0:0
418,215,185544,1,8,0:0:0
342,154,185838,1,8,0:0:0
263,99,186131,6,0,B|116:99,1,120
94,101,186572,2,0,B|92:187|92:187|131:236,1,120,8|8,0:0|0:0,0:0:0
156,237,187013,2,0,B|252:237|252:237|290:272,1,120
271,350,187600,1,8,0:0:0
363,324,187894,1,8,0:0:0
444,273,188187,1,8,0:0:0
443,176,188481,6,0,B|443:46,1,120
344,224,189068,2,0,L|344:351,1,120,8|0,0:0|0:0,0:0:0
243,175,189656,2,0,L|243:47,1,120
136,221,190243,2,0,L|136:365,1,120,8|0,0:0|0:0,0:0:0
254,328,190830,5,0,0:0:0
254,328,190977,1,8,0:0:0
254,328,191124,1,0,0:0:0
254,328,191271,1,0,0:0:0
254,328,191418,1,8,0:0:0
255,232,191711,1,0,0:0:0
255,232,191858,1,0,0:0:0
256,183,192005,1,0,0:0:0
256,183,192152,1,4,0:0:0
344,145,192446,1,4,0:0:0
256,106,192739,1,4,0:0:0
207,105,192886,2,0,L|160:105,4,30
207,201,193474,5,0,0:0:0
205,296,193767,1,8,0:0:0
301,296,194061,2,0,B|264:211|303:92,1,180
294,119,194648,1,0,0:0:0
350,41,194942,1,8,0:0:0
425,99,195236,1,0,0:0:0
463,186,195529,6,0,B|395:231,3,60
368,199,196117,2,0,B|311:166,1,60
273,191,196410,2,0,B|199:224,1,60
174,195,196704,1,0,0:0:0
228,274,196998,1,0,0:0:0
155,337,197292,1,8,0:0:0
60,321,197585,1,0,0:0:0
33,228,197879,6,0,B|12:170,3,60
49,140,198466,2,0,B|75:83,3,60
117,65,199054,2,0,B|181:52,3,60
221,67,199641,1,0,0:0:0
265,85,199788,1,0,0:0:0
311,73,199935,1,0,0:0:0
355,91,200082,1,0,0:0:0
399,74,200228,5,4,0:0:0
407,265,200816,1,8,0:0:0
327,211,201109,1,4,0:0:0
142,266,201697,1,8,0:0:0
220,210,201990,1,4,0:0:0
256,192,202578,12,0,203753,0:0:0
256,112,213151,5,4,0:0:0
194,185,213738,1,0,0:0:0
254,259,214325,1,0,0:0:0
314,184,214913,1,0,0:0:0
257,92,215500,5,0,0:0:0
185,173,216087,1,2,0:0:0
254,253,216675,1,0,0:0:0
330,172,217262,1,2,0:0:0
256,78,217850,6,0,B|256:144,2,60
153,78,219024,2,0,B|116:58|72:93|11:68,1,120
35,173,220199,2,0,B|79:143|116:189|176:163,1,120
152,242,221374,1,0,0:0:0
152,242,221667,1,0,0:0:0
152,242,221961,1,0,0:0:0
228,108,222549,5,4,0:0:0
148,108,223136,2,0,B|80:108,1,60,2|0,0:0|0:0,0:0:0
9,107,223723,1,0,0:0:0
9,126,223870,1,0,0:0:0
10,145,224017,1,0,0:0:0
9,165,224164,1,0,0:0:0
9,185,224311,1,2,0:0:0
256,192,224898,12,0,226807,0:0:0
257,31,227247,6,0,B|256:164,1,120
256,187,227982,1,8,0:0:0
256,223,228129,1,8,0:0:0
256,258,228275,1,0,0:0:0
255,329,228422,5,12,0:0:0
158,258,228716,1,0,0:0:0
41,285,229010,1,8,0:0:0
77,170,229303,1,0,0:0:0
130,62,229597,1,0,0:0:0
183,35,229744,1,8,0:0:0
236,61,229891,1,0,0:0:0
288,91,230037,1,0,0:0:0
342,66,230184,2,0,B|342:149|342:149|304:196,2,120,8|8|8,0:0|0:0|0:0,0:0:0
452,17,231065,5,0,0:0:0
454,136,231359,1,8,0:0:0
383,241,231653,1,0,0:0:0
383,241,231800,1,8,0:0:0
383,180,231946,1,0,0:0:0
323,180,232093,1,8,0:0:0
323,180,232240,1,8,0:0:0
323,119,232387,1,0,0:0:0
323,119,232534,2,0,B|324:265,1,120,4|4,0:0|0:0,0:0:0
330,358,233121,5,4,0:0:0
225,298,233415,1,0,0:0:0
122,360,233709,1,8,0:0:0
20,295,234002,1,0,0:0:0
123,234,234296,1,4,0:0:0
224,297,234590,1,0,0:0:0
325,232,234883,1,8,0:0:0
222,169,235177,1,0,0:0:0
342,167,235471,6,0,B|489:167,1,120,4|0,0:0|0:0,0:0:0
341,47,236058,2,0,B|343:181,1,120,8|0,0:0|0:0,0:0:0
340,287,236645,1,0,0:0:0
340,287,236792,5,4,0:0:0
294,325,236939,1,0,0:0:0
233,325,237086,1,4,0:0:0
187,286,237233,1,12,0:0:0
187,286,237526,1,8,0:0:0
258,225,237820,6,0,B|258:92,1,120,4|0,0:0|0:0,0:0:0
425,36,238408,1,8,0:0:0
358,203,238701,1,0,0:0:0
259,52,238995,1,0,0:0:0
169,208,239289,1,0,0:0:0
105,39,239582,1,8,0:0:0
255,137,239876,6,0,B|255:280,1,120,4|4,0:0|0:0,0:0:0
94,343,240463,1,0,0:0:0
161,176,240757,1,8,0:0:0
260,327,241051,1,0,0:0:0
349,173,241344,1,0,0:0:0
414,340,241638,1,8,0:0:0
381,256,241785,1,0,0:0:0
246,254,242079,1,0,0:0:0
207,346,242225,1,8,0:0:0
311,304,242519,5,4,0:0:0
312,136,243107,1,8,0:0:0
312,136,243400,1,4,0:0:0
191,136,243694,2,0,B|191:266,1,120
191,136,244281,1,8,0:0:0
192,257,244575,1,0,0:0:0
256,192,244869,12,8,247218,0:0:0
256,192,247512,5,0,0:0:0
256,192,247659,1,0,0:0:0
256,192,247805,1,8,0:0:0
124,167,248246,5,0,0:0:0
194,68,248540,1,0,0:0:0
318,69,248833,1,0,0:0:0
392,168,249127,1,0,0:0:0
