osu file format v13

[General]
AudioFilename: Marukaite Chikyuu- Japan (eng sub).mp3
AudioLeadIn: 0
PreviewTime: 39083
Countdown: 0
SampleSet: Soft
StackLeniency: 0.7
Mode: 0
LetterboxInBreaks: 1
WidescreenStoryboard: 1

[Editor]
DistanceSpacing: 1.1
BeatDivisor: 4
GridSize: 4
TimelineZoom: 1.1

[Metadata]
Title:Marukaite Chikyuu
TitleUnicode:まるかいて地球
Artist:Takahashi Hiroki
ArtistUnicode:高橋広樹
Creator:ByBy_ChAn
Version:Normal Collab
Source:ヘタリア Axis Powers
Tags:hetalia japan nihon 日本 AIR Kenterz ErunamoJAZZ Estellia-
BeatmapID:532470
BeatmapSetID:220496

[Difficulty]
HPDrainRate:3
CircleSize:2.7
OverallDifficulty:4
ApproachRate:5
SliderMultiplier:1.3
SliderTickRate:1

[Events]
//Background and Video events
0,0,"Kiku-3-hetalia-japan-27591482-1024-704.jpg",0,0
//Break Periods
2,101158,107258
//Storyboard Layer 0 (Background)
//Storyboard Layer 1 (Fail)
//Storyboard Layer 2 (Pass)
//Storyboard Layer 3 (Foreground)
Sprite,Foreground,Centre,"SB\1-1.png",320,240 M,0,1565,1682,-166,218,127,169 R,0,1565,1682,0,0.2888205 S,0,1565,8596,1.11159 R,0,1682,8596,0.2888205 F,0,8596,8947,1,0 S,0,8596,8947,1.11159,0.5667692 R,0,8596,8947,0.2888205,-0.2756921
Sprite,Foreground,Centre,"SB\1-2.png",320,240 M,0,9065,,528,205 F,0,9065,9182,0,1 S,0,9065,9182,0.6455386,1.091898 R,0,9065,9182,0.249436,-0.4463588 S,0,9182,22424,1.091898,1.011782 R,0,9182,22424,-0.4463588 F,0,9182,22658,1 S,0,22424,23127,1.011782,0.3488075 R,0,22424,23127,-0.4463588,2.822564 F,0,22658,23127,1,0
Sprite,Foreground,Centre,"SB\1-1.png",320,240 M,0,24065,,235,264 F,0,24065,46096,1 S,0,24065,46096,1.242872,1.249437 F,0,46096,46447,1,0 S,0,46096,46447,1.249437,0.9212308 R,0,46096,46447,0,0.5513849
Sprite,Foreground,Centre,"SB\1-1.png",320,240 F,0,24065,24768,1,0 S,0,24065,24768,1.242873,1.746625 M,0,24065,61565,235,264,507,228
Sprite,Foreground,Centre,"SB\1-2.png",320,240 M,0,46565,,234,-27 M,0,46565,46682,234,-27,172,112 R,0,46565,46682,-0.2231796,0.2625638 S,0,46565,59924,1.085333,1.137846 R,0,46682,59924,0.2625638 S,0,59924,60627,1.137846,0.5273846 R,0,59924,60627,0.2625638,3.899077 F,0,60158,60627,1,0
Sprite,Foreground,Centre,"SB\1-1.png",320,240 M,0,61565,,461,241 S,0,61565,,1.164103 R,0,61565,,0.2888205 F,0,61565,84065,1 F,0,84065,100940,1 F,0,100940,101408,1,0
Sprite,Foreground,Centre,"SB\1-1.png",320,240 M,0,61565,,461,241 R,0,61565,,0.2888205 F,0,61565,62268,1,0 S,0,61565,62268,1.164103,1.746625
Sprite,Foreground,Centre,"SB\1-1.png",320,240 M,0,108440,,151,161 F,0,108440,108908,0,1 R,0,108440,115940,-0.328205 F,0,108908,,1 F,0,108908,115958,1 R,0,115940,116057,-0.328205,-0.03938431 F,0,115958,116895,1,0 R,0,116057,116174,-0.03938431,0.3544618 R,0,116174,116291,0.3544618,0.8664616 R,0,116291,116408,0.8664616,1.457231 R,0,116408,116525,1.457231,2.244923 R,0,116525,116643,2.244923,3.308308 R,0,116643,116760,3.308308,4.148513 R,0,116760,116877,4.148513,5.001847
Sprite,Foreground,Centre,"SB\1-1.png",320,240 M,0,116877,,491,186 S,0,116877,122736,0.9934358 R,0,116877,122736,-0.3019485 F,0,116877,122970,1 S,0,122736,123439,0.9934358,0.4157947 R,0,122736,123439,-0.3019485,2.297436 F,0,122970,123439,1,0
Sprite,Foreground,Centre,"SB\1-3.png",320,240 M,0,124377,,253,192 S,0,124377,,1.118154 R,0,124377,,-0.3019485 F,0,124377,155783,1 F,0,155783,,1
Sprite,Foreground,Centre,"SB\1-3.png",320,240 M,0,124377,,253,192 R,0,124377,,-0.3019485 F,0,124377,125314,1,0 S,0,124377,125314,1.118154,1.794257
//Storyboard Sound Samples

[TimingPoints]
1583,468.75,4,3,0,40,1,0
1583,-100,4,3,1,40,0,0
24083,-100,4,2,1,60,0,1
38614,-100,4,3,1,40,0,0
46583,-100,4,3,1,40,0,0
61583,-100,4,2,1,60,0,1
76114,-100,4,3,1,40,0,0
116895,468.75,4,3,0,40,1,0
116895,-100,4,3,0,40,0,0
124395,-100,4,2,1,60,0,1
138926,-100,4,2,1,60,0,0
139395,-100,4,2,1,60,0,1
155801,-100,4,3,1,40,0,0

[Colours]
Combo1 : 128,128,192
Combo2 : 97,128,233
Combo3 : 164,194,240
Combo4 : 225,156,248

[HitObjects]
275,241,1583,6,0,P|162:294|59:225,1,260,4|0,0:2|0:0,0:0:0:0:
173,139,2989,1,0,0:0:0:0:
282,46,3458,2,0,B|251:31|251:31|196:31|196:31|134:11,2,130,0|0|0,0:0|0:0|0:0,0:0:0:0:
335,93,4629,1,0,0:0:0:0:
388,141,4864,1,0,0:0:0:0:
466,259,5333,6,0,P|401:315|348:317,1,130,4|0,0:2|0:0,0:0:0:0:
288,307,6036,1,0,0:0:0:0:
216,317,6270,2,0,P|180:314|144:294,2,65,2|0|2,0:0|0:0|0:0,0:0:0:0:
277,187,7208,38,0,P|210:175|146:187,1,130,4|0,0:2|0:0,0:0:0:0:
88,225,7911,1,0,0:0:0:0:
68,293,8145,2,0,P|63:326|70:360,2,65,2|0|2,0:0|0:0|0:0,0:0:0:0:
210,309,9083,6,0,L|347:303,1,130,4|0,0:2|0:0,0:0:0:0:
372,239,9786,1,2,0:0:0:0:
361,168,10020,2,0,L|207:174,1,130,0|0,0:0|0:0,0:0:0:0:
249,30,10958,2,0,L|406:25,2,130,4|0|4,0:2|0:0|0:0,0:0:0:0:
181,53,12129,1,0,0:0:0:0:
118,88,12364,1,2,0:0:0:0:
55,216,12833,22,0,P|136:216|196:168,1,130,4|0,0:2|0:0,0:0:0:0:
233,148,13536,1,2,0:0:0:0:
278,92,13770,2,0,P|331:49|413:50,1,130
461,168,14708,2,0,P|438:296|316:313,1,260,4|0,0:2|0:0,0:0:0:0:
253,193,16114,1,2,0:0:0:0:
316,65,16583,6,0,P|252:53|182:74,1,130,4|0,0:2|0:0,0:0:0:0:
159,134,17286,1,2,0:0:0:0:
134,201,17520,2,0,P|80:195|16:139,1,130
144,74,18458,2,0,P|206:36|263:37,2,130,4|0|4,0:2|0:0|0:0,0:0:0:0:
95,125,19629,1,0,0:0:0:0:
60,188,19864,1,2,0:0:0:0:
202,204,20333,6,0,L|210:358,1,130,4|0,0:2|0:0,0:0:0:0:
277,355,21036,1,2,0:0:0:0:
317,294,21270,2,0,L|310:147,1,130
196,77,22208,2,0,P|134:58|65:58,1,130,4|0,0:2|0:0,0:0:0:0:
3,86,22911,1,0,0:0:0:0:
5,157,23145,1,2,0:0:0:0:
64,331,24083,22,0,P|143:348|199:322,1,130,6|2,0:0|0:0,0:0:0:0:
229,273,24786,1,8,0:0:0:0:
273,216,25020,2,0,P|304:158|379:142,1,130,2|2,0:0|0:0,0:0:0:0:
432,153,25723,1,8,0:0:0:0:
469,214,25958,2,0,P|455:287|405:324,1,130,6|8,0:0|0:0,0:0:0:0:
271,319,26895,2,0,P|235:255|159:236,1,130,2|2,0:0|0:0,0:0:0:0:
133,284,27598,1,8,0:0:0:0:
75,326,27833,6,0,P|33:273|46:197,1,130,6|2,0:0|0:0,0:0:0:0:
63,147,28536,1,8,0:0:0:0:
120,104,28770,2,0,P|183:82|253:105,1,130,2|2,0:0|0:0,0:0:0:0:
297,143,29473,1,8,0:0:0:0:
345,196,29708,1,6,0:0:0:0:
483,209,30176,2,0,B|483:277|483:277|437:341,1,130,8|6,0:0|0:0,0:0:0:0:
303,330,31114,1,2,0:0:0:0:
163,297,31583,6,0,P|99:308|16:290,1,130,6|2,0:2|0:0,0:0:0:0:
11,230,32286,1,8,0:0:0:0:
36,163,32520,2,0,P|102:151|179:168,1,130,2|2,0:0|0:0,0:0:0:0:
227,194,33223,1,8,0:0:0:0:
277,244,33458,2,0,P|343:260|405:238,2,130,6|2|2,2:0|0:0|0:0,0:0:0:0:
141,198,34864,1,8,0:0:0:0:
236,91,35333,6,0,B|284:47|284:47|356:47,1,130,6|8,0:0|0:0,0:0:0:0:
418,61,36036,1,2,0:0:0:0:
475,103,36270,2,0,P|484:168|474:233,1,130,6|8,2:0|0:0,0:0:0:0:
416,272,36973,1,2,0:0:0:0:
353,306,37208,2,0,P|285:324|223:303,2,130,6|8|4,2:0|0:0|0:0,0:0:0:0:
454,39,39083,6,0,P|404:93|344:118,1,130
282,126,39786,1,2,0:0:0:0:
214,148,40020,2,0,P|123:189|101:223,1,130
76,276,40723,1,2,0:0:0:0:
130,322,40958,2,0,P|197:342|260:315,2,130,8|2|0,0:0|0:0|0:0,0:0:0:0:
83,188,42364,1,2,0:0:0:0:
189,89,42833,6,0,B|255:78|255:78|337:89,1,130,0|0,0:0|0:0,0:0:0:0:
385,109,43536,1,2,0:0:0:0:
434,160,43770,2,0,P|453:246|439:294,1,130,0|0,0:0|0:0,0:0:0:0:
375,309,44473,1,2,0:0:0:0:
306,329,44708,6,0,P|275:333|222:326,2,65,0|0|0,0:0|0:0|0:0,0:0:0:0:
375,309,45411,1,2,0:0:0:0:
384,238,45645,2,0,P|354:137|312:116,1,130,0|0,0:0|0:0,0:0:0:0:
209,189,46583,6,0,P|225:250|275:290,1,130,4|0,0:2|0:0,0:0:0:0:
329,337,47286,1,2,0:0:0:0:
381,288,47520,2,0,P|358:217|296:182,1,130,0|2,0:0|0:0,0:0:0:0:
193,107,48458,2,0,L|80:188,2,130,4|0|4,0:2|0:0|0:0,0:0:0:0:
250,65,49629,1,0,0:0:0:0:
316,37,49864,1,2,0:0:0:0:
442,108,50333,6,0,L|455:254,1,130,4|0,0:2|0:0,0:0:0:0:
406,292,51036,1,2,0:0:0:0:
335,300,51270,2,0,L|320:151,1,130,0|2,0:0|0:0,0:0:0:0:
217,73,52208,2,0,P|147:66|80:85,2,130,4|0|0,0:2|0:0|0:0,0:0:0:0:
155,202,53614,1,2,0:0:0:0:
259,300,54083,38,0,L|247:159,1,130,4|0,0:2|0:0,0:0:0:0:
313,141,54786,1,2,0:0:0:0:
369,184,55020,2,0,L|380:328,1,130,0|2,0:0|0:0,0:0:0:0:
237,292,55958,2,0,P|179:311|100:288,1,130,4|2,0:2|0:0,0:0:0:0:
101,225,56661,1,0,0:0:0:0:
106,153,56895,2,0,P|169:133|241:154,1,130,0|2,0:0|0:0,0:0:0:0:
363,198,57833,6,0,L|346:45,1,130,4|0,0:2|0:0,0:0:0:0:
281,43,58536,1,2,0:0:0:0:
217,76,58770,2,0,L|229:218,1,130,0|2,0:0|0:0,0:0:0:0:
173,338,59708,2,0,P|103:324|47:287,1,130,4|0,0:2|0:0,0:0:0:0:
20,231,60411,1,0,0:0:0:0:
18,159,60645,1,2,0:0:0:0:
293,92,61583,6,0,P|359:69|421:99,1,130,6|2,2:0|0:0,0:0:0:0:
440,156,62286,1,8,0:0:0:0:
436,227,62520,2,0,P|429:294|364:334,1,130,2|2,0:0|0:0,0:0:0:0:
310,335,63223,1,8,0:0:0:0:
239,335,63458,2,0,B|183:342|145:335|145:335|113:297,1,130,6|8,2:0|0:0,0:0:0:0:
106,165,64395,2,0,B|128:137|128:137|166:130|222:137,1,130,2|2,0:0|0:0,0:0:0:0:
293,143,65098,1,8,0:0:0:0:
364,148,65333,22,0,P|388:209|359:278,1,130,4|2,0:0|0:0,0:0:0:0:
308,307,66036,1,8,0:0:0:0:
239,325,66270,2,0,P|179:317|131:260,1,130,2|8,0:0|0:0,0:0:0:0:
101,203,66973,1,0,0:0:0:0:
80,134,67208,1,6,0:0:0:0:
214,85,67676,2,0,B|280:73|280:73|361:88,1,130,8|6,0:0|0:0,0:0:0:0:
280,214,68614,1,2,0:0:0:0:
173,309,69083,6,0,P|108:324|40:308,1,130,6|0,0:2|0:0,0:0:0:0:
16,246,69786,1,8,0:0:0:0:
33,176,70020,2,0,B|71:113|71:113|152:112,1,130,2|2,0:0|0:0,0:0:0:0:
197,129,70723,1,8,0:0:0:0:
247,180,70958,2,8,P|286:238|351:244,2,130,4|2|2,0:0|0:0|0:0,0:0:0:0:
144,80,72364,1,8,0:0:0:0:
154,223,72833,6,0,B|155:297|155:297|231:323,1,130,6|8,0:0|0:0,0:0:0:0:
277,325,73536,1,2,0:0:0:0:
348,324,73770,2,0,P|396:279|399:216,1,130,6|8,2:0|0:0,0:0:0:0:
399,146,74473,1,2,0:0:0:0:
346,96,74708,2,0,P|282:81|205:103,2,130,6|8|4,2:0|0:0|0:0,0:0:0:0:
142,296,76583,22,0,B|91:310|37:298|37:298|16:264,2,130,4|2|0,0:2|0:0|0:0,0:0:0:0:
205,262,77754,1,2,0:0:0:0:
254,205,77989,1,4,0:2:0:0:
321,78,78458,1,4,0:2:0:0:
463,91,78926,1,2,0:0:0:0:
405,220,79395,2,0,L|354:293,2,65,0|0|2,0:0|0:0|0:0,0:0:0:0:
352,86,80333,6,0,P|287:68|215:97,2,130,4|2|0,0:2|0:0|0:0,0:0:0:0:
394,143,81504,1,2,0:0:0:0:
340,190,81739,1,4,0:2:0:0:
212,280,82208,1,4,0:2:0:0:
342,338,82676,1,2,0:0:0:0:
420,218,83145,2,0,P|377:160|360:149,1,65,0|0,0:0|0:0,0:0:0:0:
332,114,83614,1,2,0:0:0:0:
194,74,84083,6,0,B|115:95|83:138|83:138|104:206|196:232,1,260,4|0,0:2|0:0,0:0:0:0:
308,270,85489,1,4,0:2:0:0:
304,126,85958,2,0,L|303:45,2,65,4|2|0,0:2|0:0|0:0,0:0:0:0:
308,270,86895,2,0,P|266:285|216:280,1,65,0|2,0:0|0:0,0:0:0:0:
176,272,87364,1,0,0:0:0:0:
191,129,87833,38,0,P|150:70|92:51,1,130,4|0,0:2|0:0,0:0:0:0:
26,65,88536,1,2,0:0:0:0:
0,131,88770,1,4,0:2:0:0:
10,287,89239,1,2,0:0:0:0:
153,288,89708,6,0,L|154:201,1,65,4|0,0:2|0:0,0:0:0:0:
153,151,90176,1,2,0:0:0:0:
277,221,90645,2,0,L|277:294,2,65,4|0|0,0:2|0:0|0:0,0:0:0:0:
276,149,91348,1,2,0:0:0:0:
218,105,91583,2,0,B|148:104|102:51|102:51|50:86|54:173,1,260,4|0,0:2|0:0,0:0:0:0:
55,306,92989,1,4,0:2:0:0:
197,289,93458,22,0,P|245:245|265:181,1,130,4|0,0:2|0:0,0:0:0:0:
245,115,94161,1,2,0:0:0:0:
191,68,94395,1,4,0:2:0:0:
111,187,94864,1,2,0:0:0:0:
153,323,95333,6,4,P|81:316|33:268,1,130,4|0,0:2|0:0,0:0:0:0:
10,213,96036,1,2,0:0:0:0:
33,145,96270,1,4,0:2:0:0:
146,58,96739,1,2,0:0:0:0:
281,102,97208,6,0,P|301:161|280:232,1,130,4|0,0:2|0:0,0:0:0:0:
162,298,98145,2,0,B|83:282|83:282|67:235,1,130,4|0,0:2|0:0,0:0:0:0:
44,167,98848,1,2,0:0:0:0:
51,95,99083,2,0,B|66:48|66:48|145:32,1,130,4|0,0:2|0:0,0:0:0:0:
216,31,99786,1,2,0:0:0:0:
285,46,100020,2,0,P|357:82|390:133,1,130
432,256,100958,5,4,0:2:0:0:
87,314,108458,6,0,P|159:310|208:255,1,130,4|0,0:2|0:0,0:0:0:0:
256,228,109161,1,2,0:0:0:0:
309,274,109395,2,0,P|362:317|429:326,1,130
456,264,110098,1,2,0:0:0:0:
444,193,110333,2,0,B|388:188|364:146|364:146|311:146,1,130,4|0,0:2|0:0,0:0:0:0:
259,146,111036,1,2,0:0:0:0:
187,148,111270,2,0,B|142:148|142:148|120:198|65:193,1,130,0|2,0:0|0:0,0:0:0:0:
199,266,112208,22,0,P|255:292|321:253,2,130,4|0|0,0:2|0:0|0:0,0:0:0:0:
154,210,113379,1,0,0:0:0:0:
114,150,113614,1,2,0:0:0:0:
167,102,113848,1,0,0:0:0:0:
238,98,114083,2,0,B|278:87|325:101|325:101|374:101,2,130,4|0|0,0:2|0:0|0:0,0:0:0:0:
105,152,115489,1,2,0:0:0:0:
191,286,116895,38,0,P|257:300|322:284,1,130,4|0,0:2|0:0,0:0:0:0:
382,258,117598,1,2,0:0:0:0:
433,202,117832,2,0,P|446:165|447:124,2,65,0|2|0,0:0|0:0|0:0,0:0:0:0:
315,285,118770,2,4,P|248:302|181:279,1,130,4|0,0:2|0:0,0:0:0:0:
175,215,119473,1,2,0:0:0:0:
185,144,119707,2,4,P|252:128|328:152,1,130,0|0,0:0|0:0,0:0:0:0:
413,243,120645,6,0,B|391:316|391:316|329:333,1,130,4|0,0:2|0:0,0:0:0:0:
267,335,121348,1,2,0:0:0:0:
195,334,121582,2,0,B|143:319|143:319|121:246,1,130,0|0,0:0|0:0,0:0:0:0:
193,122,122520,2,0,P|254:102|318:122,2,130,4|0|0,0:2|0:0|0:0,0:0:0:0:
78,208,123926,1,2,0:0:0:0:
195,289,124395,38,0,B|255:313|255:313|315:289,2,130,12|0|2,0:0|0:0|0:0,0:0:0:0:
185,216,125566,1,0,0:0:0:0:
191,144,125801,2,0,P|239:121|259:91,1,65,8|0,0:0|0:0,0:0:0:0:
311,80,126270,2,0,P|363:128|393:194,1,130,12|0,0:0|0:0,0:0:0:0:
393,323,127207,1,12,0:0:0:0:
256,276,127676,21,2,0:0:0:0:
120,324,128145,2,0,P|92:300|69:266,1,65,12|0,0:0|0:0,0:0:0:0:
109,215,128613,2,0,P|97:187|89:146,1,65,8|0,0:0|0:0,0:0:0:0:
115,86,129082,2,0,L|256:76,1,130,12|8,0:0|0:0,0:0:0:0:
387,85,130020,38,0,P|397:46|412:14,2,65,12|0|0,0:0|0:0|0:0,0:0:0:0:
416,152,130723,1,0,0:0:0:0:
412,224,130957,2,0,P|376:284|311:318,1,130,2|0,0:0|0:0,0:0:0:0:
182,314,131895,6,0,P|123:276|87:220,2,130,12|0|0,0:0|0:0|0:0,0:0:0:0:
252,324,133066,1,8,0:0:0:0:
308,276,133301,2,0,P|328:247|340:203,1,65,8|8,0:0|0:0,0:0:0:0:
338,147,133770,22,0,P|266:131|224:77,1,130,12|8,0:0|0:0,0:0:0:0:
100,32,134707,1,12,0:0:0:0:
32,156,135176,1,0,0:0:0:0:
136,252,135645,22,0,P|156:276|196:305,1,65,12|0,0:0|0:0,0:0:0:0:
245,330,136113,1,4,0:0:0:0:
378,278,136582,2,0,P|406:298|435:338,2,65,12|0|4,0:0|0:0|0:0,0:0:0:0:
244,228,137520,38,0,L|272:165,1,65,4|0,0:0|0:0,0:0:0:0:
257,98,137988,2,0,L|188:64,1,65,8|0,0:0|0:0,0:0:0:0:
127,81,138457,2,0,L|95:143,1,65,4|0,0:0|0:0,0:0:0:0:
107,209,138926,2,0,L|177:245,1,65,8|0,0:0|0:0,0:0:0:0:
192,305,139395,6,0,P|256:333|316:297,1,130,12|0,0:0|0:0,0:0:0:0:
256,184,140332,1,4,0:0:0:0:
256,184,140801,1,8,0:0:0:0:
315,53,141270,2,0,P|256:28|194:57,1,130,12|0,0:0|0:0,0:0:0:0:
256,184,142207,1,12,0:0:0:0:
388,124,142676,1,2,0:0:0:0:
456,252,143145,22,0,P|436:292|400:320,1,65,12|0,0:0|0:0,0:0:0:0:
351,304,143613,2,0,P|315:324|263:325,1,65,8|0,0:0|0:0,0:0:0:0:
224,312,144082,2,0,P|172:284|138:200,1,130,12|0,0:0|0:0,0:0:0:0:
92,88,145020,22,0,P|60:80|35:48,2,65,12|0|0,0:0|0:0|0:0,0:0:0:0:
160,64,145723,1,0,0:0:0:0:
231,64,145957,2,0,P|275:120|326:198,1,130,4|0,0:0|0:0,0:0:0:0:
383,290,146895,38,0,P|415:266|434:236,2,65,12|8|0,0:0|0:0|0:0,0:0:0:0:
256,352,147832,1,8,0:0:0:0:
188,336,148066,1,8,0:0:0:0:
120,308,148301,2,0,P|80:304|50:286,1,65,8|0,0:0|0:0,0:0:0:0:
28,227,148770,6,0,P|48:151|76:87,1,130,12|8,0:0|0:0,0:0:0:0:
197,42,149707,1,12,0:0:0:0:
131,169,150176,1,2,0:0:0:0:
157,309,150645,38,0,P|197:329|232:341,1,65,12|0,0:0|0:0,0:0:0:0:
284,352,151113,1,4,0:0:0:0:
364,236,151582,2,0,P|328:212|301:182,1,65,12|0,0:0|0:0,0:0:0:0:
280,132,152051,2,0,P|296:100|307:57,1,65,2|0,0:0|0:0,0:0:0:0:
256,20,152520,1,12,0:0:0:0:
256,192,152754,12,12,155801,0:2:0:0:
