osu file format v14

[General]
AudioFilename: Takahashi Chiaki, Hara Yumi, Asakura Azumi, Hasegawa Akiko - GOODNIGHTSTARS.mp3
AudioLeadIn: 0
PreviewTime: 71352
Countdown: 0
SampleSet: Soft
StackLeniency: 0.5
Mode: 0
LetterboxInBreaks: 0
WidescreenStoryboard: 0

[Editor]
DistanceSpacing: 1
BeatDivisor: 4
GridSize: 4
TimelineZoom: 1

[Metadata]
Title:GOODNIGHT*STARS
TitleUnicode:グッナイ☆スターズ
Artist:Takahashi Chiaki, Hara Yumi, Asakura Azumi, Hasegawa Akiko
ArtistUnicode:たかはし智秋, 原由実, 浅倉杏美, 長谷川明子
Creator:Startrick
Version:Euny's Norm@l
Source:ぷちます!! -プチプチ・アイドルマスター-
Tags:Puchimas!! -PETIT PETIT IDOLM@STER- THE IDOLMASTER IM@S IMAS Season 2 Ending ED Theme Maxi Single Miura Azusa Shijou Takane Hagiwara Yukiho Hoshii Miki Miurasan Takanya Yukipo Afu Enon Euny
BeatmapID:759750
BeatmapSetID:338414

[Difficulty]
HPDrainRate:4
CircleSize:3.5
OverallDifficulty:5
ApproachRate:4
SliderMultiplier:1.3
SliderTickRate:1

[Events]
//Background and Video events
0,0,"bg.png",0,0
//Break Periods
2,116566,122104
//Storyboard Layer 0 (Background)
//Storyboard Layer 1 (Fail)
//Storyboard Layer 2 (Pass)
//Storyboard Layer 3 (Foreground)
//Storyboard Sound Samples

[TimingPoints]
9840,468.75,4,2,1,60,1,0
15230,-100,4,2,1,25,0,0
15424,428.571428571429,4,2,1,60,1,0
20138,-100,4,2,1,45,0,0
20352,-100,4,2,1,60,0,0
23566,-100,4,2,1,45,0,0
23781,-100,4,2,1,60,0,0
27209,-100,4,2,1,40,0,0
29138,-100,4,2,1,60,0,0
43066,-100,4,2,1,45,0,0
43281,-100,4,2,1,60,0,0
43495,-100,4,2,1,45,0,0
43709,-100,4,2,1,60,0,0
43924,-100,4,2,1,45,0,0
44138,-100,4,2,1,60,0,0
65566,-100,4,2,1,40,0,0
65995,-100,4,2,1,60,0,0
67281,-100,4,2,1,40,0,0
68566,-100,4,2,1,60,0,0
71995,-100,4,2,1,70,0,1
99424,-100,4,2,1,60,0,0
102424,-100,4,2,1,45,0,0
102852,-100,4,2,1,60,0,0
129852,-100,4,2,1,60,0,0
143995,-100,4,2,1,60,0,0
157709,-100,4,2,1,70,0,1
184709,-100,4,2,1,60,0,0
212566,-100,4,2,1,70,0,1
239995,-100,4,2,1,45,0,0
242566,-100,4,2,1,60,0,0
246209,-100,4,2,1,40,0,0
246852,-100,4,2,1,60,0,0
250281,-100,4,2,1,45,0,0
251152,468.75,4,2,1,45,1,0
254004,526.315789473684,4,2,1,35,1,0
255260,550.45871559633,4,2,1,35,1,0

[Colours]
Combo1 : 255,230,130
Combo2 : 156,204,252
Combo3 : 160,152,192
Combo4 : 184,132,120

[HitObjects]
64,144,9840,6,0,P|128:132|192:84,1,130,2|2,0:0|0:0,0:0:0:0:
248,60,10543,1,2,0:0:0:0:
328,48,10777,2,0,P|296:104|316:172,1,130,2|2,0:0|0:0,0:0:0:0:
456,224,11715,6,0,L|388:276,1,65,4|0,0:1|0:0,0:0:0:0:
336,300,12183,2,0,L|264:284,1,65,4|0,0:1|0:0,0:0:0:0:
208,240,12652,2,0,L|240:168,2,65,8|2|8,0:0|0:3|0:0,0:0:0:0:
152,292,13355,2,0,B|122:237|122:237|150:184|150:184|90:193|90:193|49:151|49:151|38:208|38:208|-10:239|-10:239|34:264|34:264|47:325|47:325|88:283|88:283,1,520,4|0,0:1|0:0,0:0:0:0:
472,44,16495,6,0,L|400:28,2,65,2|2|2,0:0|0:0|0:0,0:0:0:0:
464,120,17138,6,0,P|440:184|464:268,1,130,4|2,0:0|0:0,0:0:0:0:
328,340,17995,2,0,P|312:273|245:217,1,130,2|2,0:0|0:0,0:0:0:0:
144,140,18852,1,2,0:0:0:0:
144,140,19066,2,0,L|220:120,1,65,2|2,0:0|0:0,0:0:0:0:
280,100,19495,1,2,0:0:0:0:
436,104,19924,2,0,P|456:128|488:148,2,65,2|2|2,0:0|0:0|0:0,0:0:0:0:
360,116,20566,6,0,P|328:168|256:176,1,130,2|2,0:0|0:0,0:0:0:0:
108,168,21424,2,0,P|98:223|133:302,1,130,2|0,0:0|0:0,0:0:0:0:
280,276,22281,1,2,0:0:0:0:
280,276,22495,2,0,L|368:256,1,65,2|2,0:0|0:0,0:0:0:0:
420,240,22924,1,2,0:0:0:0:
348,104,23352,2,0,P|352:72|368:40,2,65,2|2|2,0:0|0:0|0:0,0:0:0:0:
272,128,23995,6,0,B|244:148|208:132|208:132|176:116|147:128,1,130,2|2,0:0|0:0,0:0:0:0:
100,192,24638,1,2,0:0:0:0:
100,192,24852,2,0,P|96:251|57:312,1,130,2|2,0:0|0:0,0:0:0:0:
124,356,25495,1,2,0:0:0:0:
124,356,25709,2,0,L|256:332,1,130,2|2,0:0|0:0,0:0:0:0:
328,316,26352,2,0,P|352:280|352:244,1,65,2|2,0:0|0:0,0:0:0:0:
316,108,26995,1,2,0:0:0:0:
316,108,27209,1,8,0:0:0:0:
240,92,27424,6,0,L|108:124,1,130,8|8,0:0|0:0,0:0:0:0:
28,256,28281,2,0,L|154:225,1,130,8|8,0:0|0:0,0:0:0:0:
288,304,29138,2,0,L|162:335,2,130,4|4|0,0:0|0:0|0:0,0:0:0:0:
348,252,30209,1,4,0:0:0:0:
348,252,30424,1,4,0:0:0:0:
420,112,30852,6,0,L|352:76,1,65,4|0,0:0|0:0,0:0:0:0:
284,68,31281,2,0,L|216:84,1,65,0|0,3:0|0:0,0:0:0:0:
144,92,31709,2,0,P|139:156|110:214,1,130,2|0,0:0|3:0,0:0:0:0:
96,292,32352,1,0,0:0:0:0:
96,292,32566,2,0,B|125:304|157:288|157:288|193:272|221:292,1,130,2|0,0:0|3:0,0:0:0:0:
364,356,33424,2,0,P|356:304|404:236,1,130,2|0,0:0|3:0,0:0:0:0:
379,84,34281,6,0,P|349:94|317:94,1,65,2|0,0:0|0:0,0:0:0:0:
244,68,34709,2,0,P|211:67|181:78,1,65,0|0,3:0|0:0,0:0:0:0:
104,96,35138,2,0,B|105:127|133:149|133:149|163:175|156:209,1,130,2|0,0:0|3:0,0:0:0:0:
160,288,35781,1,0,0:0:0:0:
288,200,36209,2,0,P|316:184|348:172,2,65,2|2|2,0:0|0:0|0:0,0:0:0:0:
328,268,36852,2,0,P|384:244|468:256,1,130,2|0,0:0|3:0,0:0:0:0:
492,180,37495,1,0,0:0:0:0:
492,180,37709,6,0,L|464:32,1,130,2|0,0:0|3:0,0:0:0:0:
312,56,38566,2,0,L|240:84,1,65,2|0,0:0|0:0,0:0:0:0:
180,108,38995,2,0,L|96:84,1,65,0|0,3:0|0:0,0:0:0:0:
48,124,39424,2,0,P|64:164|36:256,1,130,2|0,0:0|3:0,0:0:0:0:
32,324,40066,2,0,B|80:336|120:288|120:288|160:304,1,130,2|0,0:0|0:0,0:0:0:0:
212,340,40709,1,0,3:0:0:0:
368,316,41138,6,0,L|352:176,1,130,2|0,0:0|3:0,0:0:0:0:
336,112,41781,1,0,0:0:0:0:
336,112,41995,2,0,P|284:136|184:128,1,130,2|0,0:0|3:0,0:0:0:0:
140,108,42638,1,0,0:0:0:0:
28,216,43066,2,0,L|88:252,1,65,2|0,0:0|3:0,0:0:0:0:
160,248,43495,2,0,L|236:224,1,65,2|0,0:0|0:0,0:0:0:0:
300,232,43924,2,0,L|368:260,1,65,2|4,0:0|3:1,0:0:0:0:
476,360,44566,6,0,P|469:295|481:223,1,130,4|0,0:0|0:0,0:0:0:0:
500,76,45424,2,0,B|471:64|439:80|439:80|403:96|372:76,1,130,2|0,0:0|3:0,0:0:0:0:
304,44,46066,1,0,0:0:0:0:
168,120,46495,2,0,L|104:160,1,65,2|0,0:0|0:0,0:0:0:0:
48,200,46924,1,2,0:0:0:0:
72,274,47138,2,0,P|88:310|84:346,2,65,2|2|2,0:0|0:0|0:0,0:0:0:0:
40,120,47995,6,0,L|60:44,1,65,2|0,0:0|0:0,0:0:0:0:
132,32,48424,2,0,P|172:48|200:40,1,65,0|0,3:0|0:0,0:0:0:0:
272,44,48852,2,0,B|316:24|356:40|356:40|372:92,1,130,2|0,0:0|3:0,0:0:0:0:
376,160,49495,1,0,0:0:0:0:
324,308,49924,2,0,L|244:324,2,65,2|2|2,0:0|0:0|0:0,0:0:0:0:
298,234,50566,2,0,L|154:264,1,130,2|0,0:0|3:0,0:0:0:0:
103,300,51209,1,0,0:0:0:0:
103,300,51424,6,0,P|115:236|84:162,1,130,2|0,0:0|3:0,0:0:0:0:
94,98,52066,2,0,P|128:97|166:87,1,65,2|0,0:0|0:0,0:0:0:0:
221,44,52495,2,0,P|288:40|348:68,1,130,0|2,3:0|0:0,0:0:0:0:
457,175,53352,2,0,L|439:252,1,65,0|0,0:0|3:0,0:0:0:0:
400,304,53781,2,0,P|356:316|268:268,1,130,2|0,0:0|0:0,0:0:0:0:
228,228,54424,1,0,3:0:0:0:
100,316,54852,6,0,L|76:180,1,130,2|0,0:0|3:0,0:0:0:0:
136,44,55709,2,0,L|163:189,1,130,2|0,0:0|3:0,0:0:0:0:
245,305,56566,2,0,P|295:267|301:201,1,130,2|0,0:0|3:0,0:0:0:0:
336,52,57424,2,0,L|268:33,1,65,2|4,0:0|3:0,0:0:0:0:
196,20,57852,2,0,L|133:45,1,65,8|0,3:0|0:0,0:0:0:0:
75,94,58281,6,0,B|101:164|45:210|45:210|99:271|71:344,1,260,4|2,0:0|0:0,0:0:0:0:
182,217,59566,1,0,3:0:0:0:
251,77,59995,2,0,L|317:56,1,65,2|0,0:0|0:0,0:0:0:0:
390,73,60424,2,0,L|458:125,1,65,0|0,3:0|0:0,0:0:0:0:
496,168,60852,1,2,0:0:0:0:
444,316,61281,1,0,3:0:0:0:
291,292,61709,6,0,P|262:304|230:307,1,65,2|0,0:0|0:0,0:0:0:0:
176,252,62138,2,0,P|143:255|114:267,1,65,0|0,3:0|0:0,0:0:0:0:
64,331,62566,2,0,B|16:280|52:211|52:211|93:147|56:84,1,260,2|2,0:0|0:0,0:0:0:0:
213,73,63852,1,0,3:0:0:0:
334,175,64281,1,2,0:0:0:0:
178,189,64709,2,0,P|169:226|179:258,1,65,0|0,3:0|0:0,0:0:0:0:
142,322,65138,6,0,P|191:294|283:303,1,130,2|8,0:0|0:0,0:0:0:0:
412,339,65995,1,2,0:0:0:0:
469,193,66424,2,0,P|478:156|468:124,1,65,0|0,3:0|0:0,0:0:0:0:
505,60,66852,2,0,P|455:88|363:79,1,130,2|8,0:0|0:0,0:0:0:0:
234,44,67709,2,0,L|161:58,2,65,8|8|8,0:0|0:0|0:0,0:0:0:0:
253,198,68566,6,0,P|216:222|110:220,1,130,2|0,0:0|3:0,0:0:0:0:
53,228,69209,1,0,0:0:0:0:
53,228,69424,2,0,L|31:306,2,65,2|8|8,0:0|0:0|0:0,0:0:0:0:
182,314,70281,2,0,P|222:308|262:288,1,65,2|0,0:0|0:0,0:0:0:0:
299,243,70709,2,0,P|325:221|379:206,1,65,0|0,3:0|3:0,0:0:0:0:
431,200,71138,2,0,L|475:260,2,65,2|4|8,0:0|3:0|0:0,0:0:0:0:
372,56,71995,6,0,B|343:68|311:52|311:52|275:36|247:56,1,130,4|0,0:1|1:0,0:0:0:0:
198,117,72638,1,0,0:0:0:0:
198,117,72852,2,0,P|219:182|183:254,1,130,2|0,0:0|1:0,0:0:0:0:
66,321,73709,2,0,P|57:291|51:258,1,65,4|0,0:0|0:0,0:0:0:0:
2,196,74138,2,0,P|11:165|17:132,1,65,0|0,1:0|0:0,0:0:0:0:
71,76,74566,2,0,P|102:68|135:69,1,65,2|0,0:0|0:0,0:0:0:0:
198,117,74995,1,0,1:0:0:0:
353,101,75424,6,0,P|328:148|352:224,1,130,4|0,0:1|1:0,0:0:0:0:
399,276,76066,1,0,0:0:0:0:
399,276,76281,2,0,L|266:277,1,130,2|0,0:0|1:0,0:0:0:0:
134,355,77138,2,0,P|120:317|104:290,1,65,4|0,0:0|0:0,0:0:0:0:
49,244,77566,2,0,P|62:206|78:179,1,65,0|0,1:0|0:0,0:0:0:0:
143,146,77995,2,0,P|129:108|113:81,1,65,2|0,0:0|0:0,0:0:0:0:
68,25,78424,1,0,1:0:0:0:
221,52,78852,6,0,B|264:67|304:40|304:40|346:69,1,130,2|0,0:0|1:0,0:0:0:0:
343,142,79495,2,0,P|320:180|335:269,1,130,2|0,0:0|0:0,0:0:0:0:
373,327,80138,1,0,1:0:0:0:
217,337,80566,2,0,B|188:349|156:333|156:333|120:317|92:337,1,130,2|0,0:0|1:0,0:0:0:0:
28,292,81209,2,0,B|35:261|14:232|14:232|-6:199|8:168,1,130,2|0,0:0|0:0,0:0:0:0:
40,97,81852,1,0,1:0:0:0:
189,52,82281,6,0,P|229:61|260:59,1,65,2|0,0:0|0:0,0:0:0:0:
330,51,82709,1,0,1:0:0:0:
330,51,82924,1,0,0:0:0:0:
382,108,83138,2,0,L|380:244,1,130,2|0,0:0|1:0,0:0:0:0:
256,331,83995,2,0,P|192:342|128:330,1,130,2|0,0:0|1:0,0:0:0:0:
102,256,84638,2,0,L|123:182,1,65,0|8,0:0|0:0,0:0:0:0:
189,52,85281,1,8,0:0:0:0:
344,36,85709,6,0,L|410:77,1,65,4|0,0:1|0:0,0:0:0:0:
462,116,86138,1,0,1:0:0:0:
367,239,86566,2,0,L|311:205,1,65,2|0,0:0|0:0,0:0:0:0:
249,161,86995,1,0,1:0:0:0:
256,316,87424,1,2,0:0:0:0:
108,368,87852,1,0,1:0:0:0:
12,244,88281,2,0,P|56:194|64:118,1,130,2|0,0:0|1:0,0:0:0:0:
213,86,89138,6,0,P|244:80|280:85,1,65,2|0,0:0|0:0,0:0:0:0:
345,120,89566,2,0,P|376:126|411:121,1,65,0|0,1:0|0:0,0:0:0:0:
482,149,89995,2,0,P|491:186|487:224,2,65,2|0|0,0:0|0:0|1:0,0:0:0:0:
373,36,90852,2,0,P|312:35|258:95,1,130,2|0,0:0|1:0,0:0:0:0:
241,154,91495,1,0,0:0:0:0:
241,154,91709,2,0,P|260:210|240:292,1,130,2|0,0:0|1:0,0:0:0:0:
120,372,92566,6,0,P|96:333|86:293,1,65,2|0,0:0|0:0,0:0:0:0:
52,246,92995,2,0,P|68:212|72:179,1,65,0|0,1:0|0:0,0:0:0:0:
73,106,93424,2,0,L|149:95,1,65,2|0,0:0|0:0,0:0:0:0:
214,83,93852,1,0,1:0:0:0:
361,31,94281,2,0,P|360:73|374:111,1,65,2|0,0:0|0:0,0:0:0:0:
397,165,94709,2,0,L|468:191,1,65,0|0,1:0|0:0,0:0:0:0:
481,262,95138,2,0,P|455:295|450:333,1,65,2|0,0:0|0:0,0:0:0:0:
378,349,95566,1,0,1:0:0:0:
234,288,95995,6,0,P|175:261|112:271,2,130,2|0|2,0:0|1:0|0:0,0:0:0:0:
268,135,97281,1,0,1:0:0:0:
112,144,97709,2,0,P|119:80|156:27,1,130,2|0,0:0|1:0,0:0:0:0:
268,135,98566,2,0,P|296:116|320:96,2,65,8|0|8,3:0|0:0|0:0,0:0:0:0:
420,172,99424,6,0,L|356:216,1,65,4|0,0:1|0:0,0:0:0:0:
336,280,99852,2,0,L|264:264,1,65,4|0,0:1|0:0,0:0:0:0:
196,288,100281,2,0,L|199:366,2,65,8|8|8,0:0|0:3|0:0,0:0:0:0:
202,208,100924,2,0,B|212:156|212:156|268:135|268:135|217:102|217:102|215:43|215:43|169:78|169:78|112:69|112:69|128:117|128:117|93:171|93:171,1,455,2|8,0:0|0:0,0:0:0:0:
12,295,102852,6,0,P|49:287|87:297,1,65,2|2,0:0|0:0,0:0:0:0:
151,309,103281,1,0,3:0:0:0:
151,309,103495,1,2,0:0:0:0:
228,304,103709,2,0,L|304:289,1,65,2|2,0:0|0:0,0:0:0:0:
442,332,104352,2,0,P|419:277|437:181,1,130,2|2,0:0|0:0,0:0:0:0:
460,138,104995,1,0,3:0:0:0:
460,138,105209,1,2,0:0:0:0:
444,61,105424,2,0,L|367:63,1,65,2|2,0:0|0:0,0:0:0:0:
301,63,105852,2,0,P|268:83|221:95,1,65,0|2,3:0|0:0,0:0:0:0:
165,78,106281,6,0,P|126:83|83:104,1,65,2|2,0:0|0:0,0:0:0:0:
42,142,106709,1,0,3:0:0:0:
42,142,106924,1,2,0:0:0:0:
77,211,107138,2,0,P|88:251|83:295,1,65,2|2,0:0|0:0,0:0:0:0:
228,340,107781,2,0,P|277:297|358:290,1,130,2|2,0:0|0:0,0:0:0:0:
417,295,108424,1,0,3:0:0:0:
417,295,108638,1,2,0:0:0:0:
455,227,108852,2,0,P|454:188|465:149,1,65,2|2,0:0|0:0,0:0:0:0:
444,86,109281,2,0,P|410:71|380:46,1,65,0|2,3:0|0:0,0:0:0:0:
312,36,109709,6,0,P|248:32|179:48,1,130,2|0,0:0|3:0,0:0:0:0:
28,36,110566,2,0,P|40:80|32:112,1,65,2|2,0:0|0:0,0:0:0:0:
64,172,110995,1,0,3:0:0:0:
140,168,111209,2,0,P|172:156|216:148,1,65,2|2,0:0|0:0,0:0:0:0:
272,184,111638,2,0,P|300:212|348:236,1,65,2|0,0:0|3:0,0:0:0:0:
292,296,112066,2,0,P|232:328|152:336,1,130,2|2,0:0|0:0,0:0:0:0:
92,328,112709,1,0,3:0:0:0:
12,192,113138,6,0,P|44:172|72:144,1,65,2|2,0:0|0:0,0:0:0:0:
134,115,113566,1,0,3:0:0:0:
134,115,113781,1,2,0:0:0:0:
205,85,113995,2,0,L|285:108,1,65,2|2,0:0|0:0,0:0:0:0:
415,152,114638,2,0,P|403:203|432:288,1,130,2|2,0:0|0:0,0:0:0:0:
386,344,115281,1,0,3:0:0:0:
386,344,115495,1,2,0:0:0:0:
308,339,115709,2,0,L|214:354,1,65,2|2,0:0|0:0,0:0:0:0:
165,344,116138,2,0,L|94:317,1,65,0|2,3:0|0:0,0:0:0:0:
172,243,123424,6,0,B|180:168|93:145|68:72|99:-1|172:-15|234:13|252:64|262:118|262:118|312:41|379:31|436:75|455:142|429:234|333:206|258:228|227:336,1,910,2|2,0:0|0:0,0:0:0:0:
381,303,126852,6,0,P|444:259|487:209,1,130,4|0,0:0|3:0,0:0:0:0:
501,144,127495,1,4,0:0:0:0:
501,144,127709,2,0,P|496:84|451:14,1,130,4|0,0:0|3:0,0:0:0:0:
383,29,128352,2,0,L|239:66,2,130,4|4|0,0:0|0:0|0:0,0:0:0:0:
461,24,129424,1,0,0:0:0:0:
409,170,129852,1,0,0:0:0:0:
339,309,130281,6,0,L|271:273,1,65,4|0,0:0|0:0,0:0:0:0:
208,250,130710,2,0,L|140:266,1,65,0|0,3:0|0:0,0:0:0:0:
72,235,131138,2,0,P|100:177|106:112,1,130,2|0,0:0|3:0,0:0:0:0:
165,61,131781,1,0,0:0:0:0:
165,61,131995,2,0,B|194:73|226:57|226:57|262:41|290:61,1,130,2|0,0:0|3:0,0:0:0:0:
417,151,132853,2,0,P|379:202|385:266,1,130,2|0,0:0|3:0,0:0:0:0:
246,337,133710,6,0,P|216:347|184:347,1,65,2|0,0:0|0:0,0:0:0:0:
109,320,134138,2,0,P|76:319|46:330,1,65,0|0,3:0|0:0,0:0:0:0:
14,258,134566,2,0,P|42:200|48:135,1,130,2|0,0:0|3:0,0:0:0:0:
36,58,135210,1,0,0:0:0:0:
190,79,135638,2,0,P|218:63|250:51,2,65,2|2|2,0:0|0:0|0:0,0:0:0:0:
230,147,136281,2,0,P|286:123|370:135,1,130,2|0,0:0|3:0,0:0:0:0:
424,160,136924,1,0,0:0:0:0:
424,160,137138,6,0,L|405:294,1,130,2|0,0:0|3:0,0:0:0:0:
255,329,137995,2,0,L|183:357,1,65,2|0,0:0|0:0,0:0:0:0:
116,341,138424,2,0,L|32:317,1,65,0|0,3:0|0:0,0:0:0:0:
44,245,138853,2,0,P|65:185|48:124,1,130,2|0,0:0|3:0,0:0:0:0:
108,75,139495,2,0,B|156:87|196:39|196:39|236:55,1,130,2|0,0:0|0:0,0:0:0:0:
297,72,140138,1,0,3:0:0:0:
400,188,140566,6,0,P|424:252|412:336,1,130,2|0,0:0|3:0,0:0:0:0:
268,276,141423,2,0,P|234:220|227:156,1,130,2|0,0:0|3:0,0:0:0:0:
76,192,142281,2,0,L|-4:216,2,65,2|0|0,0:0|3:0|3:0,0:0:0:0:
13,337,143138,2,0,L|85:316,1,65,2|4,0:0|3:0,0:0:0:0:
153,313,143566,2,0,L|218:326,1,65,8|0,3:0|0:0,0:0:0:0:
290,350,143995,6,0,B|309:300|382:268|382:268|335:221|252:221,1,260,4|2,0:0|0:0,0:0:0:0:
117,158,145281,1,0,3:0:0:0:
251,77,145709,2,0,L|317:56,1,65,2|0,0:0|0:0,0:0:0:0:
390,73,146138,2,0,L|458:125,1,65,0|0,3:0|0:0,0:0:0:0:
496,168,146566,1,2,0:0:0:0:
444,316,146995,1,0,3:0:0:0:
291,292,147423,6,0,P|262:304|230:307,1,65,2|0,0:0|0:0,0:0:0:0:
176,252,147852,2,0,P|143:255|114:267,1,65,0|0,3:0|0:0,0:0:0:0:
48,224,148280,2,0,B|-4:132|32:36|32:36|64:100,1,260,2|2,0:0|0:0,0:0:0:0:
216,72,149566,1,0,3:0:0:0:
334,175,149995,1,2,0:0:0:0:
178,189,150423,2,0,P|169:226|179:258,1,65,0|0,3:0|0:0,0:0:0:0:
142,322,150852,6,0,P|191:294|283:303,1,130,2|8,0:0|0:0,0:0:0:0:
412,339,151709,1,2,0:0:0:0:
469,193,152138,2,0,P|478:156|468:124,1,65,0|0,3:0|0:0,0:0:0:0:
505,60,152566,2,0,P|455:88|363:79,1,130,2|8,0:0|0:0,0:0:0:0:
228,64,153424,2,0,P|163:61|106:91,1,130,2|8,0:0|0:0,0:0:0:0:
48,236,154280,6,0,L|0:288,2,65,2|0|0,0:0|3:0|0:0,0:0:0:0:
112,192,154923,1,0,0:0:0:0:
112,192,155138,2,0,P|140:208|180:212,2,65,2|8|8,0:0|0:0|0:0,0:0:0:0:
108,35,155995,2,0,P|140:31|180:35,1,65,2|0,0:0|0:0,0:0:0:0:
240,71,156423,2,0,P|272:75|315:69,1,65,0|0,3:0|3:0,0:0:0:0:
377,44,156852,2,0,P|409:29|454:21,2,65,2|4|8,0:0|3:0|0:0,0:0:0:0:
457,178,157709,6,0,P|436:238|457:298,1,130,4|0,0:1|1:0,0:0:0:0:
409,359,158351,1,0,0:0:0:0:
409,360,158566,2,0,B|381:380|345:364|345:364|313:348|284:360,1,130,2|0,0:0|1:0,0:0:0:0:
128,367,159423,2,0,P|119:337|113:304,1,65,4|0,0:0|0:0,0:0:0:0:
68,239,159852,2,0,P|77:208|83:175,1,65,0|0,1:0|0:0,0:0:0:0:
106,101,160280,2,0,P|133:84|165:76,1,65,2|0,0:0|0:0,0:0:0:0:
243,76,160709,1,0,1:0:0:0:
398,83,161138,6,0,L|423:220,1,130,4|0,0:1|1:0,0:0:0:0:
438,287,161781,1,0,0:0:0:0:
438,287,161995,2,0,P|370:266|309:298,1,130,2|0,0:0|1:0,0:0:0:0:
164,314,162852,2,0,P|128:319|88:337,1,65,4|0,0:0|0:0,0:0:0:0:
29,299,163280,2,0,P|8:264|-2:235,1,65,0|0,1:0|0:0,0:0:0:0:
31,169,163709,2,0,P|43:130|47:99,1,65,2|0,0:0|0:0,0:0:0:0:
65,30,164138,1,0,1:0:0:0:
219,51,164566,6,0,B|260:28|302:39|302:39|344:68,1,130,2|0,0:0|1:0,0:0:0:0:
343,142,165209,2,0,P|320:180|335:269,1,130,2|0,0:0|0:0,0:0:0:0:
373,327,165852,1,0,1:0:0:0:
217,337,166280,2,0,B|160:300|92:337,1,130,2|0,0:0|1:0,0:0:0:0:
28,292,166923,2,0,B|48:220|8:168,1,130,2|0,0:0|0:0,0:0:0:0:
40,97,167566,1,0,1:0:0:0:
189,52,167995,6,0,P|229:61|260:59,1,65,2|0,0:0|0:0,0:0:0:0:
330,51,168423,1,0,1:0:0:0:
330,51,168638,1,0,0:0:0:0:
382,108,168852,2,0,B|368:140|380:176|380:176|392:208|380:244,1,130,2|0,0:0|1:0,0:0:0:0:
256,331,169709,2,0,P|192:342|128:330,1,130,2|0,0:0|1:0,0:0:0:0:
102,256,170352,2,0,L|123:182,1,65,0|8,0:0|0:0,0:0:0:0:
189,52,170995,1,8,0:0:0:0:
344,36,171423,6,0,L|410:77,1,65,4|0,0:1|0:0,0:0:0:0:
462,116,171852,1,0,1:0:0:0:
367,239,172280,2,0,L|311:205,1,65,2|0,0:0|0:0,0:0:0:0:
249,161,172709,1,0,1:0:0:0:
252,316,173138,1,2,0:0:0:0:
104,368,173566,1,0,1:0:0:0:
8,244,173995,2,0,P|52:194|60:118,1,130,2|0,0:0|1:0,0:0:0:0:
213,86,174852,6,0,P|244:80|280:85,1,65,2|0,0:0|0:0,0:0:0:0:
345,120,175280,2,0,P|376:126|411:121,1,65,0|0,1:0|0:0,0:0:0:0:
482,149,175709,2,0,P|491:186|487:224,2,65,2|0|0,0:0|0:0|1:0,0:0:0:0:
373,36,176566,2,0,P|312:35|258:95,1,130,2|0,0:0|1:0,0:0:0:0:
241,154,177209,1,0,0:0:0:0:
241,154,177423,2,0,P|260:210|240:292,1,130,2|0,0:0|1:0,0:0:0:0:
122,371,178280,6,0,P|98:332|88:292,1,65,2|0,0:0|0:0,0:0:0:0:
52,246,178709,2,0,P|68:212|72:179,1,65,0|0,1:0|0:0,0:0:0:0:
73,106,179138,2,0,L|149:95,1,65,2|0,0:0|0:0,0:0:0:0:
214,83,179566,1,0,1:0:0:0:
361,31,179995,2,0,P|360:73|374:111,1,65,2|0,0:0|0:0,0:0:0:0:
397,165,180423,2,0,L|468:191,1,65,0|0,1:0|0:0,0:0:0:0:
481,262,180852,2,0,P|455:295|450:333,1,65,2|0,0:0|0:0,0:0:0:0:
378,349,181280,1,0,1:0:0:0:
234,288,181709,6,0,P|175:261|112:271,2,130,2|0|2,0:0|1:0|0:0,0:0:0:0:
268,135,182995,1,0,1:0:0:0:
159,23,183423,2,0,P|121:79|117:154,1,130,2|0,0:0|1:0,0:0:0:0:
268,135,184280,2,0,P|296:116|320:96,2,65,8|0|8,3:0|0:0|0:0,0:0:0:0:
420,172,185138,6,0,L|356:216,1,65,4|0,0:1|0:0,0:0:0:0:
336,280,185566,2,0,L|264:264,1,65,4|0,0:1|0:0,0:0:0:0:
194,276,185995,2,0,L|197:354,2,65,8|8|8,0:0|0:3|0:0,0:0:0:0:
268,135,186852,2,0,L|263:52,1,65,4|0,0:1|0:0,0:0:0:0:
196,31,187281,2,0,P|133:39|104:31,1,65,4|0,0:1|0:0,0:0:0:0:
57,59,187709,2,0,P|40:104|11:131,1,65
14,193,188138,1,0,1:0:0:0:
63,340,188566,6,0,P|106:293|191:252,1,130,4|0,0:0|1:0,0:0:0:0:
227,305,189209,1,8,0:0:0:0:
227,305,189424,2,0,L|210:166,1,130,2|0,0:0|1:0,0:0:0:0:
319,63,190281,2,0,P|366:82|441:43,1,130,2|0,0:0|1:0,0:0:0:0:
496,3,190924,1,8,0:0:0:0:
496,3,191138,2,0,L|494:144,1,130,2|8,0:0|1:0,0:0:0:0:
499,289,191995,6,0,P|461:292|425:309,1,65,2|2,0:0|0:0,0:0:0:0:
364,332,192424,2,0,P|331:327|300:318,1,65,0|2,1:0|0:0,0:0:0:0:
234,277,192852,2,0,P|196:274|164:278,1,65,2|2,0:0|0:0,0:0:0:0:
106,323,193281,1,0,1:0:0:0:
38,182,193709,2,0,P|52:141|57:103,1,65,2|2,0:0|0:0,0:0:0:0:
110,64,194138,2,0,P|143:69|179:63,1,65,0|2,1:0|0:0,0:0:0:0:
251,57,194566,2,0,P|289:49|328:52,1,65,2|2,0:0|0:0,0:0:0:0:
385,83,194995,1,0,1:0:0:0:
481,204,195424,6,0,P|428:242|404:301,1,130,4|0,0:0|1:0,0:0:0:0:
344,351,196066,1,2,0:0:0:0:
344,351,196281,2,0,L|202:367,1,130,2|0,0:0|1:0,0:0:0:0:
74,296,197138,2,0,L|59:148,1,130,2|0,0:0|1:0,0:0:0:0:
57,88,197781,1,2,0:0:0:0:
57,88,197995,2,0,P|140:74|187:29,1,130,2|8,0:0|1:0,0:0:0:0:
330,42,198852,6,0,P|383:78|447:83,1,130,4|0,0:0|1:0,0:0:0:0:
448,239,199709,2,0,P|383:244|330:280,1,130,2|0,0:0|1:0,0:0:0:0:
182,329,200566,1,2,0:0:0:0:
90,202,200995,1,2,0:0:0:0:
90,202,201209,1,2,0:0:0:0:
127,50,201638,2,0,P|185:80|259:67,1,130,2|2,0:0|0:0,0:0:0:0:
313,31,202281,6,0,P|309:81|344:168,2,130,2|0|2,0:0|1:0|0:0,0:0:0:0:
464,68,203566,1,0,1:0:0:0:
451,223,203995,1,2,0:0:0:0:
361,351,204424,1,2,0:0:0:0:
361,351,204638,1,2,0:0:0:0:
206,366,205066,2,0,P|215:301|179:235,1,130,2|2,0:0|0:0,0:0:0:0:
127,196,205710,6,0,P|175:183|246:122,2,130,2|0|2,0:0|1:0|0:0,0:0:0:0:
113,41,206995,1,8,1:0:0:0:
269,37,207424,2,0,L|345:44,1,65,4|0,0:1|0:0,0:0:0:0:
411,49,207852,2,0,L|455:111,1,65,0|0,1:0|0:0,0:0:0:0:
488,169,208281,2,0,P|483:232|489:263,1,65,4|0,1:0|0:0,0:0:0:0:
454,305,208709,2,0,P|422:304|391:312,1,65,8|0,1:0|0:0,0:0:0:0:
256,192,209138,12,0,210852,1:0:0:0:
372,56,212566,6,0,B|343:68|311:52|311:52|275:36|247:56,1,130,4|0,0:1|1:0,0:0:0:0:
198,117,213209,1,0,0:0:0:0:
198,117,213423,2,0,P|219:182|183:254,1,130,2|0,0:0|1:0,0:0:0:0:
66,321,214280,2,0,P|57:291|51:258,1,65,4|0,0:0|0:0,0:0:0:0:
0,193,214709,2,0,P|9:162|15:129,1,65,0|0,1:0|0:0,0:0:0:0:
71,76,215137,2,0,P|102:68|135:69,1,65,2|0,0:0|0:0,0:0:0:0:
198,117,215566,1,0,1:0:0:0:
353,101,215995,6,0,P|328:148|352:224,1,130,4|0,0:1|1:0,0:0:0:0:
399,276,216637,1,0,0:0:0:0:
399,276,216852,2,0,L|266:277,1,130,2|0,0:0|1:0,0:0:0:0:
134,355,217709,2,0,P|120:317|104:290,1,65,4|0,0:0|0:0,0:0:0:0:
49,244,218137,2,0,P|62:206|78:179,1,65,0|0,1:0|0:0,0:0:0:0:
143,146,218566,2,0,P|129:108|113:81,1,65,2|0,0:0|0:0,0:0:0:0:
68,25,218995,1,0,1:0:0:0:
221,52,219423,6,0,B|264:67|304:40|304:40|346:69,1,130,2|0,0:0|1:0,0:0:0:0:
343,142,220066,2,0,P|320:180|335:269,1,130,2|0,0:0|0:0,0:0:0:0:
373,327,220709,1,0,1:0:0:0:
217,337,221137,2,0,B|188:349|156:333|156:333|120:317|92:337,1,130,2|0,0:0|1:0,0:0:0:0:
28,292,221780,2,0,B|35:261|14:232|14:232|-6:199|8:168,1,130,2|0,0:0|0:0,0:0:0:0:
40,97,222423,1,0,1:0:0:0:
189,52,222852,6,0,P|229:61|260:59,1,65,2|0,0:0|0:0,0:0:0:0:
330,51,223280,1,0,1:0:0:0:
330,51,223495,1,0,0:0:0:0:
382,108,223709,2,0,L|380:244,1,130,2|0,0:0|1:0,0:0:0:0:
256,331,224566,2,0,P|192:342|128:330,1,130,2|0,0:0|1:0,0:0:0:0:
102,256,225209,2,0,L|123:182,1,65,0|8,0:0|0:0,0:0:0:0:
189,52,225852,1,8,0:0:0:0:
344,36,226280,6,0,L|410:77,1,65,4|0,0:1|0:0,0:0:0:0:
462,116,226709,1,0,1:0:0:0:
367,239,227137,2,0,L|311:205,1,65,2|0,0:0|0:0,0:0:0:0:
249,161,227566,1,0,1:0:0:0:
151,283,227995,2,0,L|95:249,1,65,2|0,0:0|0:0,0:0:0:0:
59,180,228423,2,0,L|79:97,1,65,0|0,1:0|0:0,0:0:0:0:
65,39,228852,2,0,L|-6:12,2,65,2|0|0,0:0|0:0|1:0,0:0:0:0:
213,86,229709,6,0,P|244:80|280:85,1,65,2|0,0:0|0:0,0:0:0:0:
345,120,230137,2,0,P|376:126|411:121,1,65,0|0,1:0|0:0,0:0:0:0:
482,149,230566,2,0,P|491:186|487:224,2,65,2|0|0,0:0|0:0|1:0,0:0:0:0:
373,36,231423,2,0,P|312:35|258:95,1,130,2|0,0:0|1:0,0:0:0:0:
241,154,232066,1,0,0:0:0:0:
241,154,232280,2,0,P|260:210|240:292,1,130,2|0,0:0|1:0,0:0:0:0:
122,371,233137,6,0,P|98:332|88:292,1,65,2|0,0:0|0:0,0:0:0:0:
52,246,233566,2,0,P|68:212|72:179,1,65,0|0,1:0|0:0,0:0:0:0:
73,106,233995,2,0,L|149:95,1,65,2|0,0:0|0:0,0:0:0:0:
214,83,234423,1,0,1:0:0:0:
361,31,234852,2,0,P|360:73|374:111,1,65,2|0,0:0|0:0,0:0:0:0:
397,165,235280,2,0,L|468:191,1,65,0|0,1:0|0:0,0:0:0:0:
481,262,235709,2,0,P|455:295|450:333,1,65,2|0,0:0|0:0,0:0:0:0:
378,349,236137,1,0,1:0:0:0:
234,288,236566,6,0,P|175:261|112:271,2,130,2|0|2,0:0|1:0|0:0,0:0:0:0:
268,135,237852,1,0,1:0:0:0:
159,23,238280,2,0,P|121:79|117:154,1,130,2|0,0:0|1:0,0:0:0:0:
268,135,239137,2,0,L|343:112,1,65,2|0,0:0|0:0,0:0:0:0:
406,96,239566,2,0,L|459:152,1,65,8|0,2:0|0:0,0:0:0:0:
508,200,239995,5,4,0:1:0:0:
396,308,240424,1,2,0:0:0:0:
248,356,240852,2,0,P|200:316|114:298,1,130,2|8,0:0|0:3,0:0:0:0:
184,148,241709,1,4,0:1:0:0:
304,48,242138,1,2,0:0:0:0:
383,182,242566,2,0,P|345:244|335:306,1,130,2|8,0:0|0:0,0:0:0:0:
180,296,243424,6,0,P|167:232|131:178,1,130,4|0,0:0|3:0,0:0:0:0:
76,124,244066,1,2,0:0:0:0:
76,124,244281,2,0,L|208:120,1,130,2|0,0:0|3:0,0:0:0:0:
348,52,245138,2,0,L|404:20,1,65,2|2,0:0|0:0,0:0:0:0:
480,32,245566,2,0,P|464:81|468:169,1,130,0|2,3:0|0:0,0:0:0:0:
492,232,246209,1,8,0:0:0:0:
492,232,246424,1,8,0:0:0:0:
340,264,246852,6,0,P|305:326|246:363,2,130,2|0|2,0:0|3:0|0:0,0:0:0:0:
363,109,248138,2,0,L|295:113,1,65
223,92,248566,2,0,B|212:144|239:181|271:211|265:252|231:286|181:288|151:277|144:198|144:198|84:217|37:185|40:117|98:95|155:100,1,520,2|2,0:0|0:0,0:0:0:0:
372,60,251152,6,0,L|388:212,1,130
280,264,252089,2,0,L|263:111,1,130
148,76,253027,2,0,L|167:222,1,130
192,328,254004,5,2,0:0:0:0:
464,208,255260,2,0,L|464:144,2,65
