osu file format v7

[General]
AudioFilename: Girls Jundo UP.mp3
AudioLeadIn: 0
PreviewTime: 52016
Countdown: 0
SampleSet: Soft
StackLeniency: 0.7
Mode: 0
LetterboxInBreaks: 0

[Editor]
Bookmarks: 25107,37834,51925,63652,80016,87289,99652,113107,124743,136380
DistanceSpacing: 0.899999976158142
BeatDivisor: 4
GridSize: 8

[Metadata]
Title:Girl Jundo UP!
Artist:Takagi Reiko with Ono Ryoko
Creator:S i R i R u
Version:Normal
Source:Minami-ke
Tags:anime atsuko maki

[Difficulty]
HPDrainRate:3
CircleSize:3
OverallDifficulty:4
SliderMultiplier:1
SliderTickRate:0.5

[Events]
//Background and Video events
0,0,"BG.jpg"
//Break Periods
2,14390,24506
2,75481,79779
//Storyboard Layer 0 (Background)
//Storyboard Layer 1 (Fail)
//Storyboard Layer 2 (Pass)
//Storyboard Layer 3 (Foreground)
//Storyboard Sound Samples
//Background Colour Transformations
3,100,163,162,255

[TimingPoints]
2554,363.636363636364,4,2,2,79,1,0
14554,-100,4,2,1,60,0,0
52008,-100,4,2,2,80,0,1
57826,-100,4,2,2,80,0,0
63644,-100,4,2,2,80,0,1
69463,-100,4,2,2,80,0,0
87099,-100,4,2,1,71,0,0
113099,-100,4,2,2,71,0,1
118917,-100,4,2,2,71,0,0
124735,-100,4,2,2,71,0,1
130554,-100,4,2,2,71,0,0
148008,-100,4,2,2,71,0,1
148372,-100,4,2,1,71,0,0

[Colours]
Combo1 : 240,80,80
Combo2 : 255,255,255
Combo3 : 123,198,253
Combo4 : 255,128,0

[HitObjects]
256,192,2554,1,4
256,192,4008,1,4
160,192,5463,5,4
256,192,5826,1,0
352,192,6190,1,0
256,320,6917,5,4
256,320,7644,1,4
256,224,8008,1,0
256,128,8372,1,4
128,192,9826,5,4
376,192,11281,1,4
256,112,12008,1,4
256,256,12553,5,4
160,256,12917,1,0
160,256,13099,1,0
208,176,13463,1,2
304,176,13826,1,2
352,256,14190,1,4
392,192,25826,6,0,B|392:312,2,100,4|8|0
304,192,26917,1,8
304,104,27281,1,0
304,104,27644,2,0,B|192:104,1,100,8|0
112,104,28372,1,8
64,192,28735,6,0,B|64:312,2,100,2|8|0
152,192,29826,1,8
152,104,30190,2,0,B|200:104|232:136|240:176,1,100,0|8
152,192,30917,2,0,B|152:312,2,100,0|8|4
240,192,32008,5,8
416,192,32735,1,8
416,280,33099,1,0
328,280,33463,2,0,B|264:280|240:336,2,100,8|0|8
328,192,34554,5,4
328,192,34735,1,2
240,192,35099,1,0
240,192,35281,1,2
152,192,35644,1,8
184,104,36008,5,4
256,48,36372,1,8
328,104,36735,1,4
256,208,36917,12,2,38190
256,208,38917,5,4
256,208,39644,1,0
168,208,40008,2,0,B|56:208,2,100,2|4|2
256,208,41099,1,2
256,72,41644,5,0
256,72,41826,1,0
328,128,42190,1,2
416,128,42553,2,0,B|416:192|368:208|344:216,1,100,0|2
280,208,43281,5,4
232,208,43463,1,0
184,208,43644,1,8
96,208,44008,2,0,B|96:256|128:288|168:296,2,100,0|8|0
96,120,45099,1,8
184,120,45463,2,0,B|304:120,1,100
376,120,46190,5,4
256,256,46917,1,2
144,120,47644,1,2
256,104,48008,5,8
256,104,48372,1,0
256,192,48735,1,8
208,272,49099,5,4
208,272,49281,1,2
304,272,49644,1,4
304,272,49826,1,2
256,192,50190,1,4
256,192,50372,1,2
256,208,50553,12,4,52008
256,208,52372,5,8
304,208,52553,1,0
352,208,52735,1,0
440,208,53099,1,8
440,120,53463,6,0,B|320:120,1,100,0|8
272,64,54190,1,0
200,120,54553,2,0,B|88:120,2,100,8|4|8
200,208,55644,2,0,B|200:264,2,50,0|0|8
288,208,56372,2,0,B|336:208|368:240|368:264,2,100,0|8|0
200,208,57463,1,8
112,208,57826,2,0,B|112:320,2,100,4|8|0
112,120,58917,6,0,B|192:40,1,100,8|0
232,128,59644,2,0,B|304:56,2,100,8|0|8
232,216,60735,1,4
232,304,61099,1,8
232,304,61281,1,0
232,304,61463,1,0
320,304,61826,1,8
256,208,62190,12,4,63644
256,208,64008,5,8
256,296,64372,1,2
96,208,65099,1,0
96,120,65463,1,8
96,208,65826,1,2
256,120,66553,5,4
256,120,66917,1,8
344,120,67281,2,2,B|344:176|304:216|240:232|192:176,1,200
112,184,68372,1,8
112,272,68735,2,0,B|112:336|32:344,2,100,0|8|4
296,272,70190,5,2
296,96,70917,1,2
296,184,71281,1,8
296,96,71644,1,2
144,184,72372,6,0,B|24:184,2,100,4|8|0
144,272,73463,1,8
232,272,73826,1,4
416,272,74553,1,2
232,272,75281,1,4
256,192,81099,5,4
80,192,81826,1,0
168,192,82190,2,0,B|168:256|96:280,1,100,8|0
80,192,82917,2,0,B|80:88,2,100,8|0|8
80,280,84008,1,4
256,280,84735,1,4
256,208,85281,12,4,86917
256,208,87826,5,0
256,296,88190,1,0
256,296,88372,1,4
344,296,88735,2,0,B|464:296,2,100,8|0|8
256,296,89826,1,2
256,112,90553,5,2
176,272,91281,1,2
256,224,91644,1,10
336,272,92008,1,2
256,224,92372,6,0,B|256:104,2,100,8|4|8
168,224,93463,1,0
80,224,93826,2,0,B|80:296,2,50,8|0|0
168,224,94553,2,8,B|272:232|256:152|368:152,1,200
352,240,95644,6,0,B|456:240,2,100,4|8|0
280,296,96735,1,8
192,296,97099,1,4
144,296,97281,1,0
96,296,97463,1,4
256,208,97826,12,2,98917
256,208,99281,5,2
256,208,100008,2,0,B|256:328,2,100,4|2|0
256,208,101099,1,2
208,128,101463,5,4
256,120,101644,1,0
296,128,101826,1,2
256,208,102190,1,2
168,320,102917,5,4
256,320,103281,1,2
344,320,103644,1,0
256,320,104008,1,2
256,232,104372,1,4
256,56,105099,5,2
168,56,105463,1,8
168,144,105826,2,0,B|56:144,2,100,0|8|0
240,200,106917,1,8
240,200,107281,6,0,B|296:200,2,50,0|0|8
168,256,108008,2,0,B|104:256,2,50,0|0|8
240,312,108735,1,0
328,312,109099,1,8
368,232,109463,2,0,B|432:232,2,50,0|0|8
256,208,110190,5,4
256,208,110372,1,2
256,120,110735,1,4
256,120,110917,1,2
256,208,111281,1,4
256,208,111463,1,2
256,208,111644,12,4,113099
256,208,113463,5,8
192,272,113826,2,0,B|128:272|88:320,2,100,0|8|0
256,208,114917,1,8
320,272,115281,2,0,B|384:272|424:320,2,100,0|8|4
256,208,116372,5,8
256,208,116735,1,0
176,168,117099,2,8,B|208:96|336:112|344:192,2,200
176,168,118917,1,4
256,328,119644,5,2
256,328,120372,1,2
256,240,120735,1,8
256,152,121099,1,2
256,152,121826,1,4
256,328,122553,1,2
256,208,123281,12,4,124735
256,208,125099,5,8
256,296,125463,1,2
368,152,126190,1,2
456,152,126553,1,8
368,152,126917,1,2
192,152,127644,5,4
104,152,128008,2,0,B|104:208|160:240,1,100,8|0
192,152,128735,1,8
192,152,129099,2,0,B|304:152,2,100,0|8|0
192,240,130190,1,8
136,312,130553,1,4
312,312,131281,5,2
400,312,131644,2,8,B|408:224|296:232|312:128,1,200
400,144,132735,1,4
216,144,133463,1,4
128,144,133826,1,8
64,208,134190,5,0
64,256,134372,1,0
64,304,134553,1,8
152,280,134917,1,2
256,128,135644,1,2
256,128,135826,1,2
256,128,136372,1,4
256,304,137099,5,2
256,304,137826,1,2
256,216,138190,2,0,B|256:96,2,100,8|0|8
176,264,139281,5,0
256,304,139644,1,8
336,264,140008,1,0
256,216,140372,1,8
256,128,140735,1,0
256,128,141099,2,0,B|256:64,2,50,8|0|0
256,216,141826,1,8
256,208,142190,12,8,143281
256,208,143644,5,2
176,168,144008,2,0,B|64:192,2,100,8|0|8
256,208,145099,1,0
336,168,145463,2,0,B|448:192,2,100,8|0|8
256,208,146553,12,4,148008
