osu file format v9

[General]
AudioFilename: 03 Impulsive Fly.mp3
AudioLeadIn: 2000
PreviewTime: 67920
Countdown: 0
SampleSet: Normal
StackLeniency: 0.6
Mode: 0
LetterboxInBreaks: 1

[Editor]
DistanceSpacing: 1.1
BeatDivisor: 4
GridSize: 4

[Metadata]
Title:Impulsive Fly
Artist:Taka feat. Meramipop
Creator:HakenBrowning
Version:Insane
Source:Touhou
Tags:merami reiuji utsuho nuclear fusion caution zun CROW'SCLAW OnosakiHito

[Difficulty]
HPDrainRate:5
CircleSize:4
OverallDifficulty:7
ApproachRate:8
SliderMultiplier:2
SliderTickRate:1

[Events]
//Background and Video events
0,0,"Clipboard02.jpg"
//Break Periods
2,48893,55064
//Storyboard Layer 0 (Background)
//Storyboard Layer 1 (Fail)
//Storyboard Layer 2 (Pass)
//Storyboard Layer 3 (Foreground)
//Storyboard Sound Samples
//Background Colour Transformations
3,100,163,162,255

[TimingPoints]
57,303.030303030303,4,1,0,90,1,0
38844,-100,4,1,0,90,0,1
48541,-100,4,1,0,90,0,0
67253,-100,4,1,0,100,0,0
67405,-100,4,1,0,90,0,0
67935,-100,4,1,0,90,0,1
87329,-100,4,1,0,90,0,0
91985,-80,4,1,0,90,0,0
116344,-200,4,1,0,30,0,0
118617,-100,4,1,0,90,0,0
118844,-80,4,1,0,90,0,1
118920,-80,4,2,0,90,0,1
118996,-80,4,1,0,90,0,1
119072,-80,4,2,0,90,0,1
119147,-80,4,1,0,90,0,1
138238,-80,4,1,0,90,0,0
157708,-200,4,1,0,90,0,0
157822,-200,4,1,0,35,0,0

[Colours]
Combo1 : 139,222,112
Combo2 : 145,213,199
Combo3 : 208,79,140
Combo4 : 152,116,218

[HitObjects]
96,112,9905,2,0,B|80:208|112:272|216:288,1,200
256,216,10360,1,0
256,216,10663,1,0
416,96,10966,1,0
464,184,11117,1,0
464,184,11420,5,0
416,96,11572,2,0,B|344:48|280:96,1,100
232,128,11875,1,0
160,56,12026,1,0
64,96,12178,1,0
56,296,12329,6,0,B|112:336|192:344|224:328|256:312,1,200
296,232,12784,1,0
352,40,13087,1,0
352,40,13390,1,0
160,344,13693,1,0
160,344,13996,5,0
288,288,14147,1,0
160,232,14299,1,0
288,176,14450,1,0
160,120,14602,1,0
288,64,14753,6,0,B|336:32|392:32|440:56|464:128,1,200
360,144,15208,2,0,B|408:176|408:232,1,100
464,312,15511,2,0,B|416:360|360:336,1,100
312,264,15814,1,0
224,320,15966,1,0
224,320,16269,5,0
152,256,16420,2,0,B|112:256|88:224,3,50
96,216,16723,1,0
88,192,16799,1,0
80,168,16875,1,0
72,144,16950,1,0
64,120,17026,1,0
56,96,17102,1,0
48,72,17178,2,0,B|96:24|176:8|264:32,1,200
168,96,17632,6,0,B|176:152|240:168,1,100
296,88,17935,2,0,B|344:112|344:176,1,100
264,232,18238,2,0,B|288:282|354:278,1,100
408,200,18541,2,0,B|456:224|456:288,1,100
384,352,18844,2,0,B|336:336|336:336|288:344,1,100
200,288,19147,2,0,B|164:317|164:317|86:323,1,100
128,224,19450,1,0
56,160,19602,6,0,B|56:96|104:56|160:40|240:64,1,200
152,144,20056,2,0,B|200:152|240:144|264:104,1,100
288,32,20360,2,0,B|336:24|376:32|400:72,1,100
328,136,20663,1,0
424,312,20814,6,0,B|376:360|320:360|256:352|224:328,1,200
312,272,21269,2,0,B|264:216|184:264,1,100
152,320,21572,2,0,B|96:352|56:312,1,100
24,224,21875,1,0
216,64,22026,5,0
392,160,22329,1,0
392,56,22481,2,0,B|464:56|488:128,1,100
472,200,22784,2,0,B|453:269|376:272,1,100
488,328,23087,1,0
280,352,23238,6,0,B|232:368|192:376|144:360|104:336|88:304,1,200
8,264,23693,1,0
80,192,23844,2,0,B|128:160,2,50
152,256,24147,1,0
176,272,24223,1,0
200,288,24299,1,0
296,264,24450,6,0,B|336:360|464:336,1,200
400,256,24905,2,0,B|464:272|496:216,1,100
416,160,25208,1,0
376,72,25360,1,0
472,88,25511,1,0
272,112,25663,6,0,B|240:72|184:56|104:56|64:88,1,200
40,160,26117,1,0
120,216,26269,1,0
64,296,26420,2,0,B|88:352|168:344,1,100
208,272,26723,1,0
400,336,26875,6,0,B|456:320|504:280|504:224|488:168,1,200
432,104,27329,1,0
336,64,27481,1,0
360,160,27632,2,0,B|352:224|288:216,1,100
208,272,27935,1,0
136,80,28087,6,0,B|80:96|32:136|32:192|48:248,1,200
104,312,28541,1,0
152,224,28693,2,0,B|144:192|160:168,2,50
232,160,28996,2,0,B|240:192|224:216,2,50
280,72,29299,6,0,B|336:56|392:64|424:88|464:136,1,200
488,224,29753,1,0
280,72,30056,1,0
488,224,30360,2,0,B|416:240|384:176,1,100
256,344,30814,5,0
208,256,30966,1,0
120,304,31117,1,0
256,344,31269,2,0,B|312:328|320:272,1,100
272,184,31572,1,0
208,256,31723,6,0,B|176:200|120:208|56:216|32:160,1,200
120,120,32178,1,0
312,64,32481,1,0
440,216,32784,1,0
384,24,33087,1,0
368,256,33390,5,0
288,192,33541,1,0
240,280,33693,1,0
160,216,33844,1,0
112,304,33996,1,0
32,240,34147,6,0,B|8:184|24:136|48:88|80:56,1,200
176,24,34602,2,0,B|192:80|152:120,1,100
256,136,34905,1,0
320,216,35056,1,0
344,312,35208,2,0,B|408:320|432:256,1,100
272,40,35663,5,0
192,96,35814,2,0,B|144:112,3,50
132,136,36117,1,0
124,157,36193,1,0
126,183,36269,1,0
127,208,36344,1,0
122,232,36420,1,0
107,253,36496,1,0
84,268,36572,6,0,B|182:333|181:275|206:174,1,200
304,184,37026,2,0,B|368:184|352:240|352:280,1,100
440,208,37329,1,0
384,120,37481,1,0
304,184,37632,6,0,B|240:184|256:128|256:88,1,100
336,52,37935,2,0,B|400:52|384:108|384:148,1,100
256,116,38238,1,0
236,132,38314,1,0
212,144,38390,1,0
192,160,38466,1,0
180,180,38541,1,0
176,204,38617,1,0
160,224,38693,1,0
140,240,38769,1,0
116,248,38844,1,0
92,248,38920,1,0
68,240,38996,6,0,B|52:208|104:172|104:172|124:96|184:76,1,200
280,36,39450,1,0
344,136,39602,1,0
268,228,39753,2,0,B|252:284|192:308,2,100
312,64,40208,6,0,B|344:16|424:32|448:88|440:144|392:168|392:168|392:168|392:168|392:168,1,200
304,168,40663,2,0,B|388:176|300:120|384:100,1,100
472,156,40966,2,0,B|504:216|448:268,1,100
344,236,41269,1,0
420,328,41420,6,0,B|392:296|352:324|352:324|372:364|288:316|232:328,1,200
164,240,41875,2,0,B|132:288|52:272|28:216|36:160|84:136|84:136|84:136|84:136|84:136,1,200
144,80,42329,1,0
116,196,42481,1,0
224,148,42632,6,0,B|280:60|348:252|372:72|448:120,1,200
312,40,43087,2,0,B|336:72|336:72|372:48|420:36,1,100
484,120,43390,2,0,B|436:168,1,50
456,192,43541,1,0
432,220,43617,2,0,B|368:240,1,50
264,240,43844,6,0,B|220:244|212:344|212:344|177:291|148:336,1,200
32,312,44299,1,0
92,208,44450,1,0
196,148,44602,2,0,B|244:104|324:144,2,100
116,60,45056,6,0,B|168:28|248:0|340:44,1,200
428,52,45511,1,0
408,172,45663,1,0
304,228,45814,2,0,B|240:196|196:260,2,100
352,116,46269,6,0,B|276:92|208:88|152:132|132:168,1,200
76,220,46723,1,0
156,320,46875,1,0
152,192,47026,1,0
80,300,47178,1,0
156,320,47329,1,0
372,56,47632,5,0
415,180,47784,1,0
309,103,47935,1,0
439,101,48087,1,0
336,178,48238,1,0
309,103,48390,5,0
372,56,48541,1,0
439,101,48693,1,4
256,192,55814,12,4,57935
384,124,58390,6,0,B|432:196|436:264|372:320|372:324,1,200
480,280,58844,1,0
284,240,59147,2,0,B|364:260|424:248|468:180,1,200
384,124,59602,1,0
196,56,59905,5,0
296,48,60056,2,0,B|308:112|236:152,1,100
196,56,60360,1,0
160,148,60511,1,0
260,136,60663,1,0
116,68,60814,6,0,B|60:124|56:200|124:276,1,200
200,276,61269,2,0,B|208:340|264:348,2,100
400,248,61875,1,0
200,276,62178,1,0
416,40,62481,2,0,B|376:80|416:128,1,100
484,204,62784,2,0,B|520:252|488:296,1,100
400,248,63087,1,0
288,136,63238,6,0,B|260:72|212:40|136:32|96:48,1,200
124,140,63693,2,0,B|192:132|204:204,1,100
112,236,63996,1,0
200,188,64147,1,0
288,136,64299,2,0,B|288:236,1,100
392,68,64753,5,0
464,136,64905,2,0,B|464:236,1,100
376,288,65208,2,0,B|376:184,2,100
288,136,65663,2,0,B|288:216|288:288|288:288|244:260,1,200
216,356,66117,5,0
156,276,66269,1,0
200,184,66420,1,0
288,136,66572,1,0
288,236,66723,1,0
288,336,66875,1,0
440,292,67026,6,0,B|480:240,3,50
456,204,67329,2,0,B|420:248,3,50
376,224,67632,2,0,B|408:180,2,50
44,84,68087,6,0,B|143:81|125:173|229:170,1,200
96,180,68541,2,0,B|176:80,1,100
216,208,68844,2,0,B|300:276,1,100
184,320,69147,1,0
312,164,69299,6,0,B|324:120|388:76|456:116|464:176,1,200
388,56,69753,2,0,B|388:168,1,100
452,268,70057,1,0
324,268,70208,1,0
388,156,70360,1,0
224,204,70511,6,0,B|160:176|160:120|140:104|52:92,1,200
172,40,70966,2,0,B|200:112|84:172|116:244,1,200
60,332,71420,1,0
180,332,71572,1,0
356,308,71723,6,0,B|456:332|488:288|500:228|484:192,1,200
372,188,72178,1,0
356,308,72329,2,0,B|292:320|260:272,1,100
248,252,72556,1,0
228,228,72632,1,0
128,184,72784,1,0
248,96,72935,6,0,B|188:64|176:64|152:184|120:64|104:64|56:104,1,200
148,16,73390,1,0
268,24,73541,1,0
380,68,73693,2,0,B|400:136|344:164,2,100
484,196,74147,6,0,B|500:252|492:312|444:360|380:352,1,200
316,272,74602,2,0,B|380:268|388:212,1,100
308,124,74905,2,0,B|308:184|240:192,2,100
140,60,75360,6,0,B|68:128|56:208|64:268,1,200
36,356,75814,2,0,B|104:344|128:276,3,100
160,188,76420,1,0
356,88,76723,5,0
428,172,76875,1,0
360,256,77026,2,0,B|324:304,2,50
256,216,77329,1,0
240,244,77405,1,0
292,88,77632,1,0
128,56,77784,6,0,B|68:108|204:144|124:236,1,200
