osu file format v9

[General]
AudioFilename: Saigetsu.mp3
AudioLeadIn: 2000
PreviewTime: 38182
Countdown: 0
SampleSet: Soft
StackLeniency: 0.7
Mode: 0
LetterboxInBreaks: 1
EpilepsyWarning: 1

[Editor]
DistanceSpacing: 1
BeatDivisor: 2
GridSize: 32

[Metadata]
Title:Saigetsu (Short Ver.)
Artist:Taka A.K.A Otokaze
Creator:LKs
Version:Normal
Source:
Tags:Jazz HipHop Pokie karenying spboxer3

[Difficulty]
HPDrainRate:2
CircleSize:3
OverallDifficulty:2
ApproachRate:3
SliderMultiplier:0.9
SliderTickRate:2

[Events]
//Background and Video events
0,0,"BG.png"
//Break Periods
//Storyboard Layer 0 (Background)
//Storyboard Layer 1 (Fail)
//Storyboard Layer 2 (Pass)
//Storyboard Layer 3 (Foreground)
//Storyboard Sound Samples
//Background Colour Transformations
3,100,163,162,255

[TimingPoints]
679,588.235294117647,4,2,1,35,1,0
1267,-100,4,2,1,45,0,0
2737,-100,4,2,1,5,0,0
3031,-100,4,2,1,45,0,0
3914,-100,4,2,1,5,0,0
4208,-100,4,2,1,45,0,0
5090,-100,4,2,1,5,0,0
5384,-100,4,2,1,45,0,0
7443,-100,4,2,1,5,0,0
7737,-100,4,2,1,45,0,0
8620,-100,4,2,1,5,0,0
8914,-100,4,2,1,45,0,0
9796,-100,4,2,1,5,0,0
10090,-100,4,2,1,45,0,0
12149,-100,4,2,1,5,0,0
12443,-100,4,2,1,45,0,0
13326,-100,4,2,1,5,0,0
13620,-100,4,2,1,45,0,0
14502,-100,4,2,1,5,0,0
14796,-100,4,2,1,45,0,0
16855,-100,4,2,1,5,0,0
17149,-100,4,2,1,45,0,0
18031,-100,4,2,1,5,0,0
18326,-100,4,2,1,45,0,0
19502,-66.6666666666667,4,2,1,58,0,1
19649,-66.6666666666667,4,2,1,58,0,0
38325,-66.6666666666667,4,2,1,58,0,1
42002,-66.6666666666667,4,1,1,58,0,1
42149,-66.6666666666667,4,2,1,58,0,1
42443,-66.6666666666667,4,2,1,58,0,1
46707,-66.6666666666667,4,1,1,58,0,1
46854,-66.6666666666667,4,1,1,58,0,1
47149,-66.6666666666667,4,2,1,58,0,1
51413,-66.6666666666667,4,1,1,58,0,1
51560,-66.6666666666667,4,1,1,58,0,1
51854,-66.6666666666667,4,2,1,58,0,1
57149,-66.6666666666667,4,2,2,58,0,0
75384,-66.6666666666667,4,2,2,69,0,0
75972,-66.6666666666667,4,2,1,58,0,0
94207,-66.6666666666667,4,2,2,58,0,0
94796,-66.6666666666667,4,2,1,58,0,1
95972,-66.6666666666667,4,2,1,48,0,1
96119,-66.6666666666667,4,2,1,58,0,1
100678,-66.6666666666667,4,2,1,52,0,1
100825,-66.6666666666667,4,2,1,58,0,1
113620,-133.333333333333,4,2,1,58,0,0

[Colours]
Combo1 : 102,232,183
Combo2 : 251,247,87
Combo3 : 237,99,137
SliderBorder : 255,255,255

[HitObjects]
109,100,90,2,0,B|152:88|216:96,1,90,0|4
318,228,1855,1,0
409,195,2443,6,0,B|427:98,1,90
367,37,3620,2,0,B|270:19,1,90
218,87,4796,6,0,B|173:100|126:100,1,90,0|4
36,254,6561,1,0
118,292,7149,6,0,B|215:281,1,90
285,236,8326,2,0,B|382:249,1,90
446,194,9502,6,0,B|458:144|451:96,1,90,0|4
279,54,11267,1,0
254,140,11855,6,0,B|275:234,1,90
229,306,13031,2,0,B|135:327,1,90
63,280,14208,6,0,B|52:239|54:175,1,90,0|4
209,100,15973,1,0
249,182,16561,6,0,B|352:182,1,90
315,272,17737,2,0,B|212:272,1,90
134,292,18914,1,0
81,214,19502,6,0,B|94:103,1,101.249996982515,8|8
120,24,20384,2,0,B|193:31,1,67.4999979883433,8|8
304,96,21267,1,2
433,88,21855,6,0,B|421:198,1,101.249996982515,8|8
368,272,22737,1,8
232,208,23326,2,0,B|159:198,1,67.4999979883433,8|2
32,228,24208,6,0,B|50:336,1,101.249996982515,8|8
136,380,25090,2,0,B|216:382,1,67.4999979883433,8|8
312,304,25973,1,2
440,341,26561,6,0,B|488:284|460:212,1,134.999995976687,8|2
460,80,27737,2,0,B|380:76,1,67.4999979883433,8|8
340,40,28326,1,2
302,165,28914,6,0,B|190:158,1,101.249996982515,8|8
116,104,29796,2,0,B|33:97,1,67.4999979883433,8|8
44,232,30679,1,2
128,340,31267,6,0,B|252:333,1,101.249996982515,8|8
324,304,32149,2,0,B|405:298,1,67.4999979883433,8|8
460,184,33031,1,2
388,68,33620,6,0,B|285:56,1,101.249996982515,8|8
188,44,34502,2,0,B|179:126,1,67.4999979883433,8|8
260,220,35384,1,2
180,328,35973,6,0,B|76:320,1,101.249996982515,8|8
52,224,36855,2,0,B|58:147,1,67.4999979883433,8|8
184,208,37737,1,2
310,258,38326,6,0,B|319:124,1,134.999995976687,12|2
408,24,39502,1,0
471,49,39796,2,0,B|466:128,1,67.4999979883433,8|2
383,222,40679,6,0,B|313:238,1,67.4999979883433,8|8
252,216,41267,1,2
189,100,41855,2,0,B|48:116,1,134.999995976687,0|2
82,247,43031,6,0,B|218:263,1,134.999995976687,8|2
296,372,44208,1,0
359,351,44502,2,0,B|443:338,1,67.4999979883433,8|2
389,210,45384,6,0,B|318:201,1,67.4999979883433,8|8
256,192,45973,1,2
121,223,46561,2,0,B|40:236|12:160,1,134.999995976687,0|2
104,64,47737,6,8,B|253:64,1,134.999995976687,8|2
300,184,48914,1,0
257,235,49208,2,0,B|180:237,1,67.4999979883433,8|2
124,116,50090,5,8
172,72,50384,2,0,B|261:69,1,67.4999979883433,8|2
356,144,51267,2,0,B|364:208|368:280,1,134.999995976687,0|2
229,272,52443,6,0,B|220:204|216:130,1,134.999995976687,8|2
116,48,53620,1,0
59,77,53914,2,0,B|68:159,1,67.4999979883433,8|2
84,280,54796,6,0,B|161:274,1,67.4999979883433,8|0
256,192,55678,1,0
356,276,56267,2,0,B|428:284,1,67.4999979883433,8|2
500,176,57149,6,0,B|488:36,1,134.999995976687,2|8
352,40,58326,2,0,B|364:180,1,134.999995976687,0|8
308,212,59208,1,0
239,210,59502,6,0,B|168:204,1,67.4999979883433,0|8
67,270,60384,2,0,B|-9:262,1,67.4999979883433,8|0
20,128,61267,1,8
124,40,61855,6,0,B|114:180,1,134.999995976687,0|8
240,222,63031,2,0,B|250:82,1,134.999995976687,0|8
304,48,63914,1,0
372,67,64208,6,0,B|364:136,1,67.4999979883433,0|8
444,240,65090,2,0,B|511:247,1,67.4999979883433,8|0
444,352,65973,1,8
325,298,66561,6,0,B|186:305,1,134.999995976687,0|8
179,170,67737,2,0,B|313:163,1,134.999995976687,0|8
361,115,68620,1,0
332,53,68914,6,0,B|264:56,1,67.4999979883433,0|8
128,64,69796,2,0,B|120:104|116:140,1,67.4999979883433,8|0
184,248,70679,1,8
317,209,71267,6,0,B|464:202,1,134.999995976687,0|8
408,74,72443,2,0,B|273:80,1,134.999995976687,0|8
209,57,73326,1,0
166,109,73620,6,0,B|176:176,1,67.4999979883433,0|8
92,268,74502,2,0,B|16:272,1,67.4999979883433,8|0
112,372,75384,1,2
230,332,75973,6,0,B|264:264|232:192,1,134.999995976687,8|0
200,144,76855,1,8
88,64,77443,2,0,B|160:56,1,67.4999979883433,8|0
288,44,78326,6,0,B|352:80|420:64,1,134.999995976687,8|0
480,48,79208,1,8
480,184,79796,2,0,B|400:176,1,67.4999979883433,8|0
344,296,80679,6,0,B|280:264|200:288,1,134.999995976687,8|0
152,304,81561,1,8
24,352,82149,2,0,B|16:272,1,67.4999979883433,8|0
8,152,83031,6,0,B|-4:68|60:40,1,134.999995976687,8|0
128,44,83914,1,8
248,112,84502,2,0,B|336:96,1,67.4999979883433,8|0
448,72,85384,6,0,B|432:144|456:208,1,134.999995976687,8|0
488,264,86267,1,8
368,328,86855,2,0,B|296:344,1,67.4999979883433,8|0
200,256,87737,6,0,B|168:192|192:120,1,134.999995976687,8|0
208,64,88620,1,8
72,64,89208,2,0,B|80:144,1,67.4999979883433,8|0
24,256,90090,6,0,B|80:304|160:272,1,134.999995976687,8|0
216,256,90973,1,8
352,256,91561,2,0,B|344:160,1,67.4999979883433,8|0
416,72,92443,6,0,B|348:40|276:72,1,134.999995976687
152,52,93620,2,0,B|132:132|184:180,1,134.999995976687,0|0
256,288,94796,6,0,B|153:295,1,101.249996982515,8|8
88,220,95679,2,0,B|85:151,1,67.4999979883433,8|8
180,60,96561,1,2
311,53,97149,5,0
432,111,97737,1,2
354,221,98326,1,0
231,163,98914,1,2
116,236,99502,6,0,B|108:292|136:336,1,101.249996982515,8|8
236,316,100384,2,0,B|303:325,1,67.4999979883433,8|8
396,228,101267,1,2
357,98,101855,6,0,B|290:89,1,67.4999979883433,8|8
230,120,102443,1,2
264,252,103031,1,0
147,324,103620,1,2
32,252,104208,6,0,B|44:143,1,101.249996982515,8|8
32,52,105090,2,0,B|108:64,1,67.4999979883433,8|8
232,88,105973,1,2
364,112,106561,5,0
244,176,107149,1,2
376,200,107737,1,0
256,264,108326,1,2
360,348,108914,6,0,B|469:351,1,101.249996982515,8|8
508,260,109796,2,0,B|511:193,1,67.4999979883433,8|8
400,116,110679,1,2
284,48,111267,6,0,B|281:115,1,67.4999979883433,8|8
216,136,111855,1,2
188,268,112443,1,0
56,240,113031,1,2
84,108,113620,1,4
