osu file format v5

[General]
AudioFilename: taitson.mp3
AudioLeadIn: 0
PreviewTime: -1
Countdown: 0
SampleSet: Soft
StackLeniency: 0.7
Mode: 0
LetterboxInBreaks: 1

[Metadata]
Title:Popipo
Artist:Taitson
Creator:proseyu
Version:Normal
Source:
Tags:nico

[Difficulty]
HPDrainRate:5
CircleSize:3
OverallDifficulty:5
SliderMultiplier:1.5
SliderTickRate:2

[Events]
//Background and Video events
1,0,"popipo.avi"
0,0,"popipo.jpg"
//Break Periods
//Storyboard Layer 0 (Background)
//Storyboard Layer 1 (Failing)
//Storyboard Layer 2 (Passing)
//Storyboard Layer 3 (Foreground)
//Storyboard Sound Samples
//Background Colour Transformations
3,100,163,162,255

[TimingPoints]
411,400,4,2,0,40,1,0
9411,-100,4,2,0,65,0,0

[Colours]
Combo1 : 128,0,255
Combo2 : 0,128,64
Combo3 : 255,0,0
Combo4 : 251,210,17

[HitObjects]
80,96,3211,1,8
200,96,3611,1,0
320,96,4011,1,8
376,96,4211,1,0
432,96,4411,1,8
432,288,4811,5,8
312,288,5211,1,0
192,288,5611,1,8
136,288,5811,1,0
80,288,6011,1,8
80,96,6411,5,8
168,176,6811,1,0
256,256,7211,1,8
256,256,7411,1,0
256,256,7611,1,8
256,256,8011,5,8
336,168,8411,1,0
416,80,8811,1,8
416,80,9011,1,0
416,80,9211,1,8
464,192,9611,5,8
464,192,10011,2,0,L|464:280|368:344|376:336,1,150,0|8
412,314,10611,1,0
412,314,10811,1,8
288,320,11211,2,8,L|192:320|208:320,2,75,8|0|8
168,320,12011,1,8
168,320,12211,1,0
168,320,12411,1,8
48,320,12811,5,8
48,320,13211,2,0,L|48:232|144:168|136:176,1,150,0|8
100,198,13811,1,0
100,198,14011,1,8
224,192,14411,2,8,L|320:192|304:192,2,75,8|0|8
344,192,15211,1,8
344,192,15411,1,0
344,192,15611,1,8
464,192,16011,6,0,L|440:112|368:112|368:88,1,150,8|0
256,112,16811,2,8,L|256:240|256:232,2,75,8|0|8
136,112,17611,6,0,L|56:128|56:200|32:200,1,150,8|0
56,312,18411,2,8,L|168:312|160:304,2,75,8|0|8
176,312,19211,5,8
296,312,19611,1,0
416,312,20011,1,8
416,312,20211,1,0
416,312,20411,1,8
416,192,20811,1,8
296,192,21211,1,0
176,192,21611,2,8,L|88:192|72:192,1,75,8|0
256,192,22411,12,8,28011
80,192,28811,6,0,L|168:192|176:192,1,75,8|0
216,192,29211,2,0,L|328:192|344:192,1,75,8|0
352,192,29611,2,8,L|440:192|456:192,2,75,8|0|8
352,72,30411,1,8
352,72,30811,1,8
352,72,31211,2,8,L|272:72|264:72,2,75,8|0|8
472,80,32011,6,8,L|408:160|488:232|416:328|408:352,1,300
40,304,33611,2,8,L|104:224|24:152|96:56|104:32,1,300
256,240,35211,6,8,L|224:192|280:192|240:144|248:152,1,150
256,104,35811,2,0,L|256:56|256:40,5,37.5,2|0|2|0|2|0
408,80,36811,6,8,L|456:176|456:152,4,75,8|2|8|2|8
448,312,38411,1,8
448,312,38811,1,0
448,312,39211,1,8
264,320,39811,2,8,L|216:224|216:248,5,75,0|8|0|8|0|8
232,256,41211,1,8
112,256,41611,2,0,L|64:352|64:328,2,75
232,256,42411,1,8
232,256,42811,2,8,L|184:352|184:328,6,75,8|0|8|0|8|0|8
432,192,44811,5,0
432,192,45211,1,8
312,192,45611,1,0
312,192,46011,1,8
192,192,46411,1,0
192,192,46811,1,8
72,192,47211,1,0
72,192,47611,1,8
72,312,48011,6,8,C|152:312|144:320,1,75,8|0
208,312,48411,2,8,C|288:312|280:320,1,75,8|0
344,312,48811,2,8,C|424:312|416:320,2,75,8|0|8
328,192,49611,1,8
328,192,50011,1,8
208,192,50411,2,8,C|120:192|96:200,3,75,8|0|8|0
256,64,51611,5,8
256,64,52011,2,8,C|176:64|184:72,2,75,8|0|8
376,64,52811,1,8
376,64,53211,1,8
376,184,53611,2,8,C|376:272|368:296,3,75,8|0|8|0
208,192,54811,5,8
88,192,55211,1,8
88,192,55411,1,0
88,192,55611,1,8
88,72,56011,5,8
208,72,56411,1,8
328,72,56811,6,2,C|328:176|336:160,1,75,8|2
328,208,57211,2,2,C|328:320|336:312,1,75,8|2
144,280,58011,5,8
144,160,58411,1,8
144,160,58611,1,0
144,160,58811,1,8
264,160,59211,5,8
384,160,59611,1,8
384,280,60011,6,8,C|280:280|304:288,1,75,8|0
248,280,60411,2,8,C|144:280|152:288,1,75,8|0
256,192,60811,12,2,62011
136,192,62411,5,0
256,192,62811,1,0
376,192,63211,1,0
256,192,64011,12,2,65211
256,256,65611,5,0
256,256,66011,1,0
256,256,66411,1,0
88,88,67211,6,0,C|176:88|200:88,1,75
224,88,67611,6,0,C|328:88|320:96,1,75
360,88,68011,6,0,C|464:88|456:96,1,75
368,192,68611,6,2,L|336:248|296:176|264:248|216:176|184:248|136:176|136:176|136:176|136:176|136:176|104:232,1,525
256,192,70811,12,8,72811
432,192,73611,5,8
432,312,74011,1,8
312,312,74411,1,8
312,312,74611,1,0
312,312,74811,1,8
192,312,75211,5,8
72,312,75611,1,8
72,192,76011,1,8
72,192,76211,1,0
72,192,76411,1,8
64,72,76811,6,8,B|144:8|232:80|224:112,1,150,8|8
320,72,77611,6,8,B|400:8|488:80|480:112,1,150,8|8
464,192,78411,6,8,B|384:192|368:192,1,75,8|0
328,192,78811,2,8,B|248:192|232:192,1,75,8|0
192,192,79211,2,8,B|112:192|96:192,1,75,8|0
56,192,79611,1,8
80,312,80011,5,8
80,312,80411,1,8
168,232,80811,1,8
168,232,81011,1,0
168,232,81211,1,8
256,312,81611,1,8
344,232,82011,1,8
424,312,82411,1,8
424,312,82611,1,0
424,312,82811,1,8
432,192,83211,6,0,L|368:152|264:224|264:216,1,150,8|8
184,192,84011,6,0,L|120:232|16:160|16:168,1,150,8|8
40,72,84811,6,8,B|120:72|136:72,1,75,8|0
176,72,85211,2,8,B|256:72|272:72,1,75,8|0
312,72,85611,2,8,B|392:72|408:72,1,75,8|0
448,72,86011,1,8
456,192,86411,6,8,L|456:296|456:312,3,75,8|0|8|0
456,328,87211,1,8
456,328,87411,1,0
456,328,87611,1,8
336,192,88011,2,8,L|336:296|336:312,3,75,8|0|8|0
336,328,88811,1,8
336,328,89011,1,0
336,328,89211,1,8
216,328,89611,6,0,L|96:328|120:320,1,75,8|0
96,288,90011,6,0,L|216:288|192:296,1,75,8|0
216,248,90411,6,0,L|96:248|120:240,1,75,8|0
96,208,90811,6,0,L|216:208|192:200,1,75,8|0
176,144,91211,6,8,L|200:112|224:144|248:112|272:144|296:112|320:144|344:112|368:144|392:112|416:144|440:112|440:112|440:112|464:144,1,450,8|8
472,240,92811,5,8
472,240,93211,2,8,L|456:320|336:320|320:320,1,150
328,320,93811,1,0
264,320,94011,1,8
144,312,94411,5,8
144,312,94811,2,0,L|64:296|64:176|64:160,1,150,8|8
64,168,95411,1,0
64,104,95611,1,8
176,72,96011,5,8
232,72,96211,5,0
288,72,96411,5,8
344,72,96611,5,0
400,72,96811,5,8
400,176,97211,5,8
344,176,97411,5,0
288,176,97611,5,8
232,176,97811,5,0
176,176,98011,5,8
256,192,98411,12,8,100411
