osu file format v5

[General]
AudioFilename: taitson.mp3
AudioLeadIn: 0
PreviewTime: -1
Countdown: 0
SampleSet: Soft
StackLeniency: 0.7
Mode: 0
LetterboxInBreaks: 1

[Metadata]
Title:Popipo
Artist:Taitson
Creator:proseyu
Version:Insane
Source:
Tags:nico

[Difficulty]
HPDrainRate:7
CircleSize:5
OverallDifficulty:7
SliderMultiplier:1.5
SliderTickRate:1

[Events]
//Background and Video events
0,0,"popipo.jpg"
1,0,"popipo.avi"
//Break Periods
//Storyboard Layer 0 (Background)
//Storyboard Layer 1 (Failing)
//Storyboard Layer 2 (Passing)
//Storyboard Layer 3 (Foreground)
//Storyboard Sound Samples
//Background Colour Transformations
3,100,163,162,255

[TimingPoints]
411,400,4,2,0,40,1,0
9411,-100,4,2,0,64,0,0
89311,-50,4,2,0,64,0,0
91111,-100,4,2,0,64,0,0

[Colours]
Combo1 : 128,0,255
Combo2 : 0,128,64
Combo3 : 255,0,0
Combo4 : 251,210,17

[HitObjects]
40,48,3211,1,8
40,120,3411,2,0,L|88:120|96:120,1,37.5,0|8
232,120,3711,2,0,L|200:120|184:120,1,37.5,0|8
40,192,4011,1,8
136,192,4211,1,0
232,192,4411,1,8
472,336,4811,5,8
472,264,5011,2,0,L|424:264|416:264,1,37.5,0|8
280,264,5311,2,0,L|312:264|328:264,1,37.5,0|8
472,192,5611,1,8
376,192,5811,1,0
280,192,6011,1,8
168,88,6411,5,8
168,160,6611,2,0,L|128:200|120:200,1,37.5,0|8
168,256,6911,2,0,L|200:288|208:296,1,37.5,0|8
144,336,7211,2,0,L|168:360|200:336|208:328,2,75,8|0|8
344,296,8011,5,8
344,224,8211,2,0,L|384:184|392:184,1,37.5,0|8
344,128,8511,2,0,L|312:96|304:88,1,37.5,0|8
368,48,8811,2,0,L|344:24|312:48|304:56,2,75
128,312,9611,5,8
128,272,9711,1,0
128,232,9811,1,2
128,192,9911,1,0
128,152,10011,1,8
128,112,10111,1,0
128,72,10211,1,2
256,192,10411,1,8
256,192,10611,1,0
256,192,10811,1,8
384,72,11211,5,8
384,112,11311,1,0
384,152,11411,1,2
384,192,11511,1,0
384,232,11611,1,8
384,272,11711,1,0
384,312,11811,1,2
256,192,12011,1,8
256,192,12211,1,0
256,192,12411,1,8
200,328,12811,5,8
232,344,12911,1,0
264,328,13011,1,2
296,344,13111,1,0
328,328,13211,1,8
360,352,13311,1,0
392,328,13411,1,2
464,328,13611,1,8
464,328,13811,2,0,L|464:248|464:240,1,75,0|8
472,104,14411,5,8
448,72,14511,1,0
424,104,14611,1,2
400,72,14711,1,0
376,40,14811,1,8
360,72,14911,1,0
336,40,15011,1,2
312,112,15211,1,8
312,112,15411,2,0,L|224:112|208:112,1,75,0|8
96,64,16011,5,8
56,128,16211,2,0,L|16:168|16:176,1,37.5,0|8
128,128,16511,2,0,L|168:168|176:176,1,37.5,0|8
96,200,16811,1,8
96,240,16911,1,0
96,280,17011,1,2
96,320,17111,1,0
96,360,17211,1,8
248,344,17611,5,8
320,344,17811,2,0,L|376:344|392:344,1,37.5,0|8
320,272,18111,2,0,L|272:272|256:272,1,37.5,0|8
392,272,18411,1,8
432,272,18511,1,0
472,272,18611,1,2
472,232,18711,1,0
472,192,18811,1,8
320,192,19211,5,8
320,120,19411,2,0,L|272:120|264:120,1,37.5,0|8
128,120,19711,2,0,L|160:120|176:120,1,37.5,0|8
320,48,20011,1,8
224,48,20211,1,0
128,48,20411,1,8
88,192,20811,5,8
88,264,21011,2,0,L|136:264|144:264,1,37.5,0|8
280,264,21311,2,0,L|248:264|232:264,1,37.5,0|8
88,336,21611,1,8
184,336,21811,1,0
192,112,22411,5,8
128,152,22611,1,0
128,224,22811,1,8
192,264,23011,1,0
256,224,23211,2,0,L|288:256|296:264,4,37.5,8|0|0|0|8
256,152,23811,1,2
320,112,24011,5,8
384,152,24211,1,0
384,224,24411,1,8
320,264,24611,1,0
256,224,24811,2,0,L|224:256|216:264,4,37.5,8|2|0|2|8
256,152,25411,1,2
184,152,25611,5,8
184,152,25811,1,0
112,152,26011,1,8
112,152,26211,1,0
40,152,26411,2,0,L|40:104|48:88,1,37.5,8|0
40,152,26711,1,2
40,224,27011,5,2
112,224,27211,1,8
112,224,27411,1,0
184,224,27611,1,8
184,224,27811,1,0
256,224,28011,2,0,L|256:168|256:160,1,37.5,8|0
256,224,28311,1,2
256,360,28811,6,0,L|256:280|256:264,1,75,8|2
256,24,29211,2,0,L|256:104|256:120,1,75,8|2
256,192,29611,1,8
280,216,29711,1,2
312,192,29811,1,2
336,216,29911,1,2
368,192,30011,2,0,L|400:224|408:232,1,37.5,8|2
424,320,30411,6,0,L|360:320|344:320,1,75,8|2
88,320,30811,2,0,L|168:320|184:320,1,75,8|2
265,332,31211,1,8
265,332,31311,1,0
265,332,31411,1,2
265,332,31511,1,0
265,332,31611,1,8
160,264,32011,5,8
160,224,32111,1,0
160,184,32211,1,2
224,224,32411,5,8
224,184,32511,1,0
224,144,32611,1,2
288,184,32811,5,8
288,144,32911,1,0
288,104,33011,1,2
352,144,33211,5,8
352,104,33311,1,0
352,64,33411,1,2
256,192,33611,12,8,34811
256,192,35211,5,0
256,264,35411,2,0,L|256:304|256:320,1,37.5,0|8
152,344,35811,5,0
112,344,35911,2,0,L|48:344|40:344,1,37.5,0|2
72,304,36111,1,0
112,304,36211,2,0,L|168:304|184:304,1,37.5,0|2
136,192,36611,6,0,L|152:248|152:264,14,37.5
392,344,38411,5,8
328,296,38611,1,0
360,224,38811,1,8
432,224,39011,1,0
448,296,39211,2,0,L|488:296|504:296,2,37.5,0|2|0
472,184,39811,5,0
364,185,40011,1,0
256,184,40211,1,0
148,183,40411,1,0
40,184,40611,1,0
40,112,40811,5,8
472,112,41211,1,8
472,264,41611,2,0,L|432:264|416:264,2,37.5,0|2|0
40,264,42211,2,0,L|88:264|96:264,4,37.5,0|2|0|2|0
192,264,43011,5,2
264,264,43211,1,0
336,264,43411,1,2
408,264,43611,1,0
408,264,43811,2,0,L|384:320|376:328,6,37.5
264,216,44811,5,0
264,216,45011,1,8
264,216,45211,2,0,L|224:288|224:296,1,75,0|8
228,281,45611,5,0
228,281,45811,1,8
228,281,46011,1,0
228,281,46211,1,8
256,192,46411,12,2,47611
256,24,48011,6,0,L|256:88|256:112,1,75,8|0
256,360,48411,2,0,L|256:280|256:264,1,75,8|0
267,199,48811,5,8
267,199,48911,1,0
267,199,49011,1,2
267,199,49111,1,0
267,199,49211,1,8
424,192,49611,6,0,L|360:192|328:192,1,75,8|0
88,192,50011,2,0,L|168:192|184:192,1,75,8|0
256,24,50411,6,0,L|256:88|256:112,1,75,8|2
256,360,50811,2,0,L|256:280|256:264,1,75,8|2
176,280,51211,5,8
104,280,51411,1,0
104,208,51611,1,8
176,208,51811,1,0
248,208,52011,1,8
288,208,52111,1,0
328,208,52211,1,2
368,208,52311,1,0
408,208,52411,1,8
480,208,52611,5,2
480,136,52811,1,8
408,136,53011,1,0
408,64,53211,1,8
480,64,53411,1,0
480,64,53611,5,8
40,64,54011,1,8
40,208,54411,5,8
480,208,54811,1,8
336,208,55211,5,8
296,208,55311,1,0
256,208,55411,1,2
216,208,55511,1,0
176,208,55611,1,8
144,352,56011,5,8
216,352,56211,1,0
288,352,56411,1,8
360,352,56611,1,0
360,280,56811,6,0,L|360:176|360:168,1,75,8|2
432,200,57211,2,0,L|432:88|432:80,1,75,8|2
480,64,57611,5,8
32,64,58011,1,8
176,64,58411,5,8
216,64,58511,1,0
256,64,58611,1,2
296,64,58711,1,0
336,64,58811,1,8
256,192,59211,5,8
200,240,59411,1,0
256,288,59611,1,8
312,240,59811,1,0
384,240,60011,6,0,L|464:240|480:240,1,75,8|0
128,240,60411,2,0,L|48:240|32:240,1,75,8|0
40,168,60811,6,0,B|40:72|144:72|144:88,1,150,0|0
208,80,61411,1,2
280,80,61611,2,0,B|376:80|376:184|360:184,1,150,0|0
368,248,62211,1,2
296,248,62411,1,0
224,248,62611,1,2
184,248,62711,1,0
144,248,62811,1,2
120,224,62911,1,0
144,192,63011,1,2
184,192,63111,1,0
224,192,63211,1,2
480,352,64011,5,0
32,352,64411,1,0
32,32,64811,1,0
480,32,65211,1,0
256,192,65611,1,2
176,320,66011,1,0
216,320,66111,1,0
256,320,66211,1,0
296,320,66311,1,0
336,320,66411,1,0
256,192,66811,5,2
96,136,67211,5,2
416,136,67611,5,2
256,136,68011,5,2
72,264,68611,2,0,B|176:264|184:264,1,75
224,264,69011,1,2
296,264,69211,2,0,B|376:264|392:264,1,75
448,264,69611,1,2
64,264,70011,1,2
256,192,70411,12,8,72811
56,56,73611,5,8
56,128,73811,2,0,L|104:128|112:128,1,37.5,0|8
248,128,74111,2,0,L|216:128|200:128,1,37.5,0|8
56,200,74411,1,8
152,200,74611,1,0
248,200,74811,1,8
472,336,75211,5,8
472,264,75411,2,0,L|424:264|416:264,1,37.5,0|8
280,264,75711,2,0,L|312:264|328:264,1,37.5,0|8
472,192,76011,1,8
376,192,76211,1,0
280,192,76411,1,8
256,40,76811,5,8
104,192,77211,1,8
256,344,77611,5,8
408,192,78011,1,8
408,192,78411,5,8
376,168,78511,1,0
352,192,78611,1,2
320,168,78711,1,0
296,192,78811,1,8
264,168,78911,1,0
240,192,79011,1,2
208,168,79111,1,0
184,192,79211,1,8
152,168,79311,1,0
128,192,79411,1,2
96,168,79511,1,0
72,192,79611,1,8
40,168,79711,1,0
16,192,79811,1,2
8,120,80011,5,8
80,120,80211,2,0,B|80:64|80:56,1,37.5,0|8
152,120,80511,2,0,B|152:168|152:184,1,37.5,0|8
224,120,80811,1,8
224,120,81011,1,0
224,120,81211,1,8
256,264,81611,5,8
328,264,81811,2,0,B|328:320|328:328,1,37.5,0|8
400,264,82111,2,0,B|400:216|400:200,1,37.5,0|8
480,278,82411,1,8
480,278,82511,1,0
480,278,82611,1,2
480,278,82711,1,0
480,278,82811,1,8
480,112,83211,5,8
328,112,83611,1,8
176,112,84011,1,8
160,72,84111,1,0
88,40,84311,1,0
56,64,84411,1,8
128,192,84811,5,8
160,168,84911,1,0
184,192,85011,1,2
208,168,85111,1,0
240,192,85211,1,8
264,168,85311,1,0
296,192,85411,1,2
320,168,85511,1,0
352,192,85611,1,8
376,168,85711,1,0
408,192,85811,1,2
432,168,85911,1,0
464,192,86011,1,8
488,168,86111,1,0
512,192,86211,1,0
448,256,86411,6,0,B|368:256|352:256,1,75,8|2
64,256,86811,2,0,B|144:256|160:256,1,75,8|2
256,256,87211,1,8
256,256,87411,1,0
256,256,87611,1,8
448,128,88011,6,0,B|368:128|352:128,1,75,8|2
64,128,88411,2,0,B|144:128|160:128,1,75,8|2
256,128,88811,1,8
256,128,89011,1,0
256,128,89211,1,8
256,128,89411,6,0,B|80:128|72:128,1,150,0|8
40,168,89811,6,0,B|216:168|224:168,1,150,0|8
256,208,90211,6,0,B|80:208|72:208,1,150,0|8
48,256,90611,6,0,B|224:256|232:256,1,150,0|8
256,192,91211,5,8
256,192,91311,1,0
256,192,91411,1,2
256,192,91511,1,0
256,192,91611,1,8
256,192,91711,1,0
256,192,91811,1,2
256,192,91911,1,0
256,192,92011,1,8
256,192,92111,1,0
256,192,92211,1,2
256,192,92311,1,0
256,192,92411,1,8
256,192,92511,1,0
256,192,92611,1,2
296,272,92811,6,0,B|192:272|184:272,1,75,8|2
216,112,93211,2,0,B|320:112|328:112,1,75,8|2
256,192,93611,1,8
256,192,93811,1,0
256,192,94011,1,8
176,232,94411,6,0,B|176:128|176:120,1,75,8|2
336,152,94811,2,0,B|336:256|336:264,1,75,8|2
264,192,95211,1,8
264,192,95311,1,0
264,192,95411,1,0
264,192,95511,1,0
264,192,95611,1,8
256,40,96011,5,8
104,192,96411,1,8
256,344,96811,1,8
408,192,97211,1,8
256,192,97611,5,8
256,192,97811,1,2
112,144,98211,5,0
136,120,98311,5,0
160,96,98411,5,8
192,72,98511,5,0
224,56,98611,5,0
256,48,98711,5,0
288,56,98811,5,8
320,72,98911,5,0
344,96,99011,5,0
376,120,99111,5,0
400,144,99211,5,8
256,192,99411,12,8,100411
