osu file format v5

[General]
AudioFilename: Bubble Bobble Medley.mp3
AudioLeadIn: 1004
PreviewTime: -1
Countdown: 0
SampleSet: Normal
StackLeniency: 0.7
Mode: 0
LetterboxInBreaks: 1
EditorBookmarks: 20,3730,8326,10527,18923,64202,109540,113344,115058,137036,138540,141542,171000,189976,192548,202043,211539,221925

[Metadata]
Title:Bubble Bobble Medley
Artist:Taito
Creator:YoshiKart
Version:Vs. Zen-chan
Source:
Tags:

[Difficulty]
HPDrainRate:5
CircleSize:4
OverallDifficulty:3
SliderMultiplier:1.3
SliderTickRate:2

[Events]
//Background and Video events
0,0,"vszenchan.png"
//Break Periods
2,63497,70351
2,108821,111904
2,138747,140656
2,164631,169680
2,182274,186988
//Storyboard Layer 0 (Background)
4,0,1,"Vs. Zen-Chan\secretroom2.png",320,240 M,0,140157,140157,320,240,320,240 F,0,140157,141542,0,1 F,0,141542,166709,1,1 F,0,166709,169294,1,0
//Storyboard Layer 1 (Failing)
//Storyboard Layer 2 (Passing)
//Storyboard Layer 3 (Foreground)
4,3,1,"Vs. Zen-Chan\bottle.png",320,240 F,0,145972,147449,0,1 F,0,147449,153356,1,1 F,0,153356,159264,1,1 F,0,159264,159818,1,0 F,0,159818,161664,0,0 F,0,161664,161849,0,0 F,0,161849,161879,0,0 F,0,161879,161909,0,0 F,0,161909,161921,0,1 F,0,161921,161939,1,0 F,0,161939,161959,0,0 F,0,161959,161989,0,0 F,0,161989,162019,0,0 F,0,162019,162033,0,0 F,0,162033,162049,0,0 F,0,162049,162079,0,0 F,0,162079,162109,0,0 F,0,162109,162139,0,0 F,0,162139,162169,0,0 F,0,162169,162189,0,0 F,0,162189,162219,0,0 F,0,162219,162259,0,0 F,0,162259,162279,0,0 F,0,162279,162309,0,0 F,0,162309,162339,0,0 F,0,162339,162379,0,0 F,0,162379,162429,0,0 F,0,162429,162459,0,0 F,0,162459,162489,0,0 F,0,162489,162509,0,0 F,0,162509,162539,0,0 F,0,162539,162569,0,0 F,0,162569,162599,0,0 F,0,162599,162629,0,0 F,0,162629,162659,0,0 F,0,162659,162689,0,0 F,0,162689,162709,0,0 F,0,162709,162739,0,0 F,0,162739,162769,0,0 F,0,162769,162799,0,0 F,0,162799,162839,0,0 F,0,162839,162859,0,0 F,0,162859,162879,0,0 F,0,162879,162919,0,0 F,0,162919,162939,0,0 F,0,162939,162979,0,0 F,0,162979,163009,0,0 F,0,163009,163039,0,0 F,0,163039,163069,0,0 F,0,163069,163099,0,0 F,0,163099,163129,0,0 F,0,163129,163159,0,0 F,0,163159,163189,0,0 F,0,163189,163219,0,0 F,0,163219,163249,0,0 F,0,163249,163279,0,0 F,0,163279,163319,0,0 F,0,163319,163369,0,0 F,0,163369,163399,0,0 F,0,163399,163429,0,0 F,0,163429,163459,0,0 F,0,163459,163489,0,0 F,0,163489,163519,0,0 F,0,163519,163549,0,0 F,0,163549,163579,0,0 F,0,163579,163599,0,0 F,0,163599,163629,0,0 F,0,163629,163669,0,0 F,0,163669,163689,0,0 F,0,163689,163719,0,0 F,0,163719,163749,0,0 F,0,163749,163779,0,0 F,0,163779,163809,0,0 F,0,163809,163829,0,0 F,0,163829,163859,0,0 F,0,163859,163889,0,0 F,0,163889,163919,0,0 F,0,163919,163949,0,0
4,3,1,"Vs. Zen-Chan\bolt.png",320,240 F,0,153356,154464,0,1 F,0,154464,155203,1,0 F,0,155203,156310,0,1 F,0,156310,157418,1,0 F,0,157418,158156,0,1 F,0,158156,159264,1,0
//Storyboard Sound Samples
//Background Colour Transformations
3,100,0,255,128

[TimingPoints]
550,455.097087378641,4,1,1,100,1
3730,434.216239687364,4,1,1,100,1
8320,568.181818181818,4,1,1,100,1
10550,468.75,4,1,1,100,1
16200,685.714285714286,4,1,1,100,1
18920,471.699802157417,4,1,1,100,1
113345,418.614386381079,4,1,1,100,1
115068,352.733686067019,4,1,1,100,1
120688,353.987939792746,4,1,1,100,1
141542,738.43726207236,4,1,1,100,1
165233,738.43726207236,4,1,1,100,1
171000,363.089110794739,4,1,1,100,1
189960,638.331046944541,4,1,1,100,1
192550,594.055774999999,4,1,1,100,1

[Colours]
Combo1 : 117,255,255
Combo2 : 21,214,16
Combo3 : 16,218,218
Combo4 : 106,255,106

[HitObjects]
16,80,18920,5,0
176,80,19391,1,0
336,80,19863,1,0
496,80,20335,1,0
416,224,20806,1,0
256,272,21278,1,0
96,240,21750,1,0
192,192,22693,5,0
256,128,23165,1,0
320,192,23636,1,0
256,256,24108,1,0
192,128,24580,5,0
320,128,25052,1,0
320,256,25523,1,0
192,256,25995,1,0
16,304,26467,5,0
176,304,26938,1,0
336,304,27410,1,0
496,304,27882,1,0
416,160,28353,1,0
256,112,28825,1,0
96,144,29297,1,0
192,192,30240,5,0
256,256,30712,1,0
320,192,31184,1,0
256,128,31655,1,0
192,256,32127,5,0
320,256,32599,1,0
320,128,33070,1,0
192,128,33542,1,0
32,192,34014,5,2
480,192,35901,1,2
256,32,37787,1,2
256,352,39674,1,2
32,192,41089,5,0
144,192,41561,2,0,B|352:192,1,195
480,144,42976,1,0
480,240,43448,1,0
139,96,44863,5,0
240,96,45335,1,0
336,192,46042,2,0,B|128:192,1,195
144,288,47221,1,0
480,192,48637,5,0
368,192,49108,1,2
32,192,50523,1,0
128,192,50995,1,2
256,352,52410,1,0
256,240,52882,1,2
256,48,54297,1,0
256,144,54769,1,2
373,96,56184,5,0
272,96,56655,1,0
176,192,57363,2,0,B|384:192,1,195
368,288,58542,1,0
256,48,59957,5,0
256,144,60429,2,0,B|317:243|181:244|272:336,1,195
256,320,61844,1,0
256,320,62316,2,0,B|256:48,1,260
32,192,71750,6,0,B|192:192,1,130
256,192,72693,1,0
416,288,73637,5,0
416,240,73873,1,0
416,192,74108,2,0,B|416:64,1,97.5
256,48,75288,5,0
256,96,75523,2,0,B|213:139|296:156|226:201|256:224,3,130
320,272,77410,1,0
368,272,77646,1,0
416,272,77882,1,0
416,176,78354,5,4
336,128,78825,5,4
256,96,79297,6,2,B|179:104|126:145|129:286|256:342|383:287|384:144|344:101|256:96,3,520
64,192,86137,5,0
160,192,86608,1,0
208,192,86844,2,0,B|416:192,2,195
96,192,88731,1,0
128,96,90146,5,0
128,96,90618,2,0,B|90:192|272:128|176:256,1,195
336,176,92033,1,0
368,272,92505,1,0
112,96,93684,5,4
160,96,93920,5,4
256,96,94391,6,2,B|333:104|386:145|383:286|256:342|129:287|128:144|168:101|256:96,3,520
448,192,101231,5,0
400,192,101467,1,0
352,192,101703,1,0
304,192,101939,2,0,B|96:192,2,195
416,192,103825,1,0
256,192,105241,5,0
256,192,105712,1,0
256,192,106184,12,2,108542
192,192,113345,6,0,B|337:193,3,130
112,128,115058,5,0
208,128,115420,1,0
304,128,115773,1,0
400,128,116126,1,0
352,224,116478,1,0
256,272,116831,1,0
160,224,117184,1,0
320,128,117889,5,0
320,240,118242,1,0
192,240,118595,1,0
192,128,118947,1,0
256,128,119300,5,0
320,192,119653,1,0
256,256,120006,1,0
192,192,120358,1,0
112,256,120666,5,0
208,256,121041,1,0
304,256,121395,1,0
400,256,121749,1,0
352,160,122103,1,0
256,112,122457,1,0
160,160,122811,1,0
320,256,123519,5,0
320,144,123873,1,0
192,144,124227,1,0
192,256,124581,1,0
256,256,124935,5,0
320,192,125289,1,0
256,128,125643,1,0
192,192,125997,1,0
48,192,126351,5,2
464,192,127767,1,2
48,192,129183,1,2
464,192,130599,1,2
112,112,131484,5,0
160,112,131661,1,0
208,112,131838,1,0
256,112,132015,6,2,B|333:120|386:161|383:302|256:358|129:303|128:160|168:117|256:112,1,520
352,112,134493,5,4
256,112,134847,6,6,B|179:120|126:161|129:302|256:358|383:303|384:160|344:117|256:112,1,520
256,192,137059,12,4,138564
80,80,141542,5,0
256,192,143018,1,0
416,320,144495,1,0
256,192,145972,1,0
224,112,147449,6,0,B|224:160|228:248|239:237|226:219|160:176|95:216|80:342|104:361|191:376|256:368,1,390
288,368,150403,2,0,B|326:375|413:360|437:341|422:215|357:175|290:218|278:236|289:247|304:160|293:111,1,390
320,48,153356,6,4,L|194:202|321:200|192:384,2,520
256,192,160002,12,2,163695
256,192,164433,5,2
96,192,171000,5,0
192,192,171363,1,0
288,192,171726,2,0,L|432:192,1,130
400,288,172452,5,0
288,288,172815,1,0
176,288,173178,2,0,L|32:288,1,130
48,176,173904,6,0,L|48:32,1,130
144,48,174630,5,0
240,48,174993,1,0
336,48,175357,2,0,B|320:147|430:51|384:160,1,130
288,176,176083,2,0,B|247:245|187:114|234:192|144:192,1,130
212,329,176809,6,0,L|247:329|265:296|281:329|324:329,1,130
256,192,177535,1,0
400,240,178261,6,0,L|400:205|367:187|400:171|400:128,1,130
256,192,178987,1,2
212,55,179714,6,0,L|247:55|265:88|281:55|324:55,1,130
256,192,180440,1,0
119,148,181166,6,0,L|119:183|152:201|119:217|119:260,1,130
256,192,181892,5,0
256,192,182074,1,2
256,192,188428,5,0
256,192,189960,12,0,191795
