osu file format v5

[General]
AudioFilename: Bubble Bobble Medley.mp3
AudioLeadIn: 1004
PreviewTime: -1
Countdown: 0
SampleSet: Normal
StackLeniency: 0.8
Mode: 0
LetterboxInBreaks: 1
EditorBookmarks: 20,3730,8326,10527,18923,64202,109540,113344,115058,137036,138540,141542,171000,189976,192548,202043,211539,221925

[Metadata]
Title:Bubble Bobble Medley
Artist:Taito
Creator:YoshiKart
Version:Vs. Banebou
Source:
Tags:

[Difficulty]
HPDrainRate:6
CircleSize:5
OverallDifficulty:4
SliderMultiplier:1.3
SliderTickRate:2

[Events]
//Background and Video events
0,0,"vsbanebou.png"
//Break Periods
2,63497,70351
2,109450,112144
2,138747,140656
2,164631,169680
2,182276,187111
2,188631,188656
//Storyboard Layer 0 (Background)
//Storyboard Layer 1 (Failing)
//Storyboard Layer 2 (Passing)
//Storyboard Layer 3 (Foreground)
//Storyboard Sound Samples
//Background Colour Transformations
3,100,162,161,254

[TimingPoints]
550,455.097087378641,4,1,1,100,1
3730,434.216239687364,4,1,1,100,1
8320,568.181818181818,4,1,1,100,1
10550,468.75,4,1,1,100,1
16200,685.714285714286,4,1,1,100,1
18920,471.699802157417,4,1,1,100,1
113345,418.614386381079,4,1,1,100,1
115068,352.733686067019,4,1,1,100,1
120688,353.987939792746,4,1,1,100,1
141542,738.43726207236,4,1,1,100,1
165233,738.43726207236,4,1,1,100,1
171000,363.089110794739,4,1,1,100,1
189960,638.331046944541,4,1,1,100,1
192550,594.055774999999,4,1,1,100,1

[Colours]
Combo1 : 117,255,255
Combo2 : 21,214,16
Combo3 : 16,218,218
Combo4 : 106,255,106

[HitObjects]
80,80,18942,1,0
151,80,19155,1,0
229,78,19391,2,0,B|325:78,1,65
332,147,19863,5,0
253,147,20099,1,0
174,148,20335,2,0,B|106:150,1,65
65,215,20806,5,0
143,216,21042,1,0
221,214,21278,2,0,B|326:216,1,97.5
69,335,22457,5,0
147,335,22693,2,0,B|186:333|187:322|228:315,1,65
212,239,23165,2,0,B|166:227|168:206|130:201,1,65
154,129,23636,2,0,B|204:89|224:106|258:150,1,97.5
436,123,24580,5,0
438,201,24816,1,0
436,280,25052,1,0
278,287,25523,2,0,B|198:287,1,65
133,286,25995,2,0,B|57:286,1,65
71,206,26467,5,0
119,153,26680,1,0
179,102,26916,2,0,B|275:102,1,65
306,151,27388,5,0
362,206,27624,1,0
398,276,27860,2,0,B|330:278,1,65
254,280,28331,5,0
256,201,28567,1,0
208,137,28803,2,0,B|259:90|299:147,1,97.5
477,343,29982,5,0
399,327,30218,2,0,B|360:325|359:314|318:307,1,65
264,278,30690,2,0,B|218:266|220:245|182:240,1,65
130,229,31161,2,0,B|80:269|60:252|26:208,1,97.5
203,112,32105,5,0
257,54,32341,1,0
309,113,32577,1,0
278,287,33048,2,0,B|198:287,1,65
126,286,33542,2,0,B|65:289|47:250,1,65
33,198,34014,5,2
144,192,34486,2,0,B|224:64|304:288|368:144,1,260
480,192,35901,1,2
368,192,36372,2,0,B|288:64|208:288|144:144,1,260
256,32,37787,1,2
256,112,38259,2,0,L|221:199|296:200|256:304,1,260
352,272,39674,1,2
96,192,40854,5,0
144,192,41089,2,0,B|192:240,1,65
240,240,41561,1,0
368,240,42269,1,0
368,144,42740,1,0
368,144,42976,1,0
368,48,43448,1,0
144,192,44863,5,0
240,192,45335,1,0
336,288,46042,1,0
336,160,46750,1,0
336,64,47221,1,0
480,192,48401,5,0
432,192,48637,2,0,B|400:192|352:160|384:128|432:160|400:192|336:192,1,130
256,192,49580,1,2
32,192,50288,1,0
80,192,50523,2,0,L|160:192,2,65
256,192,51467,1,2
176,320,52174,1,0
224,320,52410,2,0,L|257:311|258:321|288:314,1,65
336,320,52882,1,0
256,192,53354,1,2
176,64,54061,1,0
224,64,54297,1,0
272,64,54533,1,0
320,64,54769,1,0
256,192,55240,1,2
400,112,55948,5,0
369,153,56183,2,0,B|305:217,1,65
288,240,56655,1,0
128,240,57363,1,0
128,128,57834,1,0
128,128,58070,1,0
128,16,58542,1,0
160,96,59957,5,0
352,96,60429,1,0
256,192,61137,1,0
224,272,61608,2,0,B|304:272,3,65
256,192,62552,12,0,63260
48,192,71750,5,0
96,192,71986,1,0
144,192,72222,1,0
256,176,72693,6,2,B|224:176|226:196|236:211|258:237|281:208|289:196|291:169|240:176,1,130
464,192,73637,5,0
416,192,73873,1,0
368,192,74108,2,0,B|320:192|298:193|276:193|240:192,1,97.5
224,48,75288,5,0
288,48,75523,1,0
256,96,75759,1,0
256,144,75995,1,0
256,240,76467,1,0
256,304,76939,1,0
272,352,77174,5,0
240,352,77410,1,0
256,304,77646,1,0
256,256,77882,1,0
256,192,78354,5,0
338,153,78825,1,0
256,112,79297,6,2,B|179:120|126:161|129:302|256:358|383:303|384:160|344:117|256:112,3,520
64,192,86137,5,0
112,160,86373,1,0
144,208,86608,1,0
192,192,86844,2,0,B|400:192,1,195
272,192,88024,2,0,B|368:192,1,65
448,192,88731,1,0
128,288,90146,5,0
128,288,90618,1,0
192,144,91325,1,0
336,208,92033,1,0
400,128,92505,1,0
160,192,93684,5,0
176,144,93920,1,0
208,112,94156,1,0
256,96,94391,1,0
256,96,95571,5,0
304,112,95807,1,0
336,144,96043,1,0
352,192,96278,1,0
352,192,97458,5,0
336,240,97694,1,0
304,272,97930,1,0
256,288,98165,1,0
256,288,99344,5,0
208,272,99580,1,0
176,240,99816,1,0
160,192,100051,1,0
304,112,101231,5,0
256,160,101467,1,0
208,208,101703,1,0
144,256,101939,2,0,B|80:279|82:353|213:343|206:283|152:244|144:256,2,195
208,208,103825,1,0
48,192,105241,6,0,B|90:225|104:123|176:208,1,130
256,192,106420,1,0
352,192,106892,1,0
384,144,107127,1,0
416,192,107363,1,0
256,144,107599,6,2,B|201:142|142:206|218:267|292:316|344:226|324:144|291:144|256:144,1,325
256,192,109014,1,0
192,192,113345,6,0,B|240:144|288:240|320:160,3,130
96,128,115058,5,0
144,128,115244,1,0
192,128,115420,1,0
288,128,115773,2,0,B|432:128,1,130
352,208,116478,1,0
304,208,116655,1,0
256,208,116831,2,0,B|144:208,1,97.5
144,320,117713,6,0,B|192:320,1,32.5
176,320,117889,2,0,B|256:320|256:192|416:192,2,260
208,144,120006,1,0
238,110,120182,1,0
283,110,120358,1,0
320,144,120535,1,0
416,256,120688,5,0
368,256,120874,1,0
320,256,121050,1,0
224,256,121403,2,0,B|80:256,1,130
160,176,122108,1,0
208,176,122285,1,0
256,176,122461,2,0,B|368:176,1,97.5
368,64,123343,6,0,B|320:64,1,32.5
336,64,123519,2,0,B|256:64|256:192|96:192,2,260
336,192,125636,5,0
176,192,125997,1,0
256,192,126351,5,2
256,192,126705,12,0,127767
256,192,129183,5,2
256,192,129537,12,2,130599
256,240,131484,5,0
256,192,131661,1,0
256,144,131838,1,0
176,128,132015,2,0,L|176:304|336:304|336:112,1,520
256,192,134493,5,0
256,192,134847,12,2,136263
128,192,137059,5,4
304,192,137767,2,4,B|416:192,1,97.5
256,192,138564,1,4
256,192,141542,5,0
256,96,142280,1,0
256,192,143018,1,0
256,288,143757,1,0
256,192,144495,1,0
160,192,145234,1,0
256,192,145972,1,0
352,192,146711,1,0
256,192,147449,6,0,B|45:220|80:-36|272:16,1,390
256,96,150403,2,0,B|471:78|421:322|240:304,1,390
224,256,153356,6,4,L|281:176|212:175|272:96,3,260
16,192,159264,5,0
48,192,159541,2,0,B|128:112|156:256|208:176,1,178.75
224,192,160741,1,0
256,192,161018,2,0,B|336:112|364:256|416:176,1,178.75
384,192,162218,1,0
352,192,162495,2,0,B|305:266|277:122|197:202,1,178.75
208,240,163695,5,0
256,128,163972,1,0
304,240,164156,1,0
256,192,164433,5,2
96,192,171000,5,0
192,192,171363,1,0
288,192,171726,2,0,L|432:192,1,130
400,288,172452,5,0
288,288,172815,1,0
176,288,173178,2,0,L|32:288,1,130
48,176,173904,6,0,L|48:32,1,130
144,48,174630,5,0
240,48,174993,1,0
336,48,175357,2,0,B|320:147|430:51|384:160,1,130
288,176,176083,2,0,B|247:245|187:114|234:192|144:192,1,130
212,329,176809,6,0,L|247:329|265:296|281:329|324:329,1,130
256,192,177535,1,0
400,240,178261,6,0,L|400:205|367:187|400:171|400:128,1,130
256,192,178987,1,2
212,55,179714,6,0,L|247:55|265:88|281:55|324:55,1,130
256,192,180440,1,0
119,148,181166,6,0,L|119:183|152:201|119:217|119:260,1,130
256,192,181892,5,0
256,192,182074,1,2
256,192,188428,5,0
256,192,189960,12,0,191795
