osu file format v13

[General]
AudioFilename: slow step.mp3
AudioLeadIn: 0
PreviewTime: 81688
Countdown: 0
SampleSet: Soft
StackLeniency: 0.7
Mode: 0
LetterboxInBreaks: 1
WidescreenStoryboard: 1

[Editor]
Bookmarks: 66771,81688,98588,128588,173705,188588,203563,220463,236459,259838,289838,321713,351713,383588
DistanceSpacing: 0.5
BeatDivisor: 4
GridSize: 8
TimelineZoom: 1.7

[Metadata]
Title:Slow Step -First Love Comes Again-
TitleUnicode:Slow Step -First Love Comes Again-
Artist:Taishi feat. Himawari
ArtistUnicode:Taishi feat. 向日葵
Creator:Zweib
Version:KATAOMOI
Source:
Tags:Electro.sinker Electro.muster cosmic records natsuno c85 c83
BeatmapID:509204
BeatmapSetID:217033

[Difficulty]
HPDrainRate:6.4
CircleSize:4.2
OverallDifficulty:8
ApproachRate:9
SliderMultiplier:1.8
SliderTickRate:1

[Events]
//Background and Video events
0,0,"ssbg1.jpg",0,0
//Break Periods
2,143763,146713
//Storyboard Layer 0 (Background)
//Storyboard Layer 1 (Fail)
//Storyboard Layer 2 (Pass)
//Storyboard Layer 3 (Foreground)
//Storyboard Sound Samples
//Background Colour Transformations
3,100,0,0,0

[TimingPoints]
1063,468.75,4,2,0,55,1,0
2938,-200,4,2,1,55,0,0
6688,-133.333333333333,4,2,1,55,0,0
21453,-80,4,2,1,55,0,0
21688,-125,4,2,1,55,0,0
29188,-111.111111111111,4,2,1,55,0,0
32703,-100,4,2,1,55,0,0
36102,-80,4,2,0,40,0,0
36219,-125,4,2,0,55,0,0
36688,-100,4,2,1,65,0,0
50516,-80,4,2,1,65,0,0
51688,-62.5,4,2,1,65,0,0
52156,-83.3333333333333,4,2,1,65,0,0
66453,-71.4285714285714,4,2,4,60,0,0
66688,-83.3333333333333,4,2,3,65,0,0
73719,-83.3333333333333,4,2,1,65,0,0
74305,-83.3333333333333,4,2,3,65,0,0
81688,-71.4285714285714,4,2,4,60,0,0
89188,-71.4285714285714,4,2,4,70,0,0
95750,-100,4,2,1,60,0,0
96688,-71.4285714285714,4,2,1,60,0,1
96863,-71.4285714285714,4,2,1,60,0,0
97039,-83.3333333333333,4,2,1,60,0,1
97215,-83.3333333333333,4,2,1,60,0,0
97391,-55.5555555555556,4,2,1,60,0,1
97508,-55.5555555555556,4,2,1,60,0,0
98094,-83.3333333333333,4,2,2,60,0,0
98563,-62.5,4,2,2,60,0,1
106766,-133.333333333333,4,2,2,60,0,0
107000,-62.5,4,2,2,60,0,1
114266,-133.333333333333,4,2,2,60,0,0
114500,-62.5,4,2,2,60,0,1
128563,-133.333333333333,4,2,1,60,0,0
149773,-133.333333333333,4,2,1,30,0,0
151063,-133.333333333333,4,2,1,40,0,0
152938,-133.333333333333,4,2,1,50,0,0
154813,-133.333333333333,4,2,1,60,0,0
156688,-133.333333333333,4,2,1,70,0,0
158563,-100,4,2,1,60,0,0
173211,-133.333333333333,4,2,1,60,0,0
173563,-90.9090909090909,4,2,3,55,0,0
188563,-71.4285714285714,4,2,2,65,0,0
203094,-71.4285714285714,4,3,3,45,0,0
203563,-71.4285714285714,4,2,4,60,0,0
211063,-83.3333333333333,4,2,4,70,0,0
216688,-100,4,2,4,80,0,0
218914,-83.3333333333333,4,2,1,60,0,0
219266,-50,4,2,1,60,0,0
219969,-100,4,2,1,60,0,0
220438,-62.5,4,2,2,60,0,1
228641,-133.333333333333,4,2,2,60,0,0
228875,-62.5,4,2,2,60,0,1
234500,-133.333333333333,4,2,1,60,0,0
234969,-62.5,4,2,1,80,0,1
235438,-62.5,4,2,2,60,0,1
236141,-133.333333333333,4,2,2,60,0,0
236375,-62.5,4,2,2,60,0,1
250438,-133.333333333333,4,2,1,60,0,0
259813,-83.3333333333333,4,2,1,60,0,0
263094,-40,4,2,1,60,0,0
263563,-83.3333333333333,4,2,1,60,0,0
274813,-83.3333333333333,4,2,1,60,0,0
284188,-83.3333333333333,4,2,1,70,0,0
291688,-83.3333333333333,4,1,1,48,0,0
304813,-83.3333333333333,4,2,1,60,0,0
306219,-83.3333333333333,4,1,1,50,0,0
309969,-71.4285714285714,4,1,1,50,0,0
310438,-83.3333333333333,4,1,1,50,0,0
319813,-83.3333333333333,4,2,1,60,0,0
321219,-66.6666666666667,4,2,1,60,0,0
321688,-83.3333333333333,4,2,1,40,0,0
329188,-83.3333333333333,4,2,1,50,0,0
332938,-83.3333333333333,4,2,1,60,0,0
336688,-62.5,4,2,2,60,0,1
337391,-133.333333333333,4,2,2,60,0,0
337625,-62.5,4,2,2,60,0,1
344891,-133.333333333333,4,2,2,60,0,0
345125,-62.5,4,2,2,60,0,1
351688,-100,4,2,1,60,0,0
353094,-71.4285714285714,4,2,1,60,0,0
353563,-83.3333333333333,4,2,1,60,0,0
383094,-100,4,2,1,50,0,0
383563,-83.3333333333333,4,2,1,60,0,0
384266,-90.9090909090909,4,2,1,60,0,0
384969,-100,4,2,1,60,0,0
385672,-111.111111111111,4,2,1,60,0,0
386844,-83.3333333333333,4,2,1,60,0,0
398563,-66.6666666666667,4,2,1,60,0,0
399031,-100,4,2,1,60,0,0
412859,-166.666666666667,4,2,1,20,0,0
413094,-166.666666666667,4,2,1,40,0,0
413328,-166.666666666667,4,2,1,60,0,0

[Colours]
Combo1 : 160,213,222
Combo2 : 230,230,230
Combo3 : 184,33,113
Combo4 : 220,152,215
Combo5 : 205,86,22
Combo6 : 132,13,13

[HitObjects]
88,184,5516,6,0,L|94:219,1,22.5,2|0,0:0|0:0,0:0:0:0:
68,216,5750,2,0,L|58:275,1,45,2|0,0:0|0:0,0:0:0:0:
148,294,6102,1,2,0:0:0:0:
167,315,6219,2,0,L|170:333,6,11.25,2|2|2|2|2|2|2,0:0|0:0|0:0|0:0|0:0|0:0|0:0,0:0:0:0:
246,250,6688,6,0,L|318:244,1,67.5000025749208,0|0,0:0|0:0,0:0:0:0:
312,96,7156,2,0,L|240:102,1,67.5000025749208,8|2,0:0|0:0,0:0:0:0:
284,256,7625,2,0,L|352:252,1,67.5000025749208,0|0,0:0|0:0,0:0:0:0:
274,90,8094,2,0,L|206:94,1,67.5000025749208,8|2,0:0|0:0,0:0:0:0:
324,260,8563,6,0,L|394:261,1,67.5000025749208,0|0,0:0|0:0,0:0:0:0:
234,86,9031,2,0,L|164:85,1,67.5000025749208,8|2,0:0|0:0,0:0:0:0:
368,264,9500,2,0,L|438:271,1,67.5000025749208,0|0,0:0|0:0,0:0:0:0:
190,82,9968,2,0,L|120:75,1,67.5000025749208,8|2,0:0|0:0,0:0:0:0:
263,341,10438,6,0,P|279:266|234:237,1,135.000005149842,0|8,0:0|0:0,0:0:0:0:
70,222,11141,1,2,0:0:0:0:
185,146,11375,2,0,L|173:69,1,67.5000025749208
160,291,11844,2,0,L|172:357,1,67.5000025749208,8|2,0:0|0:0,0:0:0:0:
471,226,12313,6,0,L|336:234,1,135.000005149842,0|8,0:0|0:0,0:0:0:0:
336,233,13016,1,2,0:0:0:0:
151,208,13250,2,0,P|187:213|224:208,1,67.5000025749208,0|2,0:0|0:0,0:0:0:0:
257,289,13602,1,0,0:0:0:0:
245,316,13719,6,0,L|249:341,4,16.8750006437302,8|0|2|2|0,0:0|0:0|0:0|0:0|0:0,0:0:0:0:
122,354,14070,2,0,L|123:330,1,16.8750006437302,2|0,0:0|0:0,0:0:0:0:
123,320,14188,6,0,L|46:312,1,67.5000025749208
154,190,14656,2,0,L|81:197,1,67.5000025749208,8|2,0:0|0:0,0:0:0:0:
312,270,15125,2,0,L|238:281,1,67.5000025749208
357,144,15594,2,0,L|282:135,1,67.5000025749208,8|2,0:0|0:0,0:0:0:0:
443,190,16063,6,0,L|522:184,1,67.5000025749208
384,319,16531,2,0,L|458:312,1,67.5000025749208,8|2,0:0|0:0,0:0:0:0:
208,211,17000,2,0,L|284:217,1,67.5000025749208
116,332,17469,2,0,L|192:338,1,67.5000025749208,8|2,0:0|0:0,0:0:0:0:
128,13,17938,6,0,P|88:65|141:157,1,135.000005149842,0|8,0:0|0:0,0:0:0:0:
208,211,18641,1,2,0:0:0:0:
102,272,18875,2,0,L|34:277,1,67.5000025749208,0|0,0:0|0:0,0:0:0:0:
271,313,19344,2,0,L|339:308,1,67.5000025749208,8|2,0:0|0:0,0:0:0:0:
355,139,19813,6,0,L|279:143,1,67.5000025749208
378,242,20164,1,2,0:0:0:0:
394,184,20281,2,0,L|469:180,1,67.5000025749208,8|0,0:0|0:0,0:0:0:0:
405,340,20633,5,2,0:0:0:0:
366,297,20750,2,0,L|332:300,5,22.5000008583069,0|0|0|2|2|2,0:0|0:0|0:0|0:0|0:0|0:0,0:0:0:0:
260,367,21219,2,0,L|252:323,1,33.7500012874604,10|0,0:0|0:1,0:0:0:0:
201,209,21453,6,2,P|230:197|254:198,1,56.25,2|0,0:1|0:0,0:0:0:0:
94,351,21688,6,0,L|101:279,1,72,2|0,0:0|0:0,0:0:0:0:
130,193,22156,1,8,0:0:0:0:
424,311,22391,6,0,L|408:222,1,72,2|0,0:0|0:0,0:0:0:0:
358,168,22859,1,2,0:0:0:0:
165,228,23094,6,0,L|172:142,1,72,8|2,0:0|0:0,0:0:0:0:
199,66,23563,1,0,0:0:0:0:
377,155,23797,6,0,L|362:70,1,72,2|8,0:0|0:0,0:0:0:0:
316,8,24266,1,2,0:0:0:0:
298,206,24500,5,0,0:0:0:0:
310,208,24734,1,2,0:0:0:0:
428,89,24969,6,0,L|432:44,1,36,10|0,0:0|0:0,0:0:0:0:
234,90,25203,2,0,L|244:150,1,36,2|0,0:0|0:0,0:0:0:0:
360,263,25438,6,0,L|444:276,1,72,2|0,0:0|0:0,0:0:0:0:
256,160,25906,1,8,0:0:0:0:
161,255,26141,6,0,L|62:266,1,72,2|0,0:0|0:0,0:0:0:0:
256,128,26609,1,2,0:0:0:0:
359,234,26844,6,0,L|452:240,1,72,8|2,0:0|0:0,0:0:0:0:
256,96,27313,1,0,0:0:0:0:
165,215,27547,6,0,L|161:249,2,18,2|2|0,0:0|0:0|0:0,0:0:0:0:
135,127,27781,1,8,0:0:0:0:
347,215,28016,6,0,L|351:249,2,18,2|2|0,0:0|0:0|0:0,0:0:0:0:
377,127,28250,1,4,0:0:0:0:
457,275,28484,2,0,P|467:235|459:199,1,72,2|8,0:0|0:0,0:0:0:0:
467,85,28953,1,2,0:0:0:0:
315,320,29188,6,0,L|353:323,6,20.2499993820191,6|0|0|0|2|2|2,0:0|0:0|0:0|0:0|0:0|0:0|0:0,0:0:0:0:
188,300,29656,2,0,L|178:384,1,80.9999975280763,8|2,0:0|0:0,0:0:0:0:
268,160,30125,2,0,L|260:79,1,80.9999975280763,0|2,0:0|0:0,0:0:0:0:
9,202,30594,5,8,0:0:0:0:
117,265,30828,1,2,0:0:0:0:
141,150,31063,1,0,0:0:0:0:
12,188,31297,5,2,0:0:0:0:
195,253,31531,1,8,0:0:0:0:
344,155,31766,1,2,0:0:0:0:
17,176,32000,6,0,P|11:234|29:263,1,80.9999975280763,0|2,0:0|0:0,0:0:0:0:
88,72,32469,2,0,L|82:51,2,20.2499993820191,8|2|2,0:0|0:0|0:0,0:0:0:0:
175,127,32703,6,0,L|274:122,1,90,0|2,0:0|0:0,0:0:0:0:
346,119,33055,1,2,0:0:0:0:
346,119,33172,1,0,0:0:0:0:
485,203,33406,2,0,L|391:195,2,90,8|2|0,0:0|0:0|0:0,0:0:0:0:
310,223,34109,1,2,0:0:0:0:
164,303,34344,1,2,0:0:0:0:
164,303,34461,2,0,L|255:295,1,90,2|0,0:0|0:0,0:0:0:0:
221,168,34813,6,0,P|212:120|206:76,1,90,2|0,0:0|0:0,0:0:0:0:
309,199,35164,1,2,0:0:0:0:
376,136,35281,2,0,P|386:97|375:35,1,90,8|2,0:0|0:0,0:0:0:0:
387,270,35750,2,0,L|402:374,1,90
264,296,36102,6,0,L|221:290,1,28.125,10|8,0:0|0:0,0:0:0:0:
212,288,36219,2,0,P|181:331|187:383,1,108,8|0,0:0|0:0,0:0:0:0:
187,383,36688,5,0,0:0:0:0:
0,264,36922,1,2,0:0:0:0:
15,236,37039,1,0,0:0:0:0:
29,209,37156,2,0,L|129:197,1,90,8|2,0:0|0:0,0:0:0:0:
299,284,37625,2,0,L|199:275,1,90,0|2,0:0|0:0,0:0:0:0:
370,209,38094,1,8,0:0:0:0:
399,309,38328,1,2,0:0:0:0:
476,240,38563,5,0,0:0:0:0:
340,169,38797,1,2,0:0:0:0:
344,217,38914,1,0,0:0:0:0:
348,266,39031,1,8,0:0:0:0:
496,212,39266,1,2,0:0:0:0:
280,120,39500,5,0,0:0:0:0:
308,348,39734,1,2,0:0:0:0:
406,110,39969,2,0,P|400:57|384:17,1,90,8|2,0:0|0:0,0:0:0:0:
106,102,40438,6,0,P|155:101|211:79,1,90,0|2,0:0|0:0,0:0:0:0:
58,183,40789,1,2,0:0:0:0:
148,196,40906,2,0,B|179:188|179:188|254:198,1,90,8|2,0:0|0:0,0:0:0:0:
13,102,41375,5,0,0:0:0:0:
8,260,41609,1,2,0:0:0:0:
161,41,41844,1,8,0:0:0:0:
102,277,42078,1,2,0:0:0:0:
132,287,42195,1,0,0:0:0:0:
162,295,42313,6,0,L|258:293,1,90,0|2,0:0|0:0,0:0:0:0:
348,219,42664,1,2,0:0:0:0:
320,196,42781,2,0,L|227:198,1,90,8|2,0:0|0:0,0:0:0:0:
140,171,43250,5,0,0:0:0:0:
337,307,43484,2,0,L|442:303,1,90,2|8,0:0|0:0,0:0:0:0:
507,257,43953,1,2,0:0:0:0:
167,147,44188,5,0,0:0:0:0:
369,230,44422,1,2,0:0:0:0:
402,212,44539,1,2,0:0:0:0:
436,193,44656,1,8,0:0:0:0:
205,129,44891,1,2,0:0:0:0:
338,246,45125,5,0,0:0:0:0:
465,177,45359,1,2,0:0:0:0:
205,129,45594,1,8,0:0:0:0:
67,195,45828,1,2,0:0:0:0:
252,255,46063,5,0,0:0:0:0:
330,107,46297,1,2,0:0:0:0:
311,70,46414,1,2,0:0:0:0:
294,32,46531,1,8,0:0:0:0:
228,192,46766,1,2,0:0:0:0:
436,240,47000,5,0,0:0:0:0:
414,115,47234,1,2,0:0:0:0:
249,317,47469,1,8,0:0:0:0:
271,172,47703,1,2,0:0:0:0:
131,317,47938,6,0,P|68:351|11:320,1,135,2|2,0:0|0:0,0:0:0:0:
15,325,48406,1,8,0:0:0:0:
240,346,48641,2,0,L|335:357,1,90,2|0,0:0|0:0,0:0:0:0:
198,236,49109,1,2,0:0:0:0:
302,196,49344,2,0,P|316:131|282:75,1,135,8|2,0:0|0:0,0:0:0:0:
211,48,49813,5,0,0:0:0:0:
406,134,50047,1,2,0:0:0:0:
439,121,50164,1,2,0:0:0:0:
469,109,50281,1,8,0:0:0:0:
363,296,50516,6,0,L|299:282,1,56.25,0|2,0:0|0:0,0:0:0:0:
222,151,50750,5,0,0:0:0:0:
234,316,50984,1,2,0:0:0:0:
415,226,51219,1,8,0:0:0:0:
370,370,51453,1,2,0:0:0:0:
17,282,51688,6,0,P|63:220|81:251,1,144,2|2,0:1|0:0,0:0:0:0:
18,365,52039,1,2,0:0:0:0:
17,198,52156,6,0,B|14:157|14:157|22:141|22:141|17:86,1,107.999996704102,8|2,0:0|0:0,0:0:0:0:
149,53,52508,2,0,L|153:93,1,26.9999991760254,2|2,0:0|0:0,0:0:0:0:
155,106,52625,2,0,L|285:98,1,107.999996704102,0|2,0:0|0:0,0:0:0:0:
108,187,52977,1,0,0:0:0:0:
180,235,53094,2,0,L|187:350,1,107.999996704102,8|2,0:0|0:0,0:0:0:0:
245,169,53445,1,0,0:0:0:0:
245,169,53563,5,0,0:0:0:0:
380,341,53797,1,2,0:0:0:0:
400,307,53914,1,0,0:0:0:0:
416,273,54031,2,0,L|412:220,1,53.9999983520508,8|0,0:0|0:0,0:0:0:0:
277,292,54266,2,0,L|278:318,2,26.9999991760254,2|2|0,0:0|0:0|0:0,0:0:0:0:
332,179,54500,6,0,P|330:140|320:125,1,53.9999983520508
170,264,54734,2,0,P|168:307|182:335,1,53.9999983520508,2|0,0:0|0:0,0:0:0:0:
137,165,54969,2,0,P|184:189|237:182,1,107.999996704102,8|2,0:0|0:0,0:0:0:0:
321,129,55320,1,2,0:0:0:0:
471,215,55438,6,0,P|418:195|362:219,1,107.999996704102,0|2,0:0|0:0,0:0:0:0:
291,278,55789,1,0,0:0:0:0:
122,317,55906,2,0,P|185:314|238:338,1,107.999996704102,8|2,0:0|0:0,0:0:0:0:
303,365,56258,2,0,L|340:363,1,26.9999991760254,2|2,0:0|0:0,0:0:0:0:
365,360,56375,2,0,L|485:350,1,107.999996704102,0|2,0:0|0:0,0:0:0:0:
291,278,56727,1,0,0:0:0:0:
211,285,56844,2,0,L|91:293,1,107.999996704102,8|2,0:0|0:0,0:0:0:0:
263,184,57195,1,2,0:0:0:0:
343,189,57313,2,0,L|467:197,1,107.999996704102,0|2,0:0|0:0,0:0:0:0:
259,73,57664,5,0,0:0:0:0:
197,144,57781,2,0,L|143:150,1,53.9999983520508,8|0,0:0|0:0,0:0:0:0:
335,178,58016,2,0,L|375:182,2,26.9999991760254,2|2|0,0:0|0:0|0:0,0:0:0:0:
178,249,58250,2,0,L|110:260,1,53.9999983520508,0|0,0:0|0:0,0:0:0:0:
344,272,58484,2,0,L|417:289,1,53.9999983520508,2|0,0:0|0:0,0:0:0:0:
172,338,58719,2,0,P|84:351|35:303,1,161.999995056153,8|2,0:0|0:0,0:0:0:0:
298,262,59188,6,0,L|288:373,1,107.999996704102,0|2,0:0|0:0,0:0:0:0:
252,151,59539,1,0,0:0:0:0:
197,229,59656,2,0,L|206:301,1,53.9999983520508,8|0,0:0|0:0,0:0:0:0:
349,187,59891,2,0,L|366:155,2,26.9999991760254,2|2|0,0:0|0:0|0:0,0:0:0:0:
312,77,60125,1,0,0:0:0:0:
444,246,60359,6,0,P|447:209|438:183,1,53.9999983520508,2|0,0:0|0:0,0:0:0:0:
177,155,60594,2,0,L|100:150,1,53.9999983520508,8|0,0:0|0:0,0:0:0:0:
298,262,60828,1,2,0:0:0:0:
298,262,61063,6,0,P|296:179|262:154,1,107.999996704102,0|2,0:0|0:0,0:0:0:0:
212,288,61414,1,0,0:0:0:0:
276,346,61531,2,0,L|389:339,1,107.999996704102,8|2,0:0|0:0,0:0:0:0:
464,384,61883,2,0,L|511:380,2,26.9999991760254,2|2|0,0:0|0:0|0:0,0:0:0:0:
212,288,62234,5,2,0:0:0:0:
269,384,62469,1,8,0:0:0:0:
49,313,62703,5,2,0:0:0:0:
59,271,62820,1,2,0:0:0:0:
69,228,62938,1,0,0:0:0:0:
217,166,63172,6,0,L|211:121,2,26.9999991760254,2|2|0,0:0|0:0|0:0,0:0:0:0:
261,253,63406,1,8,0:0:0:0:
108,78,63641,6,0,L|111:39,2,26.9999991760254,2|2|0,0:0|0:0|0:0,0:0:0:0:
40,153,63875,1,0,0:0:0:0:
258,25,64109,5,2,0:0:0:0:
310,194,64344,1,8,0:0:0:0:
391,39,64578,1,2,0:0:0:0:
447,138,64813,5,2,0:0:0:0:
453,131,64930,1,8,0:0:0:0:
186,109,65164,1,2,0:0:0:0:
182,99,65281,1,8,0:0:0:0:
391,217,65516,6,0,L|382:256,2,26.9999991760254,2|2|0,0:0|0:0|0:0,0:0:0:0:
320,167,65750,1,0,0:0:0:0:
338,301,65984,1,2,0:0:0:0:
227,352,66219,2,0,P|212:325|215:295,1,53.9999983520508,8|0,0:0|0:0,0:0:0:0:
454,273,66453,6,0,L|446:346,1,62.9999980773926,2|0,0:1|0:0,0:0:0:0:
264,232,66688,6,0,L|255:115,1,107.999996704102,4|0,0:0|0:0,0:0:0:0:
220,40,67039,1,0,0:0:0:0:
220,40,67156,2,0,L|280:36,1,53.9999983520508,0|0,0:0|0:0,0:0:0:0:
154,119,67391,2,0,L|21:128,1,107.999996704102,0|0,0:0|0:0,0:0:0:0:
376,144,67859,2,0,L|444:141,1,53.9999983520508,0|0,0:0|0:0,0:0:0:0:
424,252,68094,2,0,L|485:258,2,53.9999983520508,0|0|0,0:0|0:0|0:0,0:0:0:0:
147,318,68563,6,0,P|199:274|257:296,1,107.999996704102,0|0,0:0|0:0,0:0:0:0:
320,336,68914,1,0,0:0:0:0:
320,336,69031,2,0,L|373:335,1,53.9999983520508,0|0,0:0|0:0,0:0:0:0:
474,276,69266,2,0,P|480:239|461:205,1,53.9999983520508,0|0,0:0|0:0,0:0:0:0:
350,103,69500,6,0,L|355:173,1,53.9999983520508,0|0,0:0|0:0,0:0:0:0:
320,336,69734,2,0,L|315:268,1,53.9999983520508,0|0,0:0|0:0,0:0:0:0:
237,195,69969,2,0,P|211:186|177:189,1,53.9999983520508,0|0,0:0|0:0,0:0:0:0:
441,240,70203,2,0,P|478:236|498:225,1,53.9999983520508,0|0,0:0|0:0,0:0:0:0:
320,336,70438,6,0,P|311:274|328:230,1,107.999996704102,0|0,0:0|0:0,0:0:0:0:
307,148,70789,1,0,0:0:0:0:
226,283,70906,2,0,B|148:282|148:282|182:254,2,107.999996704102,0|0|0,0:0|0:0|0:0,0:0:0:0:
232,56,71609,1,0,0:0:0:0:
300,367,71844,1,0,0:0:0:0:
374,311,71961,2,2,P|386:261|354:197,1,107.999996704102,2|2,0:0|0:0,0:0:0:0:
211,350,72313,6,0,L|83:350,1,107.999996704102,2|0,0:0|0:0,0:0:0:0:
25,190,72664,1,2,0:0:0:0:
92,234,72781,2,0,L|167:222,1,53.9999983520508,2|0,0:0|0:0,0:0:0:0:
153,52,73016,2,0,L|100:47,1,53.9999983520508,0|0,0:0|0:0,0:0:0:0:
170,196,73250,2,0,L|294:190,2,107.999996704102,2|0|6,0:0|0:0|0:0,0:0:0:0:
497,122,74188,6,0,P|450:90|400:108,1,107.999996704102,2|0,0:0|0:0,0:0:0:0:
336,166,74539,1,0,0:0:0:0:
391,226,74656,2,0,L|388:284,1,53.9999983520508
282,108,74891,2,0,L|286:-1,2,107.999996704102,0|0|0,0:0|0:0|0:0,0:0:0:0:
115,178,75594,1,0,0:0:0:0:
115,178,75711,2,0,P|155:136|111:125,1,107.999996704102
21,159,76063,6,0,L|28:271,1,107.999996704102
61,353,76414,2,0,P|101:320|155:355,1,107.999996704102
241,372,76766,2,0,B|268:382|268:382|293:363,1,53.9999983520508
331,241,77000,1,0,0:0:0:0:
63,231,77234,6,0,L|46:175,1,53.9999983520508
117,157,77469,2,0,L|107:94,1,53.9999983520508
184,111,77703,2,0,L|185:46,1,53.9999983520508
254,175,77938,6,0,B|288:161|288:161|372:172,1,107.999996704102
200,253,78289,1,0,0:0:0:0:
279,297,78406,2,0,B|319:306|319:306|402:293,1,107.999996704102
223,381,78875,1,0,0:0:0:0:
474,310,79109,2,0,P|469:261|425:214,1,107.999996704102
314,194,79461,1,0,0:0:0:0:
370,124,79578,2,0,P|385:90|376:56,1,53.9999983520508
314,194,79813,6,0,L|329:306,1,107.999996704102
175,91,80164,1,0,0:0:0:0:
175,91,80281,2,0,L|166:209,1,107.999996704102
0,301,80750,2,0,P|35:329|100:314,2,107.999996704102,0|0|0,0:0|0:0|0:0,0:0:0:0:
8,288,81453,6,0,L|5:230,1,53.9999983520508,2|0,0:1|0:0,0:0:0:0:
35,51,81688,5,12,0:0:0:0:
35,51,82039,1,0,0:0:0:0:
35,51,82156,2,0,B|66:69|66:69|157:60,1,125.999996154785,8|0,0:0|0:0,0:0:0:0:
418,36,82625,2,0,P|342:18|296:54,1,125.999996154785,8|0,0:0|0:0,0:0:0:0:
225,305,83094,2,0,P|167:339|95:308,1,125.999996154785,8|0,0:0|0:0,0:0:0:0:
355,141,83563,6,0,L|348:270,1,125.999996154785,8|0,0:0|0:0,0:0:0:0:
273,100,83914,1,0,0:0:0:0:
217,175,84031,2,0,B|122:170|122:170|154:147,1,125.999996154785,8|0,0:0|0:0,0:0:0:0:
343,330,84500,6,0,B|435:317|435:317|396:295,1,125.999996154785,8|0,0:0|0:0,0:0:0:0:
254,303,84852,1,0,0:0:0:0:
179,366,84969,2,0,L|118:350,1,62.9999980773926,8|0,0:0|0:0,0:0:0:0:
240,213,85203,2,0,L|308:193,1,62.9999980773926
149,166,85438,6,0,P|136:223|171:285,1,125.999996154785,8|0,0:0|0:0,0:0:0:0:
8,216,85789,1,0,0:0:0:0:
56,144,85906,2,0,L|64:0,2,125.999996154785,8|0|8,0:0|0:0|0:0,0:0:0:0:
254,302,86609,1,0,0:0:0:0:
504,216,86844,5,8,0:0:0:0:
456,144,86961,2,0,L|448:0,1,125.999996154785,0|0,0:0|0:0,0:0:0:0:
449,18,87313,1,8,0:0:0:0:
331,106,87547,2,0,L|345:180,1,62.9999980773926
310,244,87781,1,8,0:0:0:0:
126,147,88016,5,0,0:0:0:0:
128,108,88133,1,0,0:0:0:0:
131,68,88250,2,0,P|152:121|140:196,1,125.999996154785,8|0,0:0|0:0,0:0:0:0:
215,369,88719,2,0,P|211:301|233:241,1,125.999996154785,8|0,0:0|0:0,0:0:0:0:
455,332,89188,6,0,P|455:265|396:210,1,125.999996154785,8|0,0:0|0:0,0:0:0:0:
424,112,89539,1,0,0:0:0:0:
424,112,89656,2,0,B|393:141|393:141|299:136,1,125.999996154785,8|0,0:0|0:0,0:0:0:0:
500,168,90008,1,0,0:0:0:0:
500,168,90125,1,8,0:0:0:0:
256,256,90359,5,0,0:0:0:0:
88,112,90594,1,8,0:0:0:0:
88,112,90711,2,0,B|119:141|119:141|213:136,1,125.999996154785
12,168,91063,1,8,0:0:0:0:
12,168,91180,1,0,0:0:0:0:
57,332,91414,1,0,0:0:0:0:
57,332,91531,6,0,P|57:265|116:210,1,125.999996154785,8|0,0:0|0:0,0:0:0:0:
173,11,92000,2,0,P|173:78|232:133,1,125.999996154785,8|0,0:0|0:0,0:0:0:0:
467,190,92469,2,0,P|407:213|330:188,1,125.999996154785,8|2,0:0|0:0,0:0:0:0:
268,339,92938,5,8,0:0:0:0:
380,328,93172,1,2,0:0:0:0:
168,300,93406,5,8,0:0:0:0:
55,313,93640,1,2,0:0:0:0:
272,328,93875,5,8,0:0:0:0:
380,312,94109,1,2,0:0:0:0:
160,308,94344,5,8,0:0:0:0:
420,228,94578,5,2,0:0:0:0:
433,195,94695,1,0,0:0:0:0:
432,160,94813,1,8,0:0:0:0:
188,244,95047,5,2,0:0:0:0:
184,291,95164,1,0,0:0:0:0:
208,332,95281,1,8,0:0:0:0:
342,130,95516,5,2,0:0:0:0:
335,76,95633,1,0,0:0:0:0:
296,38,95750,2,0,L|196:40,1,90,0|0,3:0|3:0,0:0:0:0:
314,174,96219,2,0,L|405:176,1,90,0|2,3:0|0:3,0:0:0:0:
83,87,96688,6,0,B|83:67|83:67|44:19|44:19|44:-18,1,94.499997116089,8|0,0:3|0:0,0:0:0:0:
190,127,97039,6,0,P|241:125|283:96,1,80.9999975280763,2|0,0:1|0:0,0:0:0:0:
108,196,97391,6,0,B|108:208|108:208|104:216|104:216|116:248|108:288,1,80.9999975280763,2|0,0:3|0:0,0:0:0:0:
115,366,97625,1,0,0:0:0:0:
105,360,97859,1,0,0:0:0:0:
96,352,98094,6,0,L|165:348,1,53.9999983520508,12|0,0:0|0:0,0:0:0:0:
432,345,98328,1,0,0:0:0:0:
432,345,98563,6,0,P|445:249|390:224,1,144,0|0,1:0|0:0,0:0:0:0:
384,143,98914,1,0,0:0:0:0:
300,180,99031,2,0,L|226:164,1,72,8|0,1:2|0:0,0:0:0:0:
378,56,99266,2,0,L|459:43,1,72,0|0,0:0|0:0,0:0:0:0:
487,235,99500,5,2,1:2:0:0:
476,272,99617,1,10,0:0:0:0:
376,253,99734,5,2,0:0:0:0:
365,310,99852,1,10,0:0:0:0:
253,293,99969,6,0,L|267:381,1,72,2|0,1:2|0:0,0:0:0:0:
152,173,100203,2,0,L|160:98,1,72,10|0,0:0|0:0,0:0:0:0:
160,267,100438,6,0,P|86:284|43:223,1,144,2|0,1:2|0:0,0:0:0:0:
237,202,100789,1,10,0:0:0:0:
270,288,100906,2,0,P|282:314|271:355,1,72,0|0,1:0|0:0,0:0:0:0:
336,188,101141,2,0,P|418:189|452:243,1,144,2|0,0:0|1:0,0:0:0:0:
437,339,101492,1,0,0:0:0:0:
437,339,101609,6,0,L|441:377,4,36,0|2|0|2|2,0:0|0:0|0:0|0:0|1:2,0:0:0:0:
256,76,102078,1,0,0:0:0:0:
256,76,102195,1,2,0:0:0:0:
201,141,102313,6,0,P|116:140|30:146,1,144,0|0,1:0|0:0,0:0:0:0:
243,274,102664,1,8,0:0:0:0:
308,204,102781,2,0,P|360:206|412:198,1,72,0|0,1:0|0:0,0:0:0:0:
408,340,103016,2,0,L|327:341,1,72,8|0,0:0|0:0,0:0:0:0:
53,303,103250,5,2,1:2:0:0:
64,224,103367,1,10,0:0:0:0:
141,276,103484,5,2,0:0:0:0:
157,198,103602,1,10,0:0:0:0:
228,252,103719,6,0,B|240:291|240:291|232:345,1,72,2|0,1:2|0:0,0:0:0:0:
84,144,103953,2,0,P|82:98|84:73,1,72,10|0,0:0|0:0,0:0:0:0:
157,198,104188,6,0,P|230:166|293:191,1,144,2|0,1:2|0:0,0:0:0:0:
480,113,104539,2,0,P|415:139|344:117,1,144,10|0,0:0|0:0,0:0:0:0:
111,68,104891,2,0,P|182:89|264:78,1,144,2|0,1:2|1:0,0:0:0:0:
285,182,105242,6,0,L|275:223,1,36,2|2,0:0|0:0,0:0:0:0:
267,251,105359,2,0,P|200:261|214:337,1,144,2|0,0:0|1:0,0:0:0:0:
353,364,105711,1,0,0:0:0:0:
416,301,105828,2,0,P|415:260|407:214,1,72,2|0,0:0|0:0,0:0:0:0:
367,3,106063,6,0,P|352:73|359:144,1,144,0|0,1:0|0:0,0:0:0:0:
251,83,106414,1,0,0:0:0:0:
164,128,106531,2,0,P|113:122|73:94,1,72,8|0,1:2|0:0,0:0:0:0:
248,212,106766,6,0,L|249:260,1,33.7500012874604
348,136,107000,6,0,L|353:57,1,72,2|10,1:2|0:0,0:0:0:0:
132,140,107234,2,0,L|147:223,1,72,2|10,0:0|0:0,0:0:0:0:
328,252,107469,2,0,P|390:248|487:250,1,144,2|10,1:2|0:0,0:0:0:0:
240,196,107820,1,0,0:0:0:0:
189,291,107938,6,0,P|117:299|33:288,1,144,2|0,1:2|0:0,0:0:0:0:
288,344,108289,2,0,P|364:344|432:348,1,144,10|0,0:0|0:0,0:0:0:0:
189,291,108641,2,0,P|192:332|193:392,1,72,2|0,1:2|0:0,0:0:0:0:
328,252,108875,6,0,P|340:160|304:112,1,144,0|0,1:0|0:0,0:0:0:0:
232,92,109227,1,0,0:0:0:0:
164,144,109344,2,0,B|133:157|133:157|92:152,1,72,0|0,1:2|0:0,0:0:0:0:
289,28,109578,2,0,B|325:23|325:23|360:32,1,72,2|0,0:0|0:0,0:0:0:0:
164,144,109813,6,0,P|147:82|188:15,1,144,2|0,1:2|0:0,0:0:0:0:
222,208,110164,1,8,0:0:0:0:
191,283,110281,2,0,L|109:288,1,72,2|0,1:2|0:0,0:0:0:0:
302,210,110516,5,10,0:0:0:0:
324,286,110633,1,2,0:0:0:0:
367,165,110750,1,2,1:2:0:0:
404,286,110867,1,10,0:0:0:0:
432,212,110984,2,0,L|472:208|503:204,1,72,2|8,0:0|0:0,0:0:0:0:
445,384,111219,2,0,P|466:330|391:290,1,144,2|8,1:2|0:0,0:0:0:0:
256,336,111570,1,0,0:0:0:0:
67,384,111688,6,0,P|46:330|121:290,1,144,2|0,1:2|0:0,0:0:0:0:
172,154,112039,2,0,B|118:130|56:132|56:132|81:154,1,144,10|0,0:0|0:0,0:0:0:0:
350,178,112391,2,0,P|397:174|436:175,1,72,2|0,1:2|0:0,0:0:0:0:
256,375,112625,6,0,B|275:303|240:303|256:227,1,144,2|2,1:0|0:0,1:0:0:0:
269,113,112938,2,0,L|266:82,8,24,2|0|2|0|2|2|2|2|2,0:0|0:0|0:0|0:0|0:0|0:0|0:0|0:0|0:0,0:0:0:0:
262,63,113328,2,0,P|238:47|186:49,1,72,0|0,0:0|0:0,0:0:0:0:
377,97,113563,6,0,P|432:104|457:21,1,144,4|0,1:2|0:0,0:0:0:0:
336,13,113914,1,0,0:0:0:0:
306,153,114031,2,0,L|311:230,1,72,8|0,1:2|0:0,0:0:0:0:
156,124,114266,6,0,L|107:121,1,33.7500012874604,0|0,0:0|0:0,0:0:0:0:
440,180,114500,6,0,L|444:100,1,72,2|10,1:2|0:0,0:0:0:0:
273,232,114734,2,0,L|278:316,1,72,2|10,0:0|0:0,0:0:0:0:
416,345,114969,2,0,P|435:307|409:265,1,72,2|0,1:2|0:0,0:0:0:0:
146,384,115203,2,0,P|127:346|153:304,1,72,10|0,0:0|0:0,0:0:0:0:
484,236,115438,6,0,P|401:260|331:250,1,144,2|0,1:2|0:0,0:0:0:0:
43,211,115789,2,0,P|143:231|203:210,1,144,10|0,0:0|0:0,0:0:0:0:
244,312,116141,2,0,L|247:396,1,72,2|0,1:2|0:0,0:0:0:0:
296,152,116375,6,0,B|292:56|292:56|275:80|242:97,1,144,0|0,1:0|0:0,0:0:0:0:
210,8,116727,1,8,0:0:0:0:
210,8,116844,1,0,1:0:0:0:
335,235,117078,2,0,P|369:210|385:180,1,72,2|0,0:0|0:0,0:0:0:0:
182,171,117313,6,0,L|193:333,1,144,0|0,1:0|0:0,0:0:0:0:
115,119,117664,1,10,0:0:0:0:
78,194,117781,2,0,L|4:185,1,72,0|0,1:0|0:0,0:0:0:0:
257,88,118016,2,0,L|183:79,1,72,8|0,0:0|0:0,0:0:0:0:
306,222,118250,5,2,1:2:0:0:
339,169,118367,1,10,0:0:0:0:
409,212,118484,5,2,0:0:0:0:
425,179,118602,1,10,0:0:0:0:
502,185,118719,6,0,P|506:144|490:95,1,72,2|0,1:2|0:0,0:0:0:0:
478,279,118953,2,0,L|483:363,1,72,10|0,0:0|0:0,0:0:0:0:
374,263,119188,6,0,P|298:251|262:300,1,144,2|0,1:2|0:0,0:0:0:0:
212,378,119539,2,0,L|162:381,1,36,10|2,0:0|0:0,0:0:0:0:
143,381,119656,2,0,B|70:345|70:345|150:306,1,144,0|2,1:0|0:0,0:0:0:0:
369,381,120125,2,0,B|442:345|442:345|362:306,1,144,0|2,1:0|0:0,0:0:0:0:
256,268,120477,1,8,0:0:0:0:
256,268,120594,1,0,1:0:0:0:
326,171,120828,2,0,P|332:115|323:88,1,72,2|2,0:0|0:0,0:0:0:0:
160,191,121063,6,0,L|180:336,1,144,0|0,1:0|0:0,0:0:0:0:
226,120,121414,1,0,0:0:0:0:
155,58,121531,2,0,P|120:51|74:61,1,72,8|0,1:2|0:0,0:0:0:0:
302,67,121766,2,0,P|353:59|386:42,1,72,0|0,0:0|0:0,0:0:0:0:
280,201,122000,5,2,1:2:0:0:
267,241,122117,1,10,0:0:0:0:
372,179,122234,6,0,L|360:100,1,72,2|10,0:0|0:0,0:0:0:0:
257,277,122469,2,0,L|273:359,1,72,2|0,1:2|0:0,0:0:0:0:
143,88,122703,2,0,L|158:159,1,72,10|0,0:0|0:0,0:0:0:0:
143,255,122938,6,0,P|73:257|25:206,1,144,2|0,1:2|0:0,0:0:0:0:
238,215,123289,2,0,P|275:274|254:341,1,144,10|0,0:0|0:0,0:0:0:0:
159,159,123641,2,0,P|191:97|259:81,1,144,2|0,1:2|1:0,0:0:0:0:
455,369,124109,6,0,P|386:360|356:298,1,144,2|0,0:0|1:0,0:0:0:0:
288,128,124578,1,2,0:0:0:0:
159,329,124813,2,0,L|13:335,1,144,0|2,1:0|0:0,0:0:0:0:
127,87,125281,1,0,1:0:0:0:
258,259,125516,2,0,B|282:287|282:343|282:343|314:319|330:279,1,144,2|2,0:0|1:2,0:0:0:0:
342,227,125867,1,10,0:0:0:0:
332,148,125984,1,2,0:0:0:0:
284,84,126102,1,10,0:0:0:0:
207,61,126219,6,0,B|132:47|99:78|99:78|123:91|147:83,1,144,2|10,1:2|0:0,0:0:0:0:
284,84,126570,1,2,0:0:0:0:
356,113,126688,2,0,P|421:124|523:109,1,144,0|2,1:0|0:0,0:0:0:0:
284,84,127039,1,2,0:0:0:0:
262,160,127157,2,0,B|242:228|282:228|262:308,1,144,0|2,1:0|0:0,0:0:0:0:
58,257,127508,1,0,0:0:0:0:
58,257,127625,2,0,B|119:229|168:259|168:259|122:273,1,144,2|0,1:0|0:0,0:0:0:0:
137,309,127977,6,0,L|180:324,1,36,2|0,0:0|0:0,0:0:0:0:
170,320,128094,2,0,L|129:340,1,36
138,335,128211,2,0,L|182:353,1,36,0|2,0:0|0:0,0:0:0:0:
171,348,128328,2,0,L|122:367,1,36,2|2,0:0|0:0,0:0:0:0:
137,361,128445,2,0,L|181:380,1,36,2|2,0:0|0:0,0:0:0:0:
256,192,128563,12,4,143563,0:0:0:0:
120,328,147313,5,4,0:0:0:0:
256,264,149656,5,4,0:0:0:0:
256,192,150125,12,4,154813,0:0:0:0:
256,192,154930,12,4,157391,0:0:0:0:
428,336,158328,6,0,L|429:294,1,33.7500012874604,2|0,0:1|0:0,0:0:0:0:
456,128,158563,5,4,0:0:0:0:
456,128,159031,2,0,L|351:121,1,90,0|0,0:0|0:0,0:0:0:0:
140,219,159500,2,0,B|190:236|190:236|329:227,1,180,2|0,0:0|0:0,0:0:0:0:
316,228,160203,1,2,0:0:0:0:
404,280,160672,5,0,0:0:0:0:
214,269,160906,2,0,P|204:311|225:373,1,90,2|0,0:0|0:0,0:0:0:0:
425,181,161375,2,0,P|433:125|424:84,1,90,0|2,0:0|0:0,0:0:0:0:
97,40,161844,2,0,P|90:89|99:135,2,90,0|0|2,0:0|0:0|0:0,0:0:0:0:
394,374,162781,6,0,P|410:314|400:272,1,90,0|0,0:0|0:0,0:0:0:0:
349,220,163250,1,2,0:0:0:0:
297,293,163484,1,0,0:0:0:0:
164,264,163719,1,0,0:0:0:0:
164,264,163836,2,0,B|203:241|203:241|181:289|200:340,1,135,0|2,0:0|0:0,0:0:0:0:
241,163,164422,5,0,0:0:0:0:
381,297,164656,2,0,P|424:309|473:299,1,90
197,329,165125,2,0,P|159:321|103:335,1,90,2|0,0:0|0:0,0:0:0:0:
280,274,165594,2,0,P|282:198|241:164,1,135,2|0,0:0|0:0,0:0:0:0:
240,163,166063,5,2,0:0:0:0:
386,157,166297,1,2,0:0:0:0:
394,171,166531,1,0,0:0:0:0:
235,80,166766,5,2,0:0:0:0:
115,197,167000,1,0,0:0:0:0:
112,217,167234,1,2,0:0:0:0:
321,94,167469,2,0,P|315:73|310:45,1,45,0|0,0:0|0:0,0:0:0:0:
321,94,167703,1,2,0:0:0:0:
98,103,167938,5,0,0:0:0:0:
103,89,168172,1,2,0:0:0:0:
258,199,168406,5,0,0:0:0:0:
248,173,168641,1,2,0:0:0:0:
19,283,168875,5,0,0:0:0:0:
35,245,169109,1,2,0:0:0:0:
122,180,169344,1,0,0:0:0:0:
261,150,169578,1,2,0:0:0:0:
411,226,169813,6,0,P|490:218|501:172,1,135,0|2,0:0|0:0,0:0:0:0:
383,205,170281,2,0,L|399:310,2,90,0|2|0,0:0|0:0|0:0,0:0:0:0:
256,192,170984,12,0,172625,0:0:0:0:
256,284,173211,6,0,L|256:336,2,33.7500012874604,0|0|0,0:0|0:0|0:0,0:0:0:0:
345,182,173563,6,0,L|446:173,1,99.0000030212403,2|2,0:1|0:0,0:0:0:0:
256,112,173914,1,8,0:1:0:0:
256,128,174031,1,8,0:1:0:0:
256,144,174266,5,0,1:0:0:0:
346,78,174500,2,0,L|354:19,1,49.5000015106202,8|0,0:0|0:0,0:0:0:0:
288,232,174734,1,0,0:0:0:0:
144,132,174969,1,0,0:0:0:0:
296,311,175203,1,0,0:0:0:0:
98,223,175438,6,0,P|66:216|-1:225,1,99.0000030212403,2|0,0:0|0:0,0:0:0:0:
0,224,175789,1,0,0:0:0:0:
173,200,175906,5,0,1:0:0:0:
455,163,176141,1,0,0:0:0:0:
243,375,176375,2,0,P|216:375|182:372,1,49.5000015106202,8|0,0:0|0:0,0:0:0:0:
370,339,176609,1,0,0:0:0:0:
111,344,176844,1,0,0:0:0:0:
434,255,177078,1,0,0:0:0:0:
41,249,177313,6,0,P|32:192|38:135,1,99.0000030212403,0|0,1:0|0:0,0:0:0:0:
34,151,177664,1,8,0:1:0:0:
23,331,177781,1,0,0:0:0:0:
170,34,178016,5,0,1:0:0:0:
257,127,178250,2,0,L|373:120,1,99.0000030212403,8|0,0:0|0:0,0:0:0:0:
47,35,178719,1,0,0:0:0:0:
262,289,178953,1,0,0:0:0:0:
213,299,179070,1,0,0:0:0:0:
163,307,179188,1,2,0:0:0:0:
450,167,179422,1,0,0:0:0:0:
411,269,179656,6,0,L|416:325,1,49.5000015106202,0|0,1:0|0:0,0:0:0:0:
330,216,179891,1,0,0:0:0:0:
432,24,180125,2,0,L|446:144,1,99.0000030212403,8|0,0:0|0:0,0:0:0:0:
483,205,180477,1,0,0:0:0:0:
483,205,180594,1,0,0:0:0:0:
320,122,180828,1,0,0:0:0:0:
214,284,181063,5,0,1:0:0:0:
395,193,181297,1,0,0:0:0:0:
411,190,181531,1,0,0:0:0:0:
165,131,181766,5,0,1:0:0:0:
324,312,182000,1,8,0:0:0:0:
345,315,182234,1,0,0:0:0:0:
73,242,182469,5,0,0:0:0:0:
260,100,182703,1,0,0:0:0:0:
279,95,182938,1,2,0:0:0:0:
36,116,183172,6,0,P|40:79|46:58,1,49.5000015106202,0|0,1:0|0:0,0:0:0:0:
151,209,183406,2,0,P|150:176|148:152,1,49.5000015106202,0|0,1:0|0:0,0:0:0:0:
47,315,183641,1,0,0:0:0:0:
192,290,183875,2,0,L|297:289,1,99.0000030212403,8|0,0:0|0:0,0:0:0:0:
363,327,184227,1,0,0:0:0:0:
363,327,184344,5,0,1:0:0:0:
68,232,184578,1,0,0:0:0:0:
470,218,184813,2,0,P|415:206|373:175,1,99.0000030212403,0|0,1:0|0:0,0:0:0:0:
281,210,185164,1,8,0:1:0:0:
281,210,185281,1,0,0:1:0:0:
192,309,185516,6,0,L|191:369,1,49.5000015106202,0|0,1:0|0:0,0:0:0:0:
92,157,185750,2,0,L|104:268,1,99.0000030212403,8|0,0:0|0:0,0:0:0:0:
80,300,186102,1,0,0:0:0:0:
31,307,186219,1,0,0:0:0:0:
316,326,186453,1,0,0:0:0:0:
166,384,186688,1,2,0:0:0:0:
450,355,186922,6,0,L|440:285,1,49.5000015106202,0|0,1:0|0:0,0:0:0:0:
478,209,187156,2,0,P|441:225|371:220,1,99.0000030212403,0|0,1:0|0:0,0:0:0:0:
246,283,187508,1,0,0:0:0:0:
169,215,187625,6,0,L|151:162,1,49.5000015106202,10|0,0:0|0:0,0:0:0:0:
342,183,187859,2,0,L|330:239,1,49.5000015106202,0|0,1:0|0:0,0:0:0:0:
95,312,188094,6,0,L|73:253,1,49.5000015106202,8|0,0:0|0:0,0:0:0:0:
419,281,188328,2,0,L|406:329,1,49.5000015106202,2|0,0:1|0:0,0:0:0:0:
169,215,188563,6,0,P|173:135|233:135,1,125.999996154785
176,307,188914,1,0,0:0:0:0:
267,318,189031,2,0,B|368:312|368:312|323:341,1,125.999996154785,8|0,0:0|0:0,0:0:0:0:
280,196,189383,1,0,0:0:0:0:
360,124,189500,2,0,P|368:72|328:4,2,125.999996154785,0|0|8,0:0|0:0|0:0,0:0:0:0:
336,284,190086,2,0,B|344:360|344:360|372:308,1,125.999996154785,0|0,0:0|0:0,0:0:0:0:
280,196,190438,6,0,L|155:202,1,125.999996154785
72,148,190789,1,0,0:0:0:0:
72,148,190906,1,8,0:0:0:0:
208,372,191141,1,0,0:0:0:0:
440,316,191375,6,0,P|462:250|400:224,1,125.999996154785
252,252,191727,1,0,0:0:0:0:
324,320,191844,2,0,L|322:382,1,62.9999980773926,8|0,0:0|0:0,0:0:0:0:
176,128,192078,2,0,L|181:190,1,62.9999980773926
422,195,192313,6,0,L|278:183,1,125.999996154785
34,271,192664,1,0,0:0:0:0:
84,334,192781,2,0,L|216:314,2,125.999996154785,8|0|0,0:0|0:0|0:0,0:0:0:0:
256,48,193484,1,0,0:0:0:0:
489,205,193719,1,8,0:0:0:0:
426,270,193836,2,0,L|294:258,1,125.999996154785,2|0,0:0|0:0,0:0:0:0:
65,185,194188,6,0,L|201:173,1,125.999996154785,0|0,0:0|0:0,0:0:0:0:
272,168,194539,1,2,0:0:0:0:
268,180,194656,1,8,0:0:0:0:
146,265,194891,1,2,0:0:0:0:
368,176,195125,1,2,0:0:0:0:
69,177,195359,1,0,0:0:0:0:
445,262,195594,2,0,P|507:235|454:150,1,188.999994232178,10|0,0:0|0:0,0:0:0:0:
200,344,196063,6,0,B|232:336|232:336|288:344|288:344|336:336,1,125.999996154785,2|0,0:0|0:0,0:0:0:0:
255,78,196414,1,0,0:0:0:0:
182,131,196531,2,0,P|162:187|210:259,2,125.999996154785,8|0|0,0:0|0:0|0:0,0:0:0:0:
84,40,197234,1,0,0:0:0:0:
323,135,197469,1,8,0:0:0:0:
384,72,197586,2,0,L|520:76,1,125.999996154785
389,210,197938,6,0,L|249:226,1,125.999996154785
87,221,198289,1,0,0:0:0:0:
116,300,198406,2,0,L|256:316,1,125.999996154785,8|0,0:0|0:0,0:0:0:0:
86,36,198875,2,0,P|75:95|120:136,1,125.999996154785
211,89,199227,1,0,0:0:0:0:
131,198,199344,2,0,L|119:130,1,62.9999980773926,8|0,0:0|0:0,0:0:0:0:
249,214,199578,2,0,L|243:298,1,62.9999980773926
330,118,199813,6,0,L|474:106,1,125.999996154785
374,211,200164,1,0,0:0:0:0:
374,211,200281,2,0,L|390:348,2,125.999996154785,8|0|0,0:0|0:0|0:0,0:0:0:0:
266,73,200984,1,0,0:0:0:0:
188,243,201219,1,8,0:0:0:0:
188,243,201336,2,0,L|177:379,1,125.999996154785
9,333,201688,6,0,P|64:292|120:321,1,125.999996154785,0|0,0:0|0:0,0:0:0:0:
177,368,202039,1,0,0:0:0:0:
261,383,202156,2,0,P|328:358|341:301,1,125.999996154785,8|0,0:0|0:0,0:0:0:0:
256,224,202508,1,0,0:0:0:0:
329,140,202625,2,0,L|339:63,1,62.9999980773926,8|0,0:0|0:0,0:0:0:0:
164,182,202859,2,0,L|147:121,1,62.9999980773926,8|0,0:0|0:0,0:0:0:0:
403,254,203094,5,4,0:0:0:0:
266,313,203211,1,8,0:0:0:0:
339,184,203328,1,8,0:0:0:0:
356,333,203445,1,8,0:0:0:0:
256,223,203563,6,0,P|245:142|256:80,1,125.999996154785,0|0,1:0|0:0,0:0:0:0:
175,259,203914,1,0,0:0:0:0:
336,266,204031,2,0,B|404:253|404:253|352:225,1,125.999996154785,8|0,0:0|0:0,0:0:0:0:
45,351,204500,2,0,P|110:374|138:332,1,125.999996154785,8|0,0:0|0:0,0:0:0:0:
291,115,204969,2,0,P|232:97|186:135,1,125.999996154785,8|0,0:0|0:0,0:0:0:0:
446,342,205438,6,0,L|452:216,1,125.999996154785,8|0,0:0|0:0,0:0:0:0:
350,373,205789,1,0,0:0:0:0:
260,322,205906,2,0,B|165:329|165:329|207:344,1,125.999996154785,8|0,0:0|0:0,0:0:0:0:
419,139,206375,6,0,B|514:132|514:132|472:117,1,125.999996154785,8|0,0:0|0:0,0:0:0:0:
353,73,206727,1,0,0:0:0:0:
323,167,206844,2,0,L|315:229,1,62.9999980773926,8|0,0:0|0:0,0:0:0:0:
430,238,207078,2,0,L|435:302,1,62.9999980773926
197,384,207313,6,0,P|171:327|192:268,1,125.999996154785,8|0,0:0|0:0,0:0:0:0:
256,192,207664,1,0,0:0:0:0:
159,163,207781,2,0,P|97:168|43:213,2,125.999996154785,8|0|8,0:0|0:0|0:0,0:0:0:0:
256,320,208484,1,0,0:0:0:0:
464,205,208719,5,8,0:0:0:0:
464,205,208836,2,0,P|414:167|353:163,1,125.999996154785,0|0,0:0|0:0,0:0:0:0:
256,0,209188,1,8,0:0:0:0:
212,185,209422,6,0,L|226:259,1,62.9999980773926
276,104,209656,1,8,0:0:0:0:
324,240,209891,5,0,0:0:0:0:
300,308,210008,1,0,0:0:0:0:
276,376,210125,2,0,P|236:340|248:256,1,125.999996154785,8|0,0:0|0:0,0:0:0:0:
72,384,210594,2,0,P|68:316|90:256,1,125.999996154785,8|0,0:0|0:0,0:0:0:0:
122,0,211063,6,0,L|135:111,1,107.999996704102,8|0,0:0|0:0,0:0:0:0:
135,192,211414,1,0,0:0:0:0:
135,192,211531,2,0,B|88:185|88:185|23:216,1,107.999996704102,8|0,0:0|0:0,0:0:0:0:
214,145,211883,1,0,0:0:0:0:
214,145,212000,1,8,0:0:0:0:
256,320,212234,5,0,0:0:0:0:
377,192,212469,1,8,0:0:0:0:
377,192,212586,2,0,B|424:185|424:185|489:216,1,107.999996704102
377,107,212938,2,0,L|390:0,1,107.999996704102,8|0,0:0|0:0,0:0:0:0:
298,145,213289,1,0,0:0:0:0:
298,145,213406,1,8,0:0:0:0:
256,32,213641,1,2,0:0:0:0:
213,146,213875,5,8,0:0:0:0:
256,32,214109,1,2,0:0:0:0:
256,232,214344,1,8,0:0:0:0:
256,32,214578,1,2,0:0:0:0:
80,156,214813,5,8,0:0:0:0:
74,176,215047,1,2,0:0:0:0:
78,63,215281,5,8,0:0:0:0:
160,223,215516,5,2,0:0:0:0:
168,260,215750,1,0,0:0:0:0:
284,238,215984,5,2,0:0:0:0:
328,276,216219,1,8,0:0:0:0:
424,260,216453,1,2,0:0:0:0:
486,152,216688,6,0,L|488:82,1,45,0|0,0:0|0:0,0:0:0:0:
319,80,216922,2,0,L|309:19,1,45,2|0,0:0|0:0,0:0:0:0:
475,154,217156,2,0,L|477:84,1,45,8|0,0:0|0:0,0:0:0:0:
308,82,217390,2,0,L|298:21,1,45,2|0,0:0|0:0,0:0:0:0:
465,151,217625,6,0,L|467:81,1,45,0|0,0:0|0:0,0:0:0:0:
298,79,217859,2,0,L|288:18,1,45,2|0,0:0|0:0,0:0:0:0:
455,156,218094,2,0,L|457:86,1,45,8|0,0:0|0:0,0:0:0:0:
288,84,218328,2,0,L|278:23,1,45,2|0,0:0|0:0,0:0:0:0:
229,228,218563,6,0,L|262:225,4,22.5,0|0|0|2|2,0:0|0:0|0:0|0:0|0:0,0:0:0:0:
182,154,218914,6,0,P|154:117|176:54,1,107.999996704102,2|0,0:1|0:0,0:0:0:0:
306,171,219266,6,0,B|302:191|302:191|307:212|307:212|302:229|306:261,1,90,2|0,0:3|0:0,0:0:0:0:
265,363,219500,5,2,0:0:0:0:
273,354,219734,1,2,0:0:0:0:
282,344,219969,6,0,P|219:325|154:349,1,135,4|0,0:0|0:0,0:0:0:0:
53,293,220438,6,0,P|125:305|212:279,1,144,4|0,1:2|0:0,0:0:0:0:
263,204,220789,1,0,0:0:0:0:
170,157,220906,2,0,L|154:82,1,72,0|0,1:0|0:0,0:0:0:0:
313,110,221141,2,0,L|394:97,1,72
343,255,221375,5,2,1:2:0:0:
352,290,221492,1,10,0:0:0:0:
192,259,221609,5,2,0:0:0:0:
185,276,221727,1,10,0:0:0:0:
263,204,221844,6,0,P|271:169|256:137,1,72,2|0,1:2|0:0,0:0:0:0:
324,309,222078,2,0,L|316:380,1,72,10|0,0:0|0:0,0:0:0:0:
512,251,222313,6,0,P|476:198|395:207,1,144,2|0,1:2|0:0,0:0:0:0:
502,112,222664,1,10,0:0:0:0:
502,112,222781,2,0,P|513:78|500:45,1,72,0|0,1:0|0:0,0:0:0:0:
251,125,223016,2,0,B|319:168|383:106,1,144,2|0,0:0|1:0,0:0:0:0:
298,11,223367,1,0,0:0:0:0:
298,11,223484,6,0,L|302:49,4,36,0|2|0|2|2,0:0|0:0|0:0|0:0|1:2,0:0:0:0:
198,224,223953,1,0,0:0:0:0:
198,224,224070,1,2,0:0:0:0:
126,168,224188,6,0,L|96:-9,1,144,0|0,1:0|0:0,0:0:0:0:
68,238,224539,1,8,0:0:0:0:
141,295,224656,2,0,L|130:367,1,72,0|0,1:0|0:0,0:0:0:0:
3,182,224891,2,0,L|6:102,1,72,8|0,0:0|0:0,0:0:0:0:
48,320,225125,5,2,1:2:0:0:
40,347,225242,1,10,0:0:0:0:
238,316,225359,5,2,0:0:0:0:
222,295,225477,1,10,0:0:0:0:
134,315,225594,6,0,P|134:350|152:384,1,72,2|0,1:2|0:0,0:0:0:0:
336,338,225828,2,0,P|336:293|323:263,1,72,10|0,0:0|0:0,0:0:0:0:
130,207,226063,6,0,P|201:226|266:197,1,144,2|0,1:2|0:0,0:0:0:0:
505,164,226414,2,0,P|439:146|369:168,1,144,10|0,0:0|0:0,0:0:0:0:
442,335,226766,2,0,P|493:319|444:280,1,144,2|0,1:2|1:0,0:0:0:0:
208,327,227117,6,0,L|155:316,1,36,2|2,0:0|0:0,0:0:0:0:
141,311,227234,2,0,L|292:289,1,144,2|0,0:0|1:0,0:0:0:0:
151,175,227586,1,0,0:0:0:0:
71,231,227703,2,0,L|-2:220,1,72
70,1,227938,6,0,B|49:50|49:50|62:161,1,144,0|0,1:0|0:0,0:0:0:0:
213,96,228289,1,0,0:0:0:0:
151,175,228406,2,0,L|164:264,1,72,8|0,1:2|0:0,0:0:0:0:
297,134,228641,6,0,L|293:176,1,33.7500012874604
77,118,228875,6,0,L|68:44,1,72,2|10,1:2|0:0,0:0:0:0:
386,65,229109,2,0,L|376:144,1,72,2|10,0:0|0:0,0:0:0:0:
8,208,229344,2,0,P|80:196|140:232,1,144,2|10,1:2|0:0,0:0:0:0:
240,204,229695,1,0,0:0:0:0:
330,262,229813,6,0,P|399:276|466:251,1,144,2|0,1:2|0:0,0:0:0:0:
156,280,230164,2,0,P|81:296|12:276,1,144,10|0,0:0|0:0,0:0:0:0:
252,311,230516,2,0,P|248:352|256:412,1,72,2|0,1:2|0:0,0:0:0:0:
256,200,230750,6,0,P|268:108|232:60,1,144,0|0,1:0|0:0,0:0:0:0:
330,262,231102,1,0,0:0:0:0:
252,311,231219,2,0,B|221:317|221:317|183:302,1,72,0|0,1:0|0:0,0:0:0:0:
411,220,231453,2,0,B|443:205|443:205|478:214,1,72,2|0,0:0|0:0,0:0:0:0:
352,343,231688,6,0,B|350:296|350:296|324:253|324:253|324:200,1,144,2|0,1:2|0:0,0:0:0:0:
270,384,232039,1,8,0:0:0:0:
439,360,232156,2,0,L|437:281,1,72,2|0,1:2|0:0,0:0:0:0:
412,122,232391,5,10,0:0:0:0:
400,156,232508,1,2,0:0:0:0:
305,145,232625,5,2,1:2:0:0:
284,166,232742,1,10,0:0:0:0:
190,166,232859,6,0,P|155:157|119:153,1,72,2|8,0:0|0:0,0:0:0:0:
286,266,233094,2,0,P|192:259|120:285,1,144,2|8,1:2|0:0,0:0:0:0:
48,234,233445,1,0,0:0:0:0:
190,166,233563,6,0,L|200:19,1,144,2|0,1:2|0:0,0:0:0:0:
74,231,233914,2,0,B|88:336|88:336|120:296,1,144,10|0,0:0|0:0,0:0:0:0:
34,76,234266,2,0,P|24:118|47:152,1,72,2|0,1:2|0:0,0:0:0:0:
312,246,234500,6,2,P|323:172|306:133,1,101.250003862381,2|0,1:3|0:1,0:1:0:0:
405,150,234969,6,0,P|401:103|386:75,1,72,2|0,2:1|0:0,0:0:0:0:
216,180,235203,2,0,P|216:136|233:91,1,72,0|0,0:0|0:0,0:0:0:0:
425,259,235438,6,0,P|470:285|498:207,1,144,0|0,1:0|0:0,0:0:0:0:
315,149,235789,1,0,0:0:0:0:
208,262,235906,2,0,P|194:291|189:334,1,72,8|0,1:2|0:0,0:0:0:0:
256,80,236141,6,0,L|256:36,1,33.7500012874604
360,236,236375,6,0,L|443:243,1,72,2|10,1:2|0:0,0:0:0:0:
493,149,236609,2,0,L|421:143,1,72,2|10,0:0|0:0,0:0:0:0:
152,236,236844,6,0,L|69:243,1,72,2|0,1:2|0:0,0:0:0:0:
19,149,237078,2,0,L|91:143,1,72,10|0,0:0|0:0,0:0:0:0:
465,251,237313,6,0,P|399:275|331:254,1,144,2|0,1:2|0:0,0:0:0:0:
54,274,237664,2,0,P|117:242|187:253,1,144,10|0,0:0|0:0,0:0:0:0:
261,378,238016,2,0,P|250:333|258:306,1,72,2|0,1:2|0:0,0:0:0:0:
274,93,238250,6,0,B|302:140|270:189|270:189|220:148,1,144,0|0,1:0|0:0,0:0:0:0:
209,30,238602,1,8,0:0:0:0:
152,105,238719,2,0,L|63:106,1,72,0|0,1:0|0:0,0:0:0:0:
318,16,238953,2,0,L|389:14,1,72,2|0,0:0|0:0,0:0:0:0:
294,170,239188,6,0,L|305:332,1,144,0|0,1:0|0:0,0:0:0:0:
378,216,239539,1,8,0:0:0:0:
212,289,239656,2,0,L|200:381,1,72,0|0,1:0|0:0,0:0:0:0:
400,376,239891,2,0,L|390:293,1,72,8|0,0:0|0:0,0:0:0:0:
292,182,240125,5,2,1:2:0:0:
259,179,240242,1,10,0:0:0:0:
432,152,240359,5,2,0:0:0:0:
461,136,240477,1,10,0:0:0:0:
275,210,240594,6,0,L|281:283,1,72,2|0,1:2|0:0,0:0:0:0:
432,116,240828,2,0,L|426:44,1,72,10|0,0:0|0:0,0:0:0:0:
192,124,241063,6,0,P|256:138|334:73,1,144,2|2,1:2|0:0,0:0:0:0:
148,250,241414,2,0,L|160:298,1,36,2|2,0:0|0:0,0:0:0:0:
227,316,241531,2,0,P|159:318|131:384,1,144,0|2,1:0|0:0,0:0:0:0:
402,250,242000,2,0,P|406:340|466:357,1,144,0|2,1:0|0:0,0:0:0:0:
295,229,242352,1,8,0:0:0:0:
295,229,242469,1,0,1:0:0:0:
498,198,242703,2,0,B|505:153|505:153|495:115,1,72,2|2,0:0|0:0,0:0:0:0:
379,2,242938,6,0,B|404:39|404:39|399:147,1,144,0|0,1:0|0:0,0:0:0:0:
371,235,243289,1,0,0:0:0:0:
458,344,243406,2,0,L|450:272,1,72,8|0,1:2|0:0,0:0:0:0:
293,175,243641,2,0,L|297:104,1,72
139,235,243875,5,2,1:2:0:0:
151,268,243992,1,10,0:0:0:0:
277,136,244109,2,0,L|265:57,1,72,2|10,0:0|0:0,0:0:0:0:
163,298,244344,6,0,L|214:358,1,72,2|0,1:2|0:0,0:0:0:0:
249,105,244578,2,0,L|207:35,1,72,10|0,0:0|0:0,0:0:0:0:
236,227,244813,6,0,B|293:244|344:200|344:200|314:184,1,144,2|0,1:2|0:0,0:0:0:0:
123,261,245164,2,0,B|79:301|92:368|92:368|121:350,1,144,10|0,0:0|0:0,0:0:0:0:
150,142,245516,2,0,B|136:84|72:61|72:61|73:95,1,144,2|0,1:2|1:0,0:0:0:0:
323,372,245984,6,0,P|382:330|373:250,1,144,2|0,0:0|1:0,0:0:0:0:
370,92,246453,1,2,0:0:0:0:
140,305,246688,2,0,P|57:299|3:254,1,144,0|2,1:0|0:0,0:0:0:0:
123,66,247156,1,0,1:0:0:0:
318,219,247391,2,0,P|388:175|437:221,1,144,2|2,0:0|1:2,0:0:0:0:
464,283,247742,1,10,0:0:0:0:
398,338,247859,1,2,0:0:0:0:
312,324,247977,1,10,0:0:0:0:
228,346,248094,6,0,B|145:375|67:330,1,144,2|8,1:2|0:0,0:0:0:0:
259,226,248445,1,0,0:0:0:0:
362,268,248563,2,0,P|418:251|529:264,1,144,2|2,1:2|0:0,0:0:0:0:
238,74,248914,1,2,0:0:0:0:
171,135,249031,2,0,B|160:165|160:165|178:297,1,144,0|2,1:0|0:0,0:0:0:0:
302,169,249383,1,2,0:0:0:0:
294,215,249500,1,0,1:0:0:0:
392,337,249734,2,0,B|423:338|443:314|443:314|392:284|326:333|326:333|266:347|219:309,1,288,2|2,0:0|0:0,0:0:0:0:
227,315,250438,5,4,0:0:0:0:
256,192,250555,12,0,258875,0:0:0:0:
199,99,259578,6,2,L|201:136,1,33.7500012874604,0|0,0:1|0:0,0:0:0:0:
213,272,259813,6,0,P|267:286|312:244,1,107.999996704102,2|0,0:0|0:0,0:0:0:0:
122,248,260164,2,0,P|125:301|162:348,1,107.999996704102,2|0,0:0|0:0,0:0:0:0:
50,181,260516,2,0,P|26:224|29:292,1,107.999996704102,2|0,0:0|0:0,0:0:0:0:
198,100,260984,1,2,0:0:0:0:
92,84,261219,5,2,0:0:0:0:
213,195,261336,1,2,0:0:0:0:
380,144,261688,6,0,P|428:134|485:172,1,107.999996704102,2|0,0:0|0:0,0:0:0:0:
500,210,262039,2,0,P|483:256|423:286,1,107.999996704102,2|0,0:0|0:0,0:0:0:0:
381,278,262391,2,0,P|348:240|352:173,1,107.999996704102,2|0,0:0|0:0,0:0:0:0:
422,210,263094,6,0,B|415:252|415:252|423:283|423:283|412:338,2,112.5,2|0|2,0:1|0:0|0:1,0:1:0:0:
201,24,263563,6,0,P|195:63|227:122,1,107.999996704102,2|0,0:0|0:0,0:0:0:0:
397,104,263914,2,0,P|366:79|299:77,1,107.999996704102,2|0,0:0|0:0,0:0:0:0:
223,235,264266,2,0,P|259:220|294:163,1,107.999996704102,2|0,0:0|0:0,0:0:0:0:
324,10,264734,1,2,0:0:0:0:
153,142,264969,5,2,0:0:0:0:
358,215,265086,1,2,0:0:0:0:
136,257,265438,6,0,L|17:268,1,107.999996704102,2|0,0:0|0:0,0:0:0:0:
238,316,265789,2,0,L|353:327,1,107.999996704102,2|0,0:0|0:0,0:0:0:0:
145,355,266141,1,2,0:0:0:0:
52,122,266375,5,0,0:0:0:0:
280,192,266609,1,2,0:0:0:0:
292,106,266844,5,0,0:0:0:0:
77,206,267078,1,2,0:0:0:0:
407,273,267313,6,0,P|462:290|514:263,1,107.999996704102,2|0,0:0|0:0,0:0:0:0:
361,279,267664,2,0,P|313:302|261:290,1,107.999996704102,2|0,0:0|0:0,0:0:0:0:
378,245,268016,2,0,L|386:352,1,107.999996704102,2|0,0:0|0:0,0:0:0:0:
365,125,268484,1,2,0:0:0:0:
302,210,268719,5,2,0:0:0:0:
444,190,268836,1,2,0:0:0:0:
131,133,269188,6,0,P|92:113|72:52,1,107.999996704102,2|0,0:0|0:0,0:0:0:0:
207,188,269539,2,0,P|251:168|297:104,1,107.999996704102,2|0,0:0|0:0,0:0:0:0:
119,225,269891,2,0,P|60:215|28:246,1,107.999996704102,2|2,0:0|0:1,0:1:0:0:
20,293,270242,5,2,0:1:0:0:
39,337,270359,1,0,0:0:0:0:
85,351,270477,1,2,0:1:0:0:
132,343,270594,1,0,0:0:0:0:
168,311,270711,1,0,0:0:0:0:
215,320,270828,2,0,P|227:340|229:364,2,35.9999989013672,2|2|2,0:1|0:0|0:0,0:0:0:0:
100,260,271063,6,0,L|94:147,1,107.999996704102,2|0,0:0|0:0,0:0:0:0:
156,83,271414,2,0,B|185:140|185:140|161:212,1,107.999996704102,2|0,0:0|0:0,0:0:0:0:
20,193,271766,2,0,B|-1:151|-1:151|18:80,1,107.999996704102,2|0,0:0|0:0,0:0:0:0:
94,153,272234,1,2,0:0:0:0:
0,297,272469,5,2,0:0:0:0:
213,275,272586,1,2,0:0:0:0:
213,275,272938,2,2,P|255:215|212:130,2,161.999995056153,2|0|0,0:0|0:0|0:0,0:1:0:0:
334,267,273875,2,0,L|459:278,1,107.999996704102
174,358,274344,2,0,L|59:362,1,107.999996704102
188,191,274813,5,8,1:2:0:0:
270,159,275164,1,0,0:0:0:0:
270,159,275281,1,0,0:0:0:0:
285,77,275516,1,0,0:0:0:0:
338,217,275750,1,8,1:2:0:0:
188,191,275984,1,0,0:0:0:0:
109,224,276219,5,0,0:0:0:0:
199,107,276336,1,0,0:0:0:0:
160,367,276688,5,8,1:2:0:0:
253,321,277039,1,0,0:0:0:0:
253,321,277156,1,0,0:0:0:0:
267,227,277391,1,0,0:0:0:0:
335,384,277625,5,8,1:2:0:0:
119,251,277859,1,0,0:0:0:0:
395,289,278094,5,0,0:0:0:0:
64,349,278328,1,0,0:0:0:0:
166,52,278563,5,8,1:2:0:0:
246,110,278914,1,0,0:0:0:0:
246,110,279031,1,0,0:0:0:0:
237,196,279266,1,0,0:0:0:0:
329,71,279500,1,8,1:2:0:0:
166,52,279734,1,0,0:0:0:0:
87,0,279969,5,0,0:0:0:0:
155,145,280086,1,0,0:0:0:0:
431,39,280438,5,8,1:2:0:0:
408,143,280789,1,0,0:0:0:0:
408,143,280906,1,0,0:0:0:0:
487,215,281141,1,0,0:0:0:0:
309,181,281375,5,8,1:2:0:0:
297,284,281609,1,0,0:0:0:0:
160,94,281844,5,0,0:0:0:0:
139,1,282078,1,0,0:0:0:0:
147,257,282313,5,8,1:2:0:0:
57,238,282664,1,0,0:0:0:0:
57,238,282781,1,0,0:0:0:0:
27,154,283016,1,0,0:0:0:0:
0,309,283250,1,8,1:2:0:0:
147,257,283484,1,0,0:0:0:0:
125,170,283719,5,0,0:0:0:0:
90,327,283836,1,0,0:0:0:0:
462,323,284188,5,8,1:2:0:0:
389,247,284539,1,0,0:0:0:0:
389,247,284656,1,0,0:0:0:0:
412,153,284891,1,0,0:0:0:0:
292,278,285125,5,8,1:2:0:0:
462,323,285359,1,0,0:0:0:0:
241,205,285594,5,0,0:0:0:0:
62,261,285828,1,0,0:0:0:0:
117,63,286063,6,0,P|126:121|119:173,1,107.999996704102,8|0,1:2|0:0,0:0:0:0:
88,213,286414,1,0,0:0:0:0:
62,261,286531,2,0,L|50:381,1,107.999996704102
250,154,287000,2,0,P|237:207|249:275,1,107.999996704102,8|0,1:2|0:0,0:0:0:0:
420,357,287469,2,0,L|413:288,2,53.9999983520508,0|0|0,0:0|0:0|0:0,0:0:0:0:
458,100,287938,6,0,P|470:153|445:208,1,107.999996704102,8|0,1:2|0:0,0:0:0:0:
406,231,288289,1,0,0:0:0:0:
360,202,288406,2,0,P|339:146|359:92,1,107.999996704102
194,233,288875,2,0,B|156:245|156:245|83:235,1,107.999996704102,8|0,1:2|0:0,0:0:0:0:
307,329,289344,2,0,B|338:317|338:317|421:331,1,107.999996704102,0|2,0:0|0:3,0:0:0:0:
480,93,289813,6,0,B|424:109|391:153|391:153|355:114|291:101,3,215.999993408203,4|0|4|0,0:0|0:0|0:0|0:0,0:0:0:0:
288,77,291277,2,2,L|270:32,6,26.9999991760254,0|0|0|0|0|0|0,0:0|0:0|0:0|0:0|0:0|0:0|0:0,0:0:0:0:
264,21,291688,6,2,L|282:191,1,161.999995056153,0|0,0:0|0:0,0:0:0:0:
208,260,292156,2,0,B|204:224|204:224|193:237,1,53.9999983520508,8|0,0:0|0:0,0:0:0:0:
370,140,292391,2,0,B|374:176|374:176|385:163,1,53.9999983520508,0|0,0:0|0:0,0:0:0:0:
174,124,292625,6,2,B|112:128|112:128|77:148|77:148|6:152,1,161.999995056153,0|0,0:0|0:0,0:0:0:0:
110,47,293094,2,0,L|53:50,1,53.9999983520508,8|0,0:0|0:0,0:0:0:0:
191,206,293328,2,0,L|138:209,1,53.9999983520508,0|0,0:0|0:0,0:0:0:0:
379,274,293563,6,2,B|383:310|429:333|429:333|477:308|473:254,1,161.999995056153
273,282,294031,2,0,B|263:311|263:311|270:333,1,53.9999983520508,8|0,0:0|0:0,0:0:0:0:
329,181,294266,2,0,B|339:152|339:152|332:130,1,53.9999983520508
58,223,294500,6,2,B|180:224|180:224|132:262,1,161.999995056153
166,114,294969,2,0,P|152:87|151:55,1,53.9999983520508,8|0,0:0|0:0,0:0:0:0:
319,89,295203,2,0,P|328:59|325:29,1,53.9999983520508
257,177,295438,6,2,B|273:255|241:255|265:342,1,161.999995056153,0|0,0:0|0:0,0:0:0:0:
368,293,295906,2,0,L|482:292,1,107.999996704102,8|0,0:0|0:0,0:0:0:0:
161,221,296375,6,2,L|-7:220,1,161.999995056153,0|0,0:0|0:0,0:0:0:0:
73,323,296844,2,0,L|185:317,1,107.999996704102,8|0,0:0|0:0,0:0:0:0:
333,201,297313,6,2,L|495:209,1,161.999995056153
494,208,297781,5,8,0:0:0:0:
286,82,298016,2,0,L|246:92,1,26.9999991760254
226,97,298133,2,0,L|195:104,1,26.9999991760254
166,112,298250,6,2,L|353:103,1,161.999995056153
55,81,298719,2,0,P|35:56|19:20,1,53.9999983520508,8|0,0:0|0:0,0:0:0:0:
111,200,298953,2,0,P|99:214|88:255,1,53.9999983520508
377,194,299188,6,2,B|312:185|312:185|205:207,1,161.999995056153
345,309,299656,2,2,B|391:303|391:303|413:308|413:308|511:294,1,161.999995056153,10|2,0:0|0:0,0:0:0:0:
192,342,300125,6,2,L|12:328,1,161.999995056153,0|0,0:0|0:0,0:0:0:0:
263,281,300594,2,2,L|448:298,1,161.999995056153,10|2,0:0|0:0,0:0:0:0:
218,211,301063,6,2,B|228:276|228:276|215:316|215:316|222:372,1,161.999995056153
136,225,301531,2,0,L|127:166,1,53.9999983520508,8|0,0:0|0:0,0:0:0:0:
307,224,301766,2,0,L|297:162,1,53.9999983520508
230,5,302000,6,2,P|228:101|180:112,1,161.999995056153
368,20,302469,2,0,L|374:73,1,53.9999983520508,8|0,0:0|0:0,0:0:0:0:
333,205,302703,2,0,L|339:258,1,53.9999983520508
450,95,302938,6,2,P|388:138|413:210,1,161.999995056153
483,239,303406,2,0,B|508:277|508:277|492:340,1,107.999996704102,8|0,0:0|0:0,0:0:0:0:
61,336,303875,6,2,P|142:265|176:302,1,161.999995056153,0|0,0:0|0:0,0:0:0:0:
228,328,304344,2,0,B|270:357|270:357|290:296,1,107.999996704102,8|0,0:0|0:0,0:0:0:0:
102,129,304813,5,2,0:0:0:0:
104,139,304930,1,2,0:0:0:0:
155,114,305047,5,2,0:0:0:0:
153,130,305164,1,2,0:0:0:0:
211,122,305281,5,2,0:0:0:0:
205,142,305398,1,2,0:0:0:0:
259,153,305516,5,2,0:0:0:0:
239,172,305633,1,2,0:0:0:0:
162,224,305750,5,2,0:0:0:0:
162,238,305828,1,2,0:0:0:0:
167,251,305906,1,2,0:0:0:0:
177,261,305984,1,2,0:0:0:0:
190,266,306063,1,2,0:0:0:0:
204,267,306141,1,2,0:0:0:0:
217,263,306219,6,0,L|233:330,1,53.9999983520508,8|0,0:0|0:0,0:0:0:0:
319,206,306453,2,0,L|336:275,1,53.9999983520508
111,188,306688,6,0,L|3:184,1,107.999996704102
241,124,307156,2,0,L|240:65,1,53.9999983520508,8|0,0:0|0:0,0:0:0:0:
125,17,307391,1,0,0:0:0:0:
401,132,307625,6,0,L|527:124,1,107.999996704102
308,342,308094,2,0,L|307:284,1,53.9999983520508,8|0,0:0|0:0,0:0:0:0:
426,239,308328,1,0,0:0:0:0:
163,311,308563,6,0,L|55:306,1,107.999996704102
262,232,309031,2,0,L|262:160,1,53.9999983520508,8|0,0:0|0:0,0:0:0:0:
156,121,309266,2,0,L|156:68,1,53.9999983520508
465,134,309500,6,0,P|409:146|353:121,1,107.999996704102
385,375,309969,2,0,B|409:371|409:371|435:375|435:375|462:369,1,62.9999980773926,8|0,0:0|0:0,0:0:0:0:
220,322,310203,2,0,B|196:318|196:318|169:322|169:322|143:316,1,62.9999980773926,0|0,0:0|0:0,0:0:0:0:
356,265,310438,6,0,P|366:215|352:158,1,107.999996704102
469,257,310906,2,0,L|485:312,1,53.9999983520508,8|0,0:0|0:0,0:0:0:0:
243,359,311141,2,0,L|257:303,1,53.9999983520508
157,154,311375,6,0,P|103:174|36:152,1,107.999996704102
243,68,311844,2,0,L|313:55,1,53.9999983520508,8|0,0:0|0:0,0:0:0:0:
304,237,312078,2,0,L|242:223,1,53.9999983520508
422,139,312313,2,0,B|452:186|452:186|421:238,1,107.999996704102
425,230,312781,5,8,0:0:0:0:
294,380,313016,1,0,0:0:0:0:
293,297,313133,2,0,L|293:243,1,53.9999983520508
118,82,313484,6,0,L|115:64,1,17.9999994506836
81,101,313602,2,0,L|78:83,1,17.9999994506836,0|0,0:0|0:0,0:0:0:0:
57,133,313719,2,0,P|49:156|52:200,1,53.9999983520508,8|0,0:0|0:0,0:0:0:0:
239,150,313953,2,0,P|212:143|186:149,1,53.9999983520508
152,256,314188,6,0,L|152:368,1,107.999996704102
288,288,314656,2,0,B|304:240|304:240|288:192|288:192|288:112,1,161.999995056153,8|0,0:0|0:0,0:0:0:0:
184,23,315125,6,0,L|184:148,1,107.999996704102
459,48,315594,2,0,P|393:25|315:76,1,161.999995056153,8|0,0:0|0:0,0:0:0:0:
409,227,316063,6,0,L|398:101,1,107.999996704102
460,312,316531,2,0,P|493:314|526:296,1,53.9999983520508,8|0,0:0|0:0,0:0:0:0:
309,230,316766,2,0,L|316:288,1,53.9999983520508
92,324,317000,6,0,P|150:318|202:331,1,107.999996704102
192,120,317469,1,8,0:0:0:0:
192,120,317703,2,0,L|193:173,1,53.9999983520508
317,13,317938,6,0,L|300:130,1,107.999996704102
83,152,318406,2,0,B|27:121|27:121|142:93,1,161.999995056153,8|0,0:0|0:0,0:0:0:0:
190,271,318875,2,0,L|205:377,1,107.999996704102
378,241,319344,2,0,B|441:216|441:216|342:184,1,161.999995056153,8|0,0:0|0:0,0:0:0:0:
95,179,319813,5,2,0:0:0:0:
137,185,319930,1,2,0:0:0:0:
175,156,320047,5,2,0:0:0:0:
221,169,320164,1,2,0:0:0:0:
259,135,320281,5,2,0:0:0:0:
309,153,320398,1,2,0:0:0:0:
343,112,320516,5,2,0:0:0:0:
389,139,320633,1,2,0:0:0:0:
423,93,320750,6,0,L|414:271,1,161.999995056153,8|0,0:3|0:0,0:0:0:0:
433,359,321219,6,2,P|458:312|378:303,1,135.000005149842,2|0,0:1|0:0,0:1:0:0:
76,354,321688,5,10,0:0:0:0:
131,60,322156,1,8,0:0:0:0:
199,327,322391,1,0,0:0:0:0:
168,99,322625,5,8,0:0:0:0:
154,151,322742,1,2,0:0:0:0:
192,189,322859,1,2,0:0:0:0:
171,239,322977,1,2,0:0:0:0:
212,273,323094,1,8,0:0:0:0:
130,59,323328,1,2,0:0:0:0:
200,326,323563,5,10,0:0:0:0:
200,326,323914,2,0,L|215:261,1,53.9999983520508,2|8,0:0|0:0,0:0:0:0:
427,228,324266,1,0,0:0:0:0:
236,119,324500,1,8,0:0:0:0:
372,332,324734,6,0,L|481:328,1,107.999996704102,8|8,0:3|0:0,0:1:0:0:
288,240,325203,1,0,0:0:0:0:
224,348,325438,5,8,0:0:0:0:
332,172,325789,1,0,0:0:0:0:
332,172,325906,1,8,0:0:0:0:
140,248,326141,1,0,0:0:0:0:
203,106,326375,5,8,0:0:0:0:
207,107,326492,1,2,0:0:0:0:
211,108,326609,1,2,0:0:0:0:
215,109,326727,1,2,0:0:0:0:
219,111,326844,1,10,0:0:0:0:
92,176,327078,1,2,0:0:0:0:
368,100,327313,5,10,0:0:0:0:
368,100,327664,2,0,L|364:32,1,53.9999983520508,2|8,0:0|0:0,0:0:0:0:
232,228,328016,1,0,0:0:0:0:
469,168,328250,1,8,0:0:0:0:
400,368,328484,2,0,L|267:366,1,107.999996704102,8|8,0:3|0:0,0:0:0:0:
495,285,328953,1,0,0:0:0:0:
367,242,329188,6,0,P|329:194|354:96,1,161.999995056153,8|0,0:0|0:0,0:0:0:0:
282,155,329656,2,0,P|209:171|166:156,1,107.999996704102,8|0,0:0|0:0,0:0:0:0:
69,314,330125,5,8,0:0:0:0:
129,269,330242,1,2,0:0:0:0:
204,269,330359,1,2,0:0:0:0:
265,313,330477,1,2,0:0:0:0:
303,377,330594,1,10,0:0:0:0:
173,379,330828,1,2,0:0:0:0:
378,284,331063,5,10,0:0:0:0:
378,284,331414,2,0,L|376:209,1,53.9999983520508,2|8,0:0|0:0,0:0:0:0:
203,148,331766,1,0,0:0:0:0:
95,215,332000,1,8,0:0:0:0:
321,186,332234,2,0,L|313:74,1,107.999996704102,0|8,0:0|0:0,0:0:0:0:
216,31,332703,1,0,0:0:0:0:
192,244,332938,6,0,L|189:351,1,107.999996704102,8|0,0:0|0:0,0:0:0:0:
71,52,333406,2,0,P|58:101|80:168,1,107.999996704102,8|0,0:0|0:0,0:0:0:0:
413,27,333875,5,8,0:0:0:0:
385,97,333992,1,2,0:0:0:0:
325,143,334109,1,2,0:0:0:0:
248,153,334227,1,2,0:0:0:0:
178,125,334344,1,10,0:0:0:0:
279,17,334578,1,2,0:0:0:0:
440,170,334813,6,0,L|448:281,1,107.999996704102,10|0,1:2|0:0,0:0:0:0:
265,249,335164,1,2,0:0:0:0:
265,249,335281,2,0,L|252:380,1,107.999996704102,10|2,1:2|0:0,0:0:0:0:
357,290,335633,1,2,0:0:0:0:
357,290,335750,1,2,1:2:0:0:
164,203,335984,2,0,P|138:173|130:130,1,80.9999975280763,2|0,0:0|0:0,0:0:0:0:
126,115,336219,2,0,L|124:98,14,13.4999995880127,0|0|0|0|2|0|0|0|2|0|2|2|2|2|2,0:0|0:0|0:0|0:0|0:0|0:0|0:0|0:0|0:0|0:0|0:0|0:0|0:0|0:0|0:0,0:0:0:0:
120,86,336688,6,0,L|272:105,1,144,4|0,1:2|0:0,0:0:0:0:
407,108,337039,1,0,0:0:0:0:
375,216,337156,2,0,L|300:225,1,72,8|0,1:2|0:0,0:0:0:0:
509,141,337391,6,0,L|514:188,1,33.7500012874604,0|0,0:0|0:0,0:0:0:0:
291,107,337625,6,0,L|302:36,1,72,2|10,1:2|0:0,0:0:0:0:
111,229,337859,2,0,L|26:221,1,72,2|10,0:0|0:0,0:0:0:0:
144,56,338094,2,0,L|155:132,1,72,2|0,1:2|0:0,0:0:0:0:
325,217,338328,2,0,L|400:209,1,72,10|0,0:0|0:0,0:0:0:0:
231,309,338563,6,0,P|207:289|230:182,1,144,2|0,1:2|0:0,0:0:0:0:
329,384,338914,2,0,P|390:354|407:272,1,144,10|0,0:0|0:0,0:0:0:0:
119,362,339266,2,0,P|81:353|47:358,1,72,2|0,1:2|0:0,0:0:0:0:
126,195,339500,2,0,L|141:266,1,72,0|0,1:0|0:0,0:0:0:0:
308,231,339734,2,0,P|350:163|300:135,1,144,0|0,0:0|1:0,0:0:0:0:
255,54,340086,1,0,0:0:0:0:
386,0,340203,2,0,P|373:34|377:82,1,72,2|0,0:0|0:0,0:0:0:0:
143,103,340438,6,0,L|2:72,1,144,0|0,1:0|0:0,0:0:0:0:
150,198,340789,1,8,0:0:0:0:
238,253,340906,6,0,L|308:234,1,72,0|0,1:0|0:0,0:0:0:0:
66,272,341141,2,0,L|85:343,1,72,8|0,0:0|0:0,0:0:0:0:
267,227,341375,6,0,L|329:190,1,72,2|10,1:2|0:0,0:0:0:0:
103,291,341610,2,0,L|139:354,1,72,2|10,0:0|0:0,0:0:0:0:
289,187,341844,6,0,L|340:135,1,72,2|0,1:2|0:0,0:0:0:0:
145,294,342079,2,0,L|196:345,1,72,10|0,0:0|0:0,0:0:0:0:
461,285,342313,6,0,P|393:278|300:298,1,144,2|0,1:2|0:0,0:0:0:0:
44,213,342664,2,0,P|105:224|197:212,1,144,10|0,0:0|0:0,0:0:0:0:
484,157,343016,2,0,P|417:148|313:156,2,144,2|0|2,1:2|1:0|0:0,0:0:0:0:
239,13,343719,1,0,1:0:0:0:
239,13,343836,2,0,P|222:61|253:155,1,144,2|0,0:0|0:0,0:0:0:0:
249,298,344188,6,0,P|233:264|299:283,1,144,0|0,1:0|0:0,0:0:0:0:
276,376,344539,1,0,0:0:0:0:
152,339,344656,2,0,L|79:325,1,72,8|0,1:2|0:0,0:0:0:0:
377,311,344891,6,0,L|384:279,1,33.7500012874604,0|0,0:0|0:0,0:0:0:0:
260,192,345125,5,2,1:2:0:0:
234,190,345242,1,10,0:0:0:0:
408,164,345359,5,2,0:0:0:0:
428,152,345477,1,10,0:0:0:0:
316,120,345594,6,0,P|264:72|302:22,1,144,2|10,1:2|0:0,0:0:0:0:
0,109,346063,6,0,P|80:115|100:180,1,144,2|0,1:2|0:0,0:0:0:0:
243,89,346414,1,10,0:0:0:0:
170,134,346531,2,0,P|110:177|114:254,2,144,0|2|0,1:0|0:0|1:0,0:0:0:0:
309,384,347234,6,0,P|338:344|312:252,1,144,2|0,0:0|1:0,0:0:0:0:
222,217,347703,1,2,0:0:0:0:
461,290,347938,2,0,P|471:221|512:136,1,144,0|2,1:0|0:0,0:0:0:0:
390,53,348406,1,0,1:0:0:0:
145,95,348641,2,0,P|217:123|278:95,1,144,2|2,0:0|1:2,0:0:0:0:
334,140,348992,1,10,0:0:0:0:
346,210,349109,1,2,0:0:0:0:
289,255,349227,1,10,0:0:0:0:
217,253,349344,6,0,P|217:294|239:335,1,72,2|0,1:2|0:0,0:0:0:0:
274,97,349578,2,0,P|315:64|356:57,1,72,10|0,0:0|0:0,0:0:0:0:
176,160,349813,2,0,P|108:172|16:152,1,144,2|2,1:2|0:0,0:0:0:0:
312,216,350164,1,2,0:0:0:0:
312,216,350281,2,0,L|306:58,1,144,0|2,1:0|0:0,0:0:0:0:
200,384,350750,2,0,P|227:320|192:260,1,144,2|2,1:0|0:0,0:0:0:0:
188,236,351043,2,0,L|184:196,3,36,0|2|2|2,0:0|0:0|0:0|0:0,0:0:0:0:
322,318,351688,6,0,L|428:321,1,90,0|0,1:0|0:0,0:0:0:0:
112,336,352156,2,0,L|21:334,1,90,0|0,1:0|0:0,0:0:0:0:
140,164,352625,2,0,L|136:74,1,90,0|0,1:0|0:0,0:0:0:0:
314,232,353094,6,0,B|327:220|327:220|340:225|340:225|350:204|350:204|369:210|369:210|398:152|362:114|310:116,1,188.999994232178,2|0,0:3|0:0,0:0:0:0:
292,89,353563,6,0,L|403:98,1,107.999996704102,0|0,1:0|0:0,0:0:0:0:
199,228,354031,2,0,L|91:240,1,107.999996704102,0|0,1:0|0:0,0:0:0:0:
358,295,354500,5,2,0:0:0:0:
343,335,354617,1,2,0:0:0:0:
239,344,354734,5,0,0:0:0:0:
250,368,354852,1,2,0:0:0:0:
144,344,354969,6,0,P|100:358|29:348,1,107.999996704102,2|0,0:0|0:0,0:0:0:0:
407,221,355438,2,0,P|504:222|532:234,1,107.999996704102,2|0,0:0|0:0,0:0:0:0:
310,182,355789,1,0,0:0:0:0:
391,127,355906,2,0,P|397:92|365:16,1,107.999996704102,2|0,0:0|0:0,0:0:0:0:
333,269,356375,5,0,0:0:0:0:
228,316,356609,1,2,0:0:0:0:
37,190,356844,5,0,0:0:0:0:
160,211,357078,1,2,0:0:0:0:
265,32,357313,6,0,P|276:84|258:134,1,107.999996704102,0|0,1:0|0:0,0:0:0:0:
288,234,357664,1,0,0:0:0:0:
288,234,357781,1,0,1:0:0:0:
446,129,358016,1,0,0:0:0:0:
425,273,358250,5,2,0:0:0:0:
399,320,358367,1,2,0:0:0:0:
346,309,358484,1,0,0:0:0:0:
301,339,358602,1,2,0:0:0:0:
255,310,358719,2,0,P|209:265|211:205,1,107.999996704102,2|0,0:0|0:0,0:0:0:0:
295,2,359188,2,0,L|283:120,1,107.999996704102,2|0,0:0|0:0,0:0:0:0:
399,69,359539,1,0,0:0:0:0:
399,69,359656,2,0,L|387:187,1,107.999996704102,2|0,0:0|0:0,0:0:0:0:
91,116,360125,5,0,0:0:0:0:
290,241,360359,1,2,0:0:0:0:
328,151,360594,5,0,0:0:0:0:
100,213,360828,1,2,0:0:0:0:
104,221,360945,1,2,0:0:0:0:
108,228,361063,6,0,P|92:272|99:335,1,107.999996704102,0|0,1:0|0:0,0:0:0:0:
289,384,361531,2,0,P|275:334|280:276,1,107.999996704102,0|0,1:0|0:0,0:0:0:0:
444,140,362000,5,2,0:0:0:0:
438,162,362117,1,2,0:0:0:0:
474,201,362234,5,0,0:0:0:0:
476,227,362352,1,2,0:0:0:0:
437,259,362469,6,0,P|431:306|468:368,1,107.999996704102,2|0,0:0|0:0,0:0:0:0:
112,256,362938,2,0,L|223:258,1,107.999996704102,2|0,0:0|0:0,0:0:0:0:
37,311,363289,1,0,0:0:0:0:
37,311,363406,2,0,L|23:192,1,107.999996704102,2|0,0:0|0:0,0:0:0:0:
156,45,363875,5,0,0:0:0:0:
132,149,364109,1,2,0:0:0:0:
290,337,364344,5,0,0:0:0:0:
267,232,364578,1,2,0:0:0:0:
424,121,364813,6,0,L|305:113,1,107.999996704102,0|0,1:0|0:0,0:0:0:0:
506,242,365281,2,0,L|394:231,1,107.999996704102,0|0,1:0|0:0,0:0:0:0:
290,288,365633,1,0,0:0:0:0:
211,228,365750,6,0,P|194:201|188:162,1,53.9999983520508,2|2,0:0|0:0,0:0:0:0:
200,340,365984,2,0,L|129:349,1,53.9999983520508,0|2,0:0|0:0,0:0:0:0:
368,348,366219,2,0,L|478:333,1,107.999996704102,2|0,0:0|0:0,0:0:0:0:
440,79,366688,2,0,P|418:112|445:189,1,107.999996704102,2|0,0:0|0:0,0:0:0:0:
232,53,367039,1,0,0:0:0:0:
232,53,367156,2,0,P|254:85|333:85,1,107.999996704102,2|0,0:0|0:0,0:0:0:0:
44,77,367625,5,2,0:0:0:0:
48,96,367742,1,2,0:0:0:0:
146,125,367859,5,2,0:0:0:0:
143,143,367977,1,2,0:0:0:0:
49,192,368094,5,2,0:0:0:0:
53,211,368211,1,2,0:0:0:0:
140,244,368328,5,2,0:0:0:0:
136,263,368445,1,2,0:0:0:0:
64,314,368563,6,0,P|61:371|113:376,1,107.999996704102,0|0,1:0|0:0,0:0:0:0:
448,314,369031,2,0,P|451:371|399:376,1,107.999996704102,0|0,1:0|0:0,0:0:0:0:
254,293,369500,5,2,0:0:0:0:
284,245,369617,1,2,0:0:0:0:
242,206,369734,1,0,0:0:0:0:
275,159,369852,1,2,0:0:0:0:
235,122,369969,2,0,L|109:128,1,107.999996704102,2|0,0:0|0:0,0:0:0:0:
320,197,370438,2,0,L|432:189,1,107.999996704102,2|0,0:0|0:0,0:0:0:0:
480,296,370789,1,0,0:0:0:0:
403,341,370906,2,0,L|284:333,1,107.999996704102,2|0,0:0|0:0,0:0:0:0:
48,240,371375,6,0,P|58:291|100:323,2,107.999996704102,2|2|0,0:0|0:0|0:0,0:0:0:0:
200,233,371961,2,0,P|193:285|154:321,1,107.999996704102,2|0,0:0|0:0,0:0:0:0:
73,190,372313,2,0,P|121:169|172:186,1,107.999996704102,0|0,1:0|0:0,0:0:0:0:
200,233,372664,1,0,0:0:0:0:
215,285,372781,2,0,P|238:303|331:282,1,107.999996704102,0|0,1:0|0:0,0:0:0:0:
439,121,373250,5,2,0:0:0:0:
403,81,373367,1,2,0:0:0:0:
354,105,373484,1,0,0:0:0:0:
360,158,373602,1,2,0:0:0:0:
412,169,373719,2,0,P|431:234|417:294,1,107.999996704102,2|0,0:0|0:0,0:0:0:0:
243,380,374188,2,0,P|260:281|242:254,1,107.999996704102,2|0,0:0|0:0,0:0:0:0:
100,169,374539,1,0,0:0:0:0:
100,169,374656,2,0,P|81:234|95:294,1,107.999996704102,2|0,0:0|0:0,0:0:0:0:
204,141,375125,5,0,0:0:0:0:
180,46,375359,1,2,0:0:0:0:
282,275,375594,5,0,0:0:0:0:
319,183,375828,1,2,0:0:0:0:
203,365,376063,6,0,P|154:326|163:273,1,107.999996704102,0|0,1:0|0:0,0:0:0:0:
279,17,376531,2,0,L|268:139,1,107.999996704102,0|0,1:0|0:0,0:0:0:0:
482,319,377000,5,2,0:0:0:0:
475,265,377117,1,2,0:0:0:0:
467,211,377234,1,0,0:0:0:0:
446,249,377352,1,2,0:0:0:0:
424,286,377469,2,0,P|361:300|340:260,1,107.999996704102,2|0,0:0|0:0,0:0:0:0:
97,199,377938,6,0,P|149:158|196:172,1,107.999996704102,2|0,0:0|0:0,0:0:0:0:
91,299,378289,1,0,0:0:0:0:
8,242,378406,2,0,L|-5:119,1,107.999996704102,2|0,0:0|0:0,0:0:0:0:
504,242,378875,6,0,L|517:119,2,107.999996704102,0|2|0,0:0|0:0|0:0,0:0:0:0:
325,165,379461,2,0,P|378:161|415:199,1,107.999996704102,2|0,0:0|0:0,0:0:0:0:
270,326,379813,2,0,P|287:281|354:270,1,107.999996704102,0|0,1:0|0:0,0:0:0:0:
195,15,380281,2,0,P|200:66|239:105,1,107.999996704102,0|0,1:0|0:0,0:0:0:0:
34,205,380750,5,2,0:0:0:0:
42,198,380867,1,2,0:0:0:0:
52,195,380984,1,0,0:0:0:0:
62,196,381102,1,2,0:0:0:0:
72,199,381219,2,0,P|139:217|193:208,1,107.999996704102,2|0,0:0|0:0,0:0:0:0:
440,185,381688,2,0,P|372:166|319:176,1,107.999996704102
256,312,382156,1,0,0:0:0:0:
256,88,382391,1,0,0:0:0:0:
80,144,382625,6,0,L|144:144,1,53.9999983520508,2|0,0:1|0:1,0:1:0:0:
377,144,382859,2,0,L|441:144,1,53.9999983520508,2|0,0:1|0:0,0:0:0:0:
384,272,383094,6,0,L|336:272,1,45,0|0,0:0|0:0,0:0:0:0:
176,272,383328,2,0,L|128:272,1,45,0|0,0:0|0:0,0:0:0:0:
289,175,383563,6,0,L|289:67,1,107.999996704102,2|0,0:0|0:0,0:0:0:0:
128,304,384031,1,8,0:0:0:0:
400,240,384266,6,0,L|400:128,1,99.0000030212403,2|0,0:0|0:0,0:0:0:0:
469,322,384734,1,2,0:0:0:0:
160,208,384969,6,0,L|160:112,1,90,8|2,0:0|0:0,0:0:0:0:
39,335,385438,1,0,0:0:0:0:
272,288,385672,6,0,L|272:208,1,80.9999975280763,2|8,0:0|0:0,0:0:0:0:
336,384,386141,1,2,0:0:0:0:
150,285,386375,1,0,0:0:0:0:
341,181,386609,1,2,0:0:0:0:
216,383,386844,6,0,P|191:366|175:332,1,53.9999983520508,8|0,0:0|0:0,0:0:0:0:
221,176,387078,2,0,P|254:166|275:167,1,53.9999983520508,2|0,0:0|0:0,0:0:0:0:
390,290,387313,5,2,0:0:0:0:
453,330,387547,1,0,0:0:0:0:
511,282,387781,1,8,0:0:0:0:
256,208,388016,5,2,0:0:0:0:
167,270,388250,1,4,0:0:0:0:
60,256,388484,1,2,0:0:0:0:
217,71,388719,5,8,0:0:0:0:
348,165,388953,1,2,0:0:0:0:
505,126,389188,5,0,0:0:0:0:
491,244,389422,2,0,L|497:281,2,26.9999991760254,2|2|0,0:0|0:0|0:0,0:0:0:0:
411,268,389656,2,0,P|369:287|303:274,1,107.999996704102,8|2,0:0|0:0,0:0:0:0:
204,288,390008,1,0,0:0:0:0:
204,288,390125,6,0,L|216:320,7,26.9999991760254,2|0|0|2|2|2|2|2,0:0|0:0|0:0|0:0|0:0|0:0|0:0|0:0,0:0:0:0:
134,240,390594,2,0,L|128:276,7,26.9999991760254,8|2|2|2|2|0|0|2,0:0|0:0|0:0|0:0|0:0|0:0|0:0|0:0,0:0:0:0:
212,208,391063,6,0,P|214:146|192:92,1,107.999996704102,6|0,0:0|0:0,0:0:0:0:
171,72,391414,1,0,0:0:0:0:
171,72,391531,1,8,0:0:0:0:
138,326,391766,1,2,0:0:0:0:
337,205,392000,2,0,P|355:155|396:109,1,107.999996704102,0|2,0:0|0:0,0:0:0:0:
87,148,392469,2,0,P|65:99|62:37,1,107.999996704102,8|2,0:0|0:0,0:0:0:0:
200,273,392938,5,0,0:0:0:0:
52,334,393172,2,0,L|-4:323,2,53.9999983520508,2|0|8,0:0|0:0|0:0,0:0:0:0:
108,248,393641,1,2,0:0:0:0:
258,336,393875,2,0,P|331:317|386:326,1,107.999996704102,0|2,0:0|0:0,0:0:0:0:
192,384,394344,1,8,0:0:0:0:
441,350,394578,1,2,0:0:0:0:
286,156,394813,5,2,0:0:0:0:
113,225,395047,1,0,0:0:0:0:
95,197,395164,1,0,0:0:0:0:
94,164,395281,1,8,0:0:0:0:
228,255,395516,2,0,P|229:300|245:367,1,107.999996704102,2|0,0:0|0:0,0:0:0:0:
311,164,395984,1,2,0:0:0:0:
184,123,396219,2,0,P|197:62|198:-3,1,107.999996704102,8|2,0:0|0:0,0:0:0:0:
91,226,396688,5,0,0:0:0:0:
268,263,396922,1,2,0:0:0:0:
307,246,397039,1,0,0:0:0:0:
327,207,397156,1,8,0:0:0:0:
250,384,397391,1,2,0:0:0:0:
356,339,397625,2,0,B|417:339|437:308|437:308|390:277|373:319,1,161.999995056153,4|2,0:0|0:0,0:0:0:0:
167,337,398094,2,0,B|59:342,1,107.999996704102,8|0,0:0|0:0,0:0:0:0:
158,230,398445,1,0,0:0:0:0:
250,266,398563,6,0,P|301:289|287:229,1,135.000005149842,2|0,0:1|0:0,0:0:0:0:
134,139,398914,1,0,0:0:0:0:
75,196,399031,6,2,L|72:288,1,90,8|0,0:0|0:0,0:0:0:0:
459,299,399500,1,0,0:0:0:0:
362,192,399734,1,0,0:0:0:0:
316,328,399969,1,8,0:0:0:0:
316,328,400438,6,0,L|218:331,1,90,2|0,0:0|0:0,0:0:0:0:
339,259,400789,1,0,0:0:0:0:
270,231,400906,2,0,L|172:234,1,90,8|0,0:0|0:0,0:0:0:0:
355,44,401375,1,0,0:0:0:0:
484,13,401609,1,0,0:0:0:0:
450,137,401844,1,8,0:0:0:0:
450,137,402313,6,0,L|449:237,1,90,2|0,0:0|0:0,0:0:0:0:
377,115,402664,1,0,0:0:0:0:
319,168,402781,2,0,L|212:158,1,90,8|0,0:0|0:0,0:0:0:0:
36,326,403250,1,0,0:0:0:0:
138,360,403484,1,0,0:0:0:0:
117,253,403719,1,8,0:0:0:0:
453,339,404188,5,2,0:0:0:0:
346,366,404422,2,0,L|354:327,2,22.5,2|2|0,0:0|0:0|0:0,0:0:0:0:
354,316,404656,2,0,L|254:320,1,90,8|0,0:0|0:0,0:0:0:0:
170,240,405008,1,0,0:0:0:0:
170,240,405125,6,0,L|202:254,7,22.5,2|0|0|2|2|2|2|2,0:0|0:0|0:0|0:0|0:0|0:0|0:0|0:0,0:0:0:0:
274,217,405594,2,0,L|305:204,7,22.5,8|2|2|2|2|0|0|2,0:0|0:0|0:0|0:0|0:0|0:0|0:0|0:0,0:0:0:0:
379,232,406063,6,0,L|475:236,1,90,2|0,0:0|0:0,0:0:0:0:
260,118,406414,1,0,0:0:0:0:
260,118,406531,2,0,L|368:122,1,90,8|0,0:0|0:0,0:0:0:0:
57,208,407000,1,0,0:0:0:0:
181,225,407234,1,0,0:0:0:0:
130,109,407469,1,8,0:0:0:0:
308,365,407938,6,0,P|300:319|321:270,1,90,2|0,0:0|0:0,0:0:0:0:
348,244,408289,1,2,0:0:0:0:
348,244,408406,1,8,0:0:0:0:
400,330,408875,1,0,0:0:0:0:
241,250,409109,1,0,0:0:0:0:
392,156,409344,2,0,P|401:86|355:52,1,135,8|2,0:0|0:0,0:0:0:0:
203,139,409813,6,0,P|172:157|105:136,1,90,2|0,0:0|0:0,0:0:0:0:
224,102,410164,1,0,0:0:0:0:
240,141,410281,2,0,P|270:160|323:152,1,90,8|0,0:0|0:0,0:0:0:0:
203,347,410750,1,0,0:0:0:0:
203,347,410984,1,0,0:0:0:0:
203,347,411219,1,8,0:0:0:0:
387,260,411688,6,0,P|371:215|374:166,1,90,2|0,0:0|0:0,0:0:0:0:
476,334,412039,1,0,0:0:0:0:
476,334,412156,2,0,P|487:274|483:238,1,90,8|0,0:0|0:0,0:0:0:0:
497,88,412625,1,0,0:0:0:0:
512,101,412859,6,0,B|452:101|452:101|420:109|420:109|342:109,1,161.999995056153,0|4,0:0|0:0,0:0:0:0:
