osu file format v14

[General]
AudioFilename: invulnerable.mp3
AudioLeadIn: 0
PreviewTime: 168478
Countdown: 0
SampleSet: Soft
StackLeniency: 0.3
Mode: 0
LetterboxInBreaks: 1
WidescreenStoryboard: 0

[Editor]
Bookmarks: 31349,79349,86206
DistanceSpacing: 0.7
BeatDivisor: 4
GridSize: 4
TimelineZoom: 1.1

[Metadata]
Title:invulnerable
TitleUnicode:invulnerable
Artist:Taishi
ArtistUnicode:Taishi
Creator:Asonate
Version:River of Spirits
Source:
Tags:Syrufit Blossom touhou dubstep chill wub
BeatmapID:897676
BeatmapSetID:414039

[Difficulty]
HPDrainRate:5
CircleSize:4
OverallDifficulty:8
ApproachRate:9
SliderMultiplier:1.5
SliderTickRate:1

[Events]
//Background and Video events
0,0,"BG.jpg",0,0
//Break Periods
//Storyboard Layer 0 (Background)
//Storyboard Layer 1 (Fail)
//Storyboard Layer 2 (Pass)
//Storyboard Layer 3 (Foreground)
//Storyboard Sound Samples

[TimingPoints]
478,428.571428571429,4,2,0,50,1,0

[Colours]
Combo1 : 0,128,192
Combo2 : 192,192,192
Combo3 : 128,128,128
Combo4 : 255,0,0

[HitObjects]
256,192,478,12,4,3478,0:0:0:0:
200,196,3907,5,4,0:0:0:0:
168,128,4121,2,0,L|116:104,2,37.5
200,196,4549,1,0,0:0:0:0:
232,264,4764,2,0,P|252:296|312:312,2,75,8|0|0,0:0|0:0|0:0,0:0:0:0:
304,240,5407,1,0,0:0:0:0:
376,220,5621,2,0,P|416:228|452:264,2,75
384,296,6264,1,0,0:0:0:0:
368,144,6478,6,0,L|206:122,1,150,2|0,0:0|0:0,0:0:0:0:
100,224,7121,1,0,0:0:0:0:
92,228,7335,38,0,L|254:250,1,150,2|0,0:0|0:0,0:0:0:0:
308,196,7978,1,0,0:0:0:0:
368,144,8192,1,8,0:0:0:0:
292,116,8407,1,0,0:0:0:0:
284,112,8621,1,0,0:0:0:0:
276,108,8835,1,0,0:0:0:0:
268,104,9049,2,0,L|176:144,1,75
176,60,9478,2,0,L|84:100,1,75
52,232,9907,6,0,L|180:272,1,112.5,2|0,0:0|0:0,0:0:0:0:
196,276,10335,1,4,0:0:0:0:
296,164,10549,1,0,0:0:0:0:
267,335,10764,38,0,B|262:357|254:369|254:369|207:339|191:255,1,150,4|0,0:0|0:0,0:0:0:0:
244,216,11407,1,0,0:0:0:0:
240,212,11514,1,0,0:0:0:0:
236,208,11621,2,0,P|188:192|152:212,1,75,8|0,0:0|0:0,0:0:0:0:
288,272,12049,6,0,P|316:224|272:136,1,150
288,140,12585,1,0,0:0:0:0:
292,136,12692,1,0,0:0:0:0:
296,132,12799,1,0,0:0:0:0:
300,128,12907,1,0,0:0:0:0:
224,100,13121,1,0,0:0:0:0:
152,76,13335,1,4,0:0:0:0:
148,68,14192,38,0,L|300:120,1,150,8|0,0:0|0:0,0:0:0:0:
304,192,14835,1,0,0:0:0:0:
300,196,14942,1,0,0:0:0:0:
296,200,15049,2,0,P|248:224|200:216,1,75,8|0,0:0|0:0,0:0:0:0:
156,200,15478,1,0,0:0:0:0:
88,168,15692,1,0,0:0:0:0:
88,160,15799,1,0,0:0:0:0:
88,152,15907,2,0,P|96:112|132:76,1,75
188,60,16335,5,0,0:0:0:0:
196,64,16549,1,0,0:0:0:0:
204,68,16764,1,0,0:0:0:0:
212,72,16978,1,0,0:0:0:0:
220,76,17192,2,0,L|328:36,1,112.5,4|0,0:0|0:0,0:0:0:0:
360,52,17621,37,4,0:0:0:0:
352,128,17835,1,0,0:0:0:0:
344,204,18049,1,0,0:0:0:0:
340,208,18157,1,0,0:0:0:0:
336,212,18264,2,0,L|272:236,1,37.5
352,128,18478,2,0,P|408:160|404:248,1,150,8|0,0:0|0:0,0:0:0:0:
440,308,19121,1,0,0:0:0:0:
364,300,19335,6,0,L|224:280,1,112.5,4|0,0:0|0:0,0:0:0:0:
224,260,19764,2,0,L|193:218,1,37.5,8|0,0:0|0:0,0:0:0:0:
272,200,19978,2,0,L|241:158,1,37.5
316,132,20192,2,0,B|276:80|276:80|296:32|296:32|328:68|328:68,1,150,8|0,0:0|0:0,0:0:0:0:
320,56,20728,1,0,0:0:0:0:
324,56,20835,1,0,0:0:0:0:
328,56,20942,1,0,0:0:0:0:
332,56,21049,37,4,0:0:0:0:
392,104,21264,1,0,0:0:0:0:
452,156,21478,1,0,0:0:0:0:
452,160,21585,1,0,0:0:0:0:
452,164,21692,1,0,0:0:0:0:
452,168,21799,1,0,0:0:0:0:
452,172,21907,2,0,B|420:196|420:196|396:192|396:192|368:212,1,75,8|0,0:0|0:0,0:0:0:0:
324,240,22335,1,0,0:0:0:0:
256,276,22549,1,0,0:0:0:0:
188,312,22764,6,0,P|156:272|160:184,1,112.5,8|0,0:0|0:0,0:0:0:0:
160,176,23192,2,0,L|208:160,1,37.5
196,88,23407,2,0,L|244:72,1,37.5
156,184,23621,2,0,L|304:132,1,150,8|0,0:0|0:0,0:0:0:0:
368,160,24264,1,0,0:0:0:0:
440,188,24478,37,0,0:0:0:0:
380,236,24692,1,0,0:0:0:0:
316,280,24907,1,0,0:0:0:0:
312,276,25014,1,0,0:0:0:0:
308,272,25121,1,0,0:0:0:0:
304,268,25228,1,0,0:0:0:0:
300,264,25335,2,0,L|219:328,1,75,8|0,0:0|0:0,0:0:0:0:
116,228,25764,2,0,L|196:164,1,75
296,260,26192,6,0,L|226:319,1,75,4|0,0:0|0:0,0:0:0:0:
112,224,26621,1,0,0:0:0:0:
108,220,26728,1,0,0:0:0:0:
104,216,26835,1,0,0:0:0:0:
100,212,26942,1,0,0:0:0:0:
104,212,27049,2,0,B|72:176|72:176|88:116|88:116|128:160,1,150,8|0,0:0|0:0,0:0:0:0:
224,248,27907,37,4,0:0:0:0:
364,296,28335,1,0,0:0:0:0:
368,292,28442,1,0,0:0:0:0:
372,288,28549,2,0,L|364:236,1,37.5
292,276,28764,2,0,P|300:332|392:364,1,150,8|0,0:0|0:0,0:0:0:0:
444,328,29407,5,0,0:0:0:0:
448,324,29514,1,0,0:0:0:0:
452,320,29621,2,0,L|480:292,1,37.5,8|0,0:0|0:0,0:0:0:0:
456,220,29835,1,0,0:0:0:0:
460,220,29942,1,0,0:0:0:0:
464,220,30049,2,0,L|516:220,1,37.5,8|0,0:0|0:0,0:0:0:0:
512,144,30264,2,0,L|462:144,1,37.5
400,128,30478,2,0,B|364:116|364:116|320:128,1,75
252,160,30906,2,0,B|216:172|216:172|172:160,1,75
104,144,31335,37,4,0:0:0:0:
124,216,31549,1,0,0:0:0:0:
144,288,31764,1,0,0:0:0:0:
156,292,31871,1,0,0:0:0:0:
168,296,31978,1,0,0:0:0:0:
180,300,32085,1,0,0:0:0:0:
192,304,32192,1,8,0:0:0:0:
204,308,32621,5,0,0:0:0:0:
184,236,32835,1,0,0:0:0:0:
216,312,33049,1,0,0:0:0:0:
196,232,33264,1,0,0:0:0:0:
124,172,33478,2,0,L|154:136,1,37.5
208,228,33692,2,0,L|252:212,1,37.5
240,320,33907,2,0,L|328:344,1,75
300,264,34335,2,0,L|388:288,1,75
360,208,34764,37,4,0:0:0:0:
284,188,34978,1,0,0:0:0:0:
208,168,35192,1,0,0:0:0:0:
204,156,35299,1,0,0:0:0:0:
200,144,35407,1,0,0:0:0:0:
196,132,35514,1,0,0:0:0:0:
192,120,35621,1,8,0:0:0:0:
188,108,36049,5,0,0:0:0:0:
112,120,36264,1,0,0:0:0:0:
184,96,36478,2,0,B|232:84|272:92|272:92|256:64,1,112.5
272,60,36906,2,0,L|292:100,1,37.5,8|0,0:0|0:0,0:0:0:0:
344,44,37121,1,0,0:0:0:0:
355,41,37228,1,0,0:0:0:0:
366,39,37335,2,0,L|439:72,1,75
468,140,37764,1,0,0:0:0:0:
424,200,37978,1,0,0:0:0:0:
400,56,38192,37,4,0:0:0:0:
391,129,38406,1,0,0:0:0:0:
306,36,38621,1,0,0:0:0:0:
311,46,38728,1,0,0:0:0:0:
315,56,38835,1,0,0:0:0:0:
320,66,38942,1,0,0:0:0:0:
324,77,39049,1,8,0:0:0:0:
330,87,39478,5,0,0:0:0:0:
264,124,39692,1,0,0:0:0:0:
216,184,39906,1,0,0:0:0:0:
188,112,40121,1,0,0:0:0:0:
272,131,40335,1,0,0:0:0:0:
279,140,40442,1,0,0:0:0:0:
285,149,40549,1,0,0:0:0:0:
289,160,40656,1,0,0:0:0:0:
292,170,40763,1,8,0:0:0:0:
268,240,40978,1,0,0:0:0:0:
216,184,41192,1,0,0:0:0:0:
196,256,41406,1,0,0:0:0:0:
140,204,41620,37,4,0:0:0:0:
144,104,41835,1,0,0:0:0:0:
236,68,42049,1,0,0:0:0:0:
248,72,42156,1,0,0:0:0:0:
260,76,42263,1,0,0:0:0:0:
272,80,42370,1,0,0:0:0:0:
284,84,42478,1,8,0:0:0:0:
296,88,42906,5,0,0:0:0:0:
256,164,43120,1,0,0:0:0:0:
308,92,43335,2,0,L|324:76,4,18.75
244,164,43763,1,0,0:0:0:0:
236,172,43870,1,0,0:0:0:0:
228,180,43978,1,0,0:0:0:0:
220,188,44085,1,0,0:0:0:0:
212,196,44192,2,0,L|144:264,1,75,8|0,0:0|0:0,0:0:0:0:
232,352,44620,1,0,0:0:0:0:
232,276,44835,1,0,0:0:0:0:
164,316,45049,37,4,0:0:0:0:
240,344,45263,1,0,0:0:0:0:
221,271,45478,1,0,0:0:0:0:
218,260,45585,1,0,0:0:0:0:
215,249,45692,1,0,0:0:0:0:
212,238,45799,1,0,0:0:0:0:
209,227,45906,1,8,0:0:0:0:
206,215,46335,5,0,0:0:0:0:
300,192,46549,1,0,0:0:0:0:
204,204,46763,2,0,L|168:204,4,18.75
304,204,47192,1,0,0:0:0:0:
308,216,47299,1,0,0:0:0:0:
312,228,47406,2,0,L|344:268,1,37.5
392,312,47620,2,0,P|412:268|408:228,1,75,8|0,0:0|0:0,0:0:0:0:
320,332,48049,2,0,P|348:376|372:384,1,75
392,312,48478,37,4,0:0:0:0:
444,368,48692,1,0,0:0:0:0:
388,300,48906,1,0,0:0:0:0:
384,288,49013,1,0,0:0:0:0:
380,276,49120,1,0,0:0:0:0:
376,264,49228,1,0,0:0:0:0:
372,252,49335,1,0,0:0:0:0:
368,240,49763,5,0,0:0:0:0:
416,152,49978,1,0,0:0:0:0:
368,64,50192,2,0,L|356:40,4,18.75
364,228,50620,1,4,0:0:0:0:
360,216,51049,1,8,0:0:0:0:
264,200,51263,1,0,0:0:0:0:
356,204,51478,1,0,0:0:0:0:
240,216,51692,1,0,0:0:0:0:
352,192,51906,38,0,L|328:112,1,75,4|0,0:0|0:0,0:0:0:0:
400,84,52335,1,0,0:0:0:0:
393,74,52442,1,0,0:0:0:0:
386,65,52549,1,0,0:0:0:0:
378,58,52656,1,0,0:0:0:0:
368,52,52763,1,8,0:0:0:0:
