osu file format v13

[General]
AudioFilename: World Heroes.mp3
AudioLeadIn: 0
PreviewTime: 234802
Countdown: 0
SampleSet: Soft
StackLeniency: 0.7
Mode: 0
LetterboxInBreaks: 0
WidescreenStoryboard: 0

[Editor]
Bookmarks: 23893,40257,54802,59688,69348,83893,98438,114802,131166,145711,160257,174802,189348,205711,222075,236620,252984,267529,283893,298438,312984
DistanceSpacing: 2
BeatDivisor: 4
GridSize: 4
TimelineZoom: 3.499999

[Metadata]
Title:World Heroes
TitleUnicode:World Heroes
Artist:Taishi
ArtistUnicode:Taishi
Creator:Cherry Blossom
Version:Hentai mapper CB
Source:
Tags:electro.muster electro muster cosmic record Ongaku shoujo Haru Chitose Eri Kumagai Manami Numakura Asami Seto
BeatmapID:538606
BeatmapSetID:231864

[Difficulty]
HPDrainRate:7
CircleSize:4
OverallDifficulty:8
ApproachRate:9
SliderMultiplier:2.39999990463257
SliderTickRate:1

[Events]
//Background and Video events
0,0,"bgh.jpg",0,0
//Break Periods
//Storyboard Layer 0 (Background)
//Storyboard Layer 1 (Fail)
//Storyboard Layer 2 (Pass)
//Storyboard Layer 3 (Foreground)
//Storyboard Sound Samples
//Background Colour Transformations
3,100,163,162,255

[TimingPoints]
9348,454.545454545455,4,2,0,50,1,0
9348,-200,4,2,0,50,0,0
22984,-100,4,2,0,50,0,0
23438,-66.6666666666667,4,2,0,50,0,0
23893,-100,4,2,0,60,0,0
30484,-100,4,2,1,50,0,0
30711,-66.6666666666667,4,2,0,50,0,0
31166,-100,4,2,1,60,0,0
38438,-57.1428571428571,4,2,0,60,0,0
39348,-133.333333333333,4,2,0,60,0,0
39802,-66.6666666666667,4,2,0,60,0,0
40257,-100,4,2,1,60,0,0
54348,-66.6666666666667,4,2,1,60,0,0
54802,-100,4,2,1,60,0,0
69348,-80,4,2,1,60,0,0
81166,-100,4,2,1,60,0,0
82075,-66.6666666666667,4,2,0,50,0,0
82757,-57.1428571428571,4,2,1,50,0,0
82984,-100,4,2,0,50,0,0
83893,-80,4,2,1,70,0,1
129348,-80,4,2,0,50,0,0

[Colours]
Combo1 : 253,26,83
Combo2 : 19,225,122
Combo3 : 6,128,200
Combo4 : 230,165,15

[HitObjects]
64,72,9348,6,0,L|148:68,1,59.9999976158143
208,160,9688,2,0,L|136:164,1,59.9999976158143
448,72,10257,1,0,0:0:0:0:
448,72,10711,2,0,P|452:100|448:132,1,59.9999976158143
256,276,11166,6,0,L|168:272,1,59.9999976158143
280,360,11507,2,0,L|348:356,1,59.9999976158143
64,72,12075,1,0,0:0:0:0:
64,72,12529,2,0,L|132:68,1,59.9999976158143
364,60,12984,6,0,L|360:128,1,59.9999976158143
464,184,13325,2,0,L|467:124,1,59.9999976158143
48,184,13893,1,0,0:0:0:0:
48,184,14348,2,0,P|76:180|112:184,1,59.9999976158143
284,348,14802,6,0,P|256:352|220:348,1,59.9999976158143
304,256,15143,2,0,L|376:252,2,59.9999976158143,0|0|0,0:0|0:0|0:0,0:0:0:0:
256,152,15711,2,0,L|392:144,1,119.999995231629
164,28,16393,1,0,0:0:0:0:
68,248,16620,6,0,L|72:320,1,59.9999976158143
184,264,16961,2,0,L|180:204,2,59.9999976158143,0|0|0,0:0|0:0|0:0,0:0:0:0:
256,360,17529,2,0,L|376:352,1,119.999995231629
512,152,18211,1,0,0:0:0:0:
312,24,18438,6,0,L|316:108,1,59.9999976158143
196,80,18779,2,0,L|198:20,2,59.9999976158143,0|0|0,0:0|0:0|0:0,0:0:0:0:
256,204,19348,2,0,P|312:220|372:204,1,119.999995231629
200,20,20029,1,0,0:0:0:0:
88,252,20257,6,0,L|24:248,1,59.9999976158143,0|0,0:0|0:0,0:0:0:0:
104,156,20598,2,0,L|172:152,2,59.9999976158143,0|0|0,0:0|0:0|0:0,0:0:0:0:
64,44,21166,2,0,L|204:36,1,119.999995231629,0|0,0:0|0:0,0:0:0:0:
424,32,21848,1,0,0:0:0:0:
308,244,22075,1,0,0:0:0:0:
304,112,22302,1,0,0:0:0:0:
304,112,22416,1,0,0:0:0:0:
436,312,22643,1,0,0:0:0:0:
196,324,22870,1,0,0:0:0:0:
196,324,22984,6,0,P|132:296|200:252,1,179.999992847443
316,324,23438,6,0,P|413:281|313:251,1,269.999999570847,12|0,0:0|0:0,0:0:0:0:
56,356,23893,6,0,L|48:224,1,119.999995231629,4|0,0:0|0:0,0:0:0:0:
200,40,24234,2,0,L|207:159,1,119.999995231629,2|2,0:0|0:0,0:0:0:0:
256,352,24688,1,0,0:0:0:0:
204,244,24802,2,0,P|148:232|44:296,1,179.999992847443,2|0,0:0|0:0,0:0:0:0:
256,352,25257,2,0,P|312:364|368:340,1,119.999995231629,2|2,0:0|0:0,0:0:0:0:
416,52,25711,6,0,L|272:40,1,119.999995231629,2|0,0:0|0:0,0:0:0:0:
352,164,26052,2,0,L|484:176,1,119.999995231629,2|2,0:0|0:0,0:0:0:0:
96,52,26507,1,0,0:0:0:0:
160,164,26620,2,0,L|92:160,1,59.9999976158143,2|0,0:0|0:0,0:0:0:0:
28,256,26848,1,0,0:0:0:0:
28,256,26961,1,0,0:0:0:0:
108,348,27075,2,0,L|176:344,1,59.9999976158143,2|0,0:0|0:0,0:0:0:0:
256,264,27302,2,0,L|324:260,1,59.9999976158143,2|0,0:0|0:0,0:0:0:0:
100,168,27529,6,0,L|264:156,1,119.999995231629,2|0,0:0|0:0,0:0:0:0:
428,40,27870,2,0,P|372:28|344:84,1,119.999995231629,2|2,0:0|0:0,0:0:0:0:
376,348,28325,1,0,0:0:0:0:
316,244,28438,2,0,P|396:228|480:288,1,179.999992847443,2|0,0:0|0:0,0:0:0:0:
136,348,28893,2,0,L|60:344,1,59.9999976158143,2|0,0:0|0:0,0:0:0:0:
136,124,29120,2,0,L|212:120,1,59.9999976158143,2|0,0:0|0:0,0:0:0:0:
316,244,29348,6,0,L|188:248,1,119.999995231629,2|0,0:0|0:0,0:0:0:0:
396,188,29688,2,0,P|412:248|396:304,1,119.999995231629,2|2,0:0|0:0,0:0:0:0:
68,144,30143,1,0,0:0:0:0:
68,144,30257,2,0,L|64:72,1,59.9999976158143,2|0,0:0|0:0,0:0:0:0:
176,40,30484,2,0,L|179:99,1,59.9999976158143,8|0,0:0|0:0,0:0:0:0:
196,324,30711,6,0,P|99:281|199:251,1,269.999999570847,12|0,0:0|0:0,0:0:0:0:
344,356,31166,6,0,L|468:348,1,119.999995231629,0|0,1:0|0:0,0:0:0:0:
340,192,31507,1,0,0:0:0:0:
296,272,31620,2,0,L|172:264,1,119.999995231629,8|0,0:0|0:0,0:0:0:0:
296,112,31961,1,0,0:0:0:0:
340,192,32074,2,0,L|464:184,1,119.999995231629,0|0,1:0|0:0,0:0:0:0:
340,32,32416,1,0,0:0:0:0:
296,112,32529,2,0,L|208:108,1,59.9999976158143,8|0,0:0|0:0,0:0:0:0:
136,216,32757,2,0,L|224:212,1,59.9999976158143
32,104,32984,6,0,L|36:232,1,119.999995231629,0|0,1:0|0:0,0:0:0:0:
148,356,33325,1,0,0:0:0:0:
148,356,33438,2,0,L|151:236,1,119.999995231629,8|0,0:0|0:0,0:0:0:0:
256,68,33779,1,0,0:0:0:0:
256,68,33893,2,0,L|256:208,1,119.999995231629,0|0,1:0|0:0,0:0:0:0:
364,356,34234,1,0,0:0:0:0:
364,356,34348,2,0,L|360:256,1,59.9999976158143,8|0,0:0|0:0,0:0:0:0:
480,164,34575,2,0,L|477:223,1,59.9999976158143
256,348,34802,6,0,L|136:336,1,119.999995231629,0|0,1:0|0:0,0:0:0:0:
320,252,35143,1,0,0:0:0:0:
320,252,35257,2,0,L|440:240,1,119.999995231629,8|0,0:0|0:0,0:0:0:0:
176,208,35598,1,0,0:0:0:0:
176,208,35711,2,0,L|56:196,1,119.999995231629,0|0,1:0|0:0,0:0:0:0:
360,136,36052,1,0,0:0:0:0:
360,136,36166,2,0,L|444:128,1,59.9999976158143,8|0,0:0|0:0,0:0:0:0:
104,96,36393,2,0,L|20:88,1,59.9999976158143
256,24,36620,6,0,L|256:168,1,119.999995231629,0|0,1:0|0:0,0:0:0:0:
196,304,36961,1,0,0:0:0:0:
196,304,37075,2,0,P|128:324|60:228,1,179.999992847443,8|0,0:0|0:0,0:0:0:0:
316,304,37529,2,0,P|384:324|452:228,1,179.999992847443,0|0,1:0|0:0,0:0:0:0:
468,132,37984,2,0,L|328:120,1,119.999995231629,8|0,0:0|0:0,0:0:0:0:
44,252,38438,6,0,B|64:256|64:256|84:248|84:248|116:256|116:256|152:236|152:236|196:240,2,139.999995772044,2|2|2,0:0|0:0|0:0,0:0:0:0:
240,152,38893,2,0,P|284:236|224:332,1,209.999993658066,2|2,0:0|0:0,0:0:0:0:
136,64,39348,6,0,B|204:80|204:44|268:60,1,134.999999785423,2|0,0:0|0:0,0:0:0:0:
360,100,39802,6,0,P|457:57|357:27,1,269.999999570847,12|0,0:0|0:0,0:0:0:0:
296,152,40257,6,0,L|304:284,1,119.999995231629,4|0,0:0|0:0,0:0:0:0:
472,336,40711,2,0,L|464:216,1,119.999995231629,8|0,0:0|0:0,0:0:0:0:
444,40,41166,2,0,P|384:52|328:40,1,119.999995231629,0|0,1:0|0:0,0:0:0:0:
224,100,41507,1,0,0:0:0:0:
224,100,41620,2,0,P|165:87|107:99,1,119.999995231629,8|0,0:0|0:0,0:0:0:0:
24,184,41961,1,0,0:0:0:0:
24,184,42075,6,0,L|32:320,1,119.999995231629,0|0,1:0|0:0,0:0:0:0:
204,352,42529,1,8,0:0:0:0:
148,180,42757,2,0,P|144:212|152:248,1,59.9999976158143
204,104,42984,2,0,P|148:88|88:104,1,119.999995231629,0|0,1:0|0:0,0:0:0:0:
240,192,43325,1,0,0:0:0:0:
240,192,43438,2,0,L|380:180,1,119.999995231629,8|0,0:0|0:0,0:0:0:0:
444,152,43779,1,0,0:0:0:0:
444,152,43893,6,0,P|448:180|444:212,1,59.9999976158143,0|0,1:0|0:0,0:0:0:0:
416,296,44120,2,0,L|320:288,1,59.9999976158143
280,340,44348,2,0,L|104:324,1,119.999995231629,8|0,0:0|0:0,0:0:0:0:
64,108,44802,2,0,L|240:92,1,119.999995231629,0|0,1:0|0:0,0:0:0:0:
256,40,45143,1,0,0:0:0:0:
256,40,45257,2,0,P|272:96|256:156,1,119.999995231629,8|0,0:0|0:0,0:0:0:0:
224,240,45598,1,0,0:0:0:0:
224,240,45711,6,0,L|400:224,1,119.999995231629,0|0,1:0|0:0,0:0:0:0:
460,92,46166,1,8,0:0:0:0:
448,272,46393,1,0,0:0:0:0:
348,120,46620,1,0,1:0:0:0:
256,344,46848,2,0,L|192:340,1,59.9999976158143
104,308,47075,2,0,P|100:336|104:368,1,59.9999976158143,8|0,0:0|0:0,0:0:0:0:
176,248,47302,2,0,L|176:212,3,29.9999988079071,0|0|0|0,0:0|0:0|0:0|0:0,0:0:0:0:
176,172,47529,6,0,P|116:156|56:172,1,119.999995231629,0|0,1:0|0:0,0:0:0:0:
20,248,47870,1,0,0:0:0:0:
264,228,47984,2,0,P|280:168|264:108,1,119.999995231629,8|0,0:0|0:0,0:0:0:0:
180,84,48325,1,0,0:0:0:0:
208,320,48438,2,0,P|268:336|328:320,1,119.999995231629,0|0,1:0|0:0,0:0:0:0:
400,276,48779,1,0,0:0:0:0:
400,276,48893,2,0,L|404:200,1,59.9999976158143,8|0,0:0|0:0,0:0:0:0:
496,120,49120,2,0,L|499:179,1,59.9999976158143
300,200,49348,6,0,B|176:192|176:192|232:224,1,179.999992847443,0|0,1:0|0:0,0:0:0:0:
256,336,49802,1,8,0:0:0:0:
332,108,50029,1,0,0:0:0:0:
484,296,50257,1,0,1:0:0:0:
76,196,50484,1,0,0:0:0:0:
80,220,50711,1,8,0:0:0:0:
84,244,50938,2,0,P|116:248|144:244,1,59.9999976158143
312,136,51166,6,0,P|256:120|196:136,1,119.999995231629,0|0,1:0|0:0,0:0:0:0:
408,196,51507,1,0,0:0:0:0:
408,196,51620,2,0,P|424:140|408:80,1,119.999995231629,8|0,0:0|0:0,0:0:0:0:
256,236,51961,1,0,0:0:0:0:
256,236,52075,2,0,P|240:293|256:350,1,119.999995231629,0|0,1:0|0:0,0:0:0:0:
312,136,52416,1,0,0:0:0:0:
312,136,52529,2,0,L|228:128,1,59.9999976158143,8|0,0:0|0:0,0:0:0:0:
152,200,52757,2,0,P|144:232|152:264,1,59.9999976158143
344,292,52984,6,0,L|428:284,1,59.9999976158143,0|0,1:0|0:0,0:0:0:0:
312,48,53211,2,0,L|228:40,1,59.9999976158143
228,356,53438,6,0,L|312:348,1,59.9999976158143,8|0,0:0|0:0,0:0:0:0:
196,112,53665,2,0,L|112:104,1,59.9999976158143
376,376,53893,6,0,L|460:368,1,59.9999976158143,0|0,1:0|0:0,0:0:0:0:
344,132,54120,2,0,L|260:124,1,59.9999976158143
352,248,54348,6,0,L|460:244,1,89.9999998569489,2|0,0:0|0:0,0:0:0:0:
252,28,54575,2,0,L|162:31,1,89.9999998569489,0|0,1:0|0:0,0:0:0:0:
52,80,54802,6,0,P|36:140|52:200,1,119.999995231629,4|0,1:0|0:0,0:0:0:0:
380,340,55257,2,0,P|396:280|380:220,1,119.999995231629,8|0,0:0|0:0,0:0:0:0:
328,152,55598,1,0,0:0:0:0:
256,208,55711,2,0,L|128:204,1,119.999995231629,0|0,1:0|0:0,0:0:0:0:
320,36,56052,1,0,0:0:0:0:
392,92,56165,2,0,L|520:88,1,119.999995231629,8|0,0:0|0:0,0:0:0:0:
380,340,56620,6,0,L|252:336,1,119.999995231629,0|0,1:0|0:0,0:0:0:0:
80,328,57075,1,8,0:0:0:0:
188,68,57302,2,0,L|184:144,1,59.9999976158143
180,220,57529,1,0,1:0:0:0:
48,28,57757,2,0,L|44:104,1,59.9999976158143
40,180,57984,1,8,0:0:0:0:
332,220,58211,2,0,L|336:136,1,59.9999976158143
472,180,58438,6,0,L|464:336,1,119.999995231629,0|0,1:0|0:0,0:0:0:0:
396,356,58779,1,0,0:0:0:0:
312,320,58893,2,0,P|256:304|196:320,1,119.999995231629,8|0,0:0|0:0,0:0:0:0:
116,356,59234,1,0,0:0:0:0:
46,299,59348,2,0,L|40:180,1,119.999995231629,0|0,1:0|0:0,0:0:0:0:
168,56,59688,1,0,0:0:0:0:
168,56,59802,2,0,L|161:175,1,119.999995231629,8|0,0:0|0:0,0:0:0:0:
256,332,60143,1,0,0:0:0:0:
256,332,60257,6,0,P|312:348|372:332,1,119.999995231629,0|0,1:0|0:0,0:0:0:0:
448,284,60598,1,0,0:0:0:0:
448,284,60711,2,0,L|452:208,1,59.9999976158143,8|0,0:0|0:0,0:0:0:0:
316,180,60938,2,0,L|312:239,1,59.9999976158143
420,92,61166,1,0,1:0:0:0:
256,332,61393,1,0,0:0:0:0:
232,328,61620,1,8,0:0:0:0:
208,324,61848,2,0,L|140:312,1,59.9999976158143
48,252,62075,6,0,P|64:312|48:372,1,119.999995231629,0|0,1:0|0:0,0:0:0:0:
0,168,62416,1,0,0:0:0:0:
0,168,62529,2,0,L|120:160,1,119.999995231629,8|0,0:0|0:0,0:0:0:0:
348,80,62984,2,0,B|256:72|256:72|284:92,1,119.999995231629,0|0,1:0|0:0,0:0:0:0:
420,140,63325,1,0,0:0:0:0:
420,140,63438,2,0,P|440:80|420:24,1,119.999995231629,8|0,0:0|0:0,0:0:0:0:
120,160,63893,6,0,P|102:216|122:272,1,119.999995231629,0|0,1:0|0:0,0:0:0:0:
348,360,64348,1,8,0:0:0:0:
460,148,64575,1,0,0:0:0:0:
256,272,64802,1,0,1:0:0:0:
492,304,65029,1,0,0:0:0:0:
320,136,65257,1,8,0:0:0:0:
256,368,65484,1,0,0:0:0:0:
460,148,65711,5,0,1:0:0:0:
460,124,65938,1,0,0:0:0:0:
320,136,66166,1,8,0:0:0:0:
320,112,66393,1,0,0:0:0:0:
184,124,66620,1,0,1:0:0:0:
184,100,66847,1,0,0:0:0:0:
44,112,67075,1,8,0:0:0:0:
44,88,67302,1,0,0:0:0:0:
108,260,67529,5,0,1:0:0:0:
256,72,67757,1,0,0:0:0:0:
352,292,67984,2,0,L|436:284,1,59.9999976158143,8|0,0:0|0:0,0:0:0:0:
456,128,68211,2,0,L|396:133,1,59.9999976158143
152,312,68438,2,0,L|236:304,1,59.9999976158143,0|0,1:0|0:0,0:0:0:0:
256,148,68665,2,0,L|196:153,1,59.9999976158143
32,172,68893,2,0,L|28:208,4,29.9999988079071,8|0|0|0|0,0:0|0:0|0:0|0:0|0:0,0:0:0:0:
40,20,69234,1,0,0:0:0:0:
176,108,69348,6,0,L|168:264,1,149.999994039536,4|0,1:0|0:0,0:0:0:0:
92,340,69688,2,0,P|12:320|92:260,1,224.999991059303,2|0,0:0|0:0,0:0:0:0:
420,340,70257,2,0,L|424:300,21,24.9999990065893,8|0|0|0|0|0|0|0|0|0|0|0|0|0|0|0|0|0|0|0|0|0,0:0|0:0|0:0|0:0|0:0|0:0|0:0|0:0|0:0|0:0|0:0|0:0|0:0|0:0|0:0|0:0|0:0|0:0|0:0|0:0|0:0|0:0,0:0:0:0:
492,228,71166,6,0,P|416:228|436:152,1,149.999994039536,2|0,0:0|0:0,0:0:0:0:
464,68,71507,1,2,0:0:0:0:
464,68,71620,2,0,B|348:60|348:60|384:80,1,149.999994039536,8|0,0:0|0:0,0:0:0:0:
328,296,72075,2,0,L|296:292,21,24.9999990065893,8|0|0|0|0|0|0|0|0|0|0|0|0|0|0|0|0|0|0|0|0|0,0:0|0:0|0:0|0:0|0:0|0:0|0:0|0:0|0:0|0:0|0:0|0:0|0:0|0:0|0:0|0:0|0:0|0:0|0:0|0:0|0:0|0:0,0:0:0:0:
208,356,72984,6,0,P|140:336|64:356,1,149.999994039536,0|0,1:0|0:0,0:0:0:0:
8,260,73325,2,0,P|59:211|80:135,1,149.999994039536,2|0,0:0|0:0,0:0:0:0:
40,32,73666,2,0,L|96:28,1,37.4999985098839,2|0,0:0|0:0,0:0:0:0:
92,40,73779,2,0,L|148:36,1,37.4999985098839,2|0,0:0|0:0,0:0:0:0:
144,52,73893,2,0,L|188:48,21,24.9999990065893,8|0|0|0|0|0|0|0|0|0|0|0|0|0|0|0|0|0|0|0|0|0,0:0|0:0|0:0|0:0|0:0|0:0|0:0|0:0|0:0|0:0|0:0|0:0|0:0|0:0|0:0|0:0|0:0|0:0|0:0|0:0|0:0|0:0,0:0:0:0:
256,124,74802,6,0,L|256:280,1,149.999994039536,2|0,0:0|0:0,0:0:0:0:
168,348,75143,1,2,0:0:0:0:
168,348,75257,2,0,L|80:336,1,74.9999970197678,8|0,0:0|0:0,0:0:0:0:
344,348,75484,2,0,L|432:336,1,74.9999970197678
156,248,75711,2,0,L|112:244,21,24.9999990065893,8|0|0|0|0|0|0|0|0|0|0|0|0|0|0|0|0|0|0|0|0|0,0:0|0:0|0:0|0:0|0:0|0:0|0:0|0:0|0:0|0:0|0:0|0:0|0:0|0:0|0:0|0:0|0:0|0:0|0:0|0:0|0:0|0:0,0:0:0:0:
20,240,76620,6,0,P|40:168|20:96,1,149.999994039536,0|0,1:0|0:0,0:0:0:0:
112,32,76961,2,0,P|164:85|236:104,1,149.999994039536,2|0,0:0|0:0,0:0:0:0:
348,92,77302,2,0,L|440:84,1,74.9999970197678
164,192,77529,2,0,L|8:180,1,149.999994039536,8|0,0:0|0:0,0:0:0:0:
348,288,77870,2,0,L|504:276,1,149.999994039536,2|0,0:0|0:0,0:0:0:0:
348,92,78211,2,0,L|348:168,1,74.9999970197678,2|0,0:0|0:0,0:0:0:0:
167,341,78438,6,0,L|164:192,1,149.999994039536,2|0,0:0|0:0,0:0:0:0:
160,100,78779,1,2,0:0:0:0:
84,148,78893,1,8,0:0:0:0:
428,148,79120,1,2,0:0:0:0:
352,100,79234,1,2,0:0:0:0:
348,192,79348,2,0,B|360:216|356:240|356:240|380:248|380:248|376:280|408:320,1,149.999994039536,8|0,0:0|0:0,0:0:0:0:
256,224,79688,2,0,B|248:252|248:252|264:272|264:272|252:296|252:296|264:324|264:324|256:372,1,149.999994039536,2|0,0:0|0:0,0:0:0:0:
164,192,80029,2,0,B|156:208|164:224|164:224|156:232|156:232|164:248|152:260,1,74.9999970197678,2|0,0:0|0:0,0:0:0:0:
104,320,80257,6,0,L|60:316,21,24.9999990065893,0|0|0|0|0|0|0|0|0|0|0|0|0|0|0|0|0|0|0|0|0|0,0:0|0:0|0:0|0:0|0:0|0:0|0:0|0:0|0:0|0:0|0:0|0:0|0:0|0:0|0:0|0:0|0:0|0:0|0:0|0:0|0:0|0:0,0:0:0:0:
4,224,81166,2,0,L|0:152,1,59.9999976158143,8|0,0:0|0:0,0:0:0:0:
180,28,81393,2,0,L|183:87,1,59.9999976158143,2|0,0:0|0:0,0:0:0:0:
24,240,81620,2,0,L|20:168,1,59.9999976158143,2|0,0:0|0:0,0:0:0:0:
200,44,81847,2,0,L|203:103,1,59.9999976158143,2|0,0:0|0:0,0:0:0:0:
164,264,82075,6,0,P|116:208|192:196,1,179.999999713898,4|0,1:0|0:0,0:0:0:0:
348,264,82416,2,0,P|396:208|320:196,1,179.999999713898,4|0,1:0|0:0,0:0:0:0:
256,368,82757,6,0,B|248:324|264:304|256:264,1,104.999996829033,8|0,0:0|0:0,0:0:0:0:
256,28,82984,5,0,0:0:0:0:
266,33,83211,1,2,0:0:0:0:
276,38,83438,1,2,0:0:0:0:
286,43,83666,1,12,0:0:0:0:
298,50,83893,6,0,L|465:43,1,149.999994039536,4|0,1:0|0:0,0:0:0:0:
256,192,84234,1,0,0:0:0:0:
184,108,84348,2,0,L|32:104,1,149.999994039536,8|0,0:0|0:0,0:0:0:0:
184,276,84688,1,0,0:0:0:0:
256,192,84802,2,0,L|408:188,1,149.999994039536,0|0,1:0|0:0,0:0:0:0:
508,136,85143,1,0,0:0:0:0:
500,248,85257,1,8,0:0:0:0:
92,336,85484,1,0,0:0:0:0:
84,224,85598,1,0,0:0:0:0:
184,276,85711,6,0,P|256:296|328:276,1,149.999994039536,0|0,1:0|0:0,0:0:0:0:
404,192,86052,1,0,0:0:0:0:
500,248,86166,2,0,L|496:336,2,74.9999970197678,8|0|0,0:0|0:0|0:0,0:0:0:0:
256,52,86620,2,0,L|176:44,1,74.9999970197678,0|0,1:0|0:0,0:0:0:0:
316,144,86848,2,0,L|396:136,1,74.9999970197678
196,228,87075,2,0,L|40:216,1,149.999994039536,8|0,0:0|0:0,0:0:0:0:
256,324,87416,1,0,0:0:0:0:
316,144,87529,6,0,L|472:132,1,149.999994039536,0|0,1:0|0:0,0:0:0:0:
328,28,87870,1,0,0:0:0:0:
220,68,87984,2,0,P|196:136|220:212,1,149.999994039536,8|0,0:0|0:0,0:0:0:0:
360,344,88325,1,0,0:0:0:0:
464,300,88438,2,0,P|485:229|461:159,1,149.999994039536,0|0,1:0|0:0,0:0:0:0:
356,124,88779,1,0,0:0:0:0:
448,56,88893,1,8,0:0:0:0:
156,124,89120,1,0,0:0:0:0:
64,56,89234,1,0,0:0:0:0:
48,160,89348,6,0,L|60:316,1,149.999994039536,0|0,1:0|0:0,0:0:0:0:
256,360,89688,1,0,0:0:0:0:
325,271,89802,2,0,P|257:247|185:271,1,149.999994039536,8|0,0:0|0:0,0:0:0:0:
416,352,90143,1,0,0:0:0:0:
500,276,90257,2,0,L|504:196,1,74.9999970197678,0|0,1:0|0:0,0:0:0:0:
372,124,90484,2,0,L|368:198,1,74.9999970197678
492,52,90711,1,8,0:0:0:0:
256,192,90938,1,0,0:0:0:0:
20,52,91166,6,0,L|8:204,1,149.999994039536,0|0,1:0|0:0,0:0:0:0:
72,296,91507,1,0,0:0:0:0:
256,192,91620,2,0,P|184:168|116:192,1,149.999994039536,8|0,0:0|0:0,0:0:0:0:
188,276,91961,1,0,0:0:0:0:
356,260,92075,2,0,L|360:96,1,149.999994039536,0|0,1:0|0:0,0:0:0:0:
452,44,92416,1,0,0:0:0:0:
472,156,92529,1,8,0:0:0:0:
72,248,92757,1,0,0:0:0:0:
92,136,92870,1,0,0:0:0:0:
184,202,92984,5,0,1:0:0:0:
444,344,93211,1,0,0:0:0:0:
424,232,93324,1,0,0:0:0:0:
332,298,93438,2,0,L|328:376,1,74.9999970197678,8|0,0:0|0:0,0:0:0:0:
184,202,93666,2,0,L|188:280,1,74.9999970197678
348,132,93893,2,0,L|344:210,1,74.9999970197678,0|0,1:0|0:0,0:0:0:0:
168,36,94121,2,0,L|172:114,1,74.9999970197678
344,208,94348,2,0,P|420:196|496:208,1,149.999994039536,8|0,0:0|0:0,0:0:0:0:
256,124,94688,1,0,0:0:0:0:
256,284,94802,6,0,P|180:296|104:284,1,149.999994039536,0|0,1:0|0:0,0:0:0:0:
32,200,95143,1,0,0:0:0:0:
0,308,95257,1,8,0:0:0:0:
336,356,95484,2,0,L|420:352,1,74.9999970197678
444,244,95711,2,0,L|276:248,1,149.999994039536,0|0,1:0|0:0,0:0:0:0:
208,176,96052,1,0,0:0:0:0:
176,284,96166,1,8,0:0:0:0:
512,332,96393,1,0,0:0:0:0:
388,20,96620,6,0,L|396:184,1,149.999994039536,0|0,1:0|0:0,0:0:0:0:
300,232,96961,1,0,0:0:0:0:
236,140,97075,2,0,L|140:132,1,74.9999970197678,8|0,0:0|0:0,0:0:0:0:
396,168,97302,2,0,L|492:160,1,74.9999970197678
332,72,97529,1,0,1:0:0:0:
300,232,97643,1,0,0:0:0:0:
236,140,97757,1,2,0:0:0:0:
188,240,97870,1,0,0:0:0:0:
88,200,97984,2,0,P|20:248|112:308,1,224.999991059303,10|0,0:0|0:0,0:0:0:0:
300,232,98438,6,0,L|304:124,1,74.9999970197678,0|0,1:0|0:0,0:0:0:0:
136,24,98666,2,0,L|133:98,1,74.9999970197678,0|0,0:0|0:0,0:0:0:0:
372,80,98893,2,0,P|304:52|232:80,1,149.999994039536,8|0,0:0|0:0,0:0:0:0:
412,180,99234,1,0,0:0:0:0:
508,144,99348,2,0,L|512:36,1,74.9999970197678,0|0,1:0|0:0,0:0:0:0:
304,156,99575,2,0,L|306:230,1,74.9999970197678,0|0,0:0|0:0,0:0:0:0:
372,80,99802,2,0,P|304:52|232:80,1,149.999994039536,8|0,0:0|0:0,0:0:0:0:
88,248,100143,1,0,0:0:0:0:
160,336,100257,6,0,L|256:332,1,74.9999970197678,0|0,1:0|0:0,0:0:0:0:
316,256,100484,1,0,0:0:0:0:
340,368,100598,1,0,0:0:0:0:
424,292,100711,2,0,L|428:136,1,149.999994039536,8|0,0:0|0:0,0:0:0:0:
488,48,101052,1,0,0:0:0:0:
336,80,101166,2,0,L|252:72,1,74.9999970197678,0|0,1:0|0:0,0:0:0:0:
176,216,101393,2,0,L|260:208,1,74.9999970197678
68,88,101620,2,0,L|76:244,1,149.999994039536,8|0,0:0|0:0,0:0:0:0:
436,237,102075,6,0,L|444:88,1,149.999994039536,0|0,1:0|0:0,0:0:0:0:
360,12,102416,1,0,0:0:0:0:
184,112,102529,2,0,P|256:132|328:112,1,149.999994039536,8|0,0:0|0:0,0:0:0:0:
152,12,102870,1,0,0:0:0:0:
68,88,102984,2,0,L|75:237,1,149.999994039536,0|0,1:0|0:0,0:0:0:0:
256,340,103325,1,0,0:0:0:0:
328,240,103438,2,0,P|256:220|184:240,1,149.999994039536,8|0,0:0|0:0,0:0:0:0:
388,360,103779,1,0,0:0:0:0:
476,256,103893,5,0,1:0:0:0:
36,256,104120,1,0,0:0:0:0:
124,360,104234,1,0,0:0:0:0:
180,236,104348,2,0,L|168:80,1,149.999994039536,8|0,0:0|0:0,0:0:0:0:
256,16,104688,1,0,0:0:0:0:
343,86,104802,2,0,L|336:200,1,74.9999970197678,0|0,1:0|0:0,0:0:0:0:
84,162,105029,2,0,L|80:88,1,74.9999970197678
432,88,105257,2,0,L|420:237,1,149.999994039536,8|0,0:0|0:0,0:0:0:0:
408,348,105598,1,0,0:0:0:0:
316,280,105711,6,0,L|232:272,1,74.9999970197678,0|0,1:0|0:0,0:0:0:0:
408,348,105938,2,0,L|492:340,1,74.9999970197678
332,176,106166,2,0,L|172:164,1,149.999994039536,8|0,0:0|0:0,0:0:0:0:
84,224,106507,1,0,0:0:0:0:
188,360,106620,2,0,L|188:268,1,74.9999970197678,0|0,1:0|0:0,0:0:0:0:
184,48,106848,1,0,0:0:0:0:
80,104,106961,1,0,0:0:0:0:
184,164,107075,2,0,L|344:152,1,149.999994039536,8|0,0:0|0:0,0:0:0:0:
188,360,107416,1,0,0:0:0:0:
76,352,107529,6,0,L|0:348,1,74.9999970197678,0|0,1:0|0:0,0:0:0:0:
136,256,107757,1,0,0:0:0:0:
188,360,107870,1,0,0:0:0:0:
256,272,107984,2,0,B|356:264|356:264|312:300,1,149.999994039536,8|0,0:0|0:0,0:0:0:0:
136,256,108325,1,0,0:0:0:0:
196,96,108438,2,0,L|204:180,1,74.9999970197678,0|0,1:0|0:0,0:0:0:0:
424,320,108666,2,0,L|431:245,1,74.9999970197678
464,20,108893,1,8,0:0:0:0:
256,272,109120,1,0,0:0:0:0:
48,20,109348,5,0,1:0:0:0:
364,144,109575,1,0,0:0:0:0:
256,176,109688,1,0,0:0:0:0:
280,68,109802,1,8,0:0:0:0:
224,288,110029,1,0,0:0:0:0:
140,212,110142,1,0,0:0:0:0:
116,320,110257,2,0,L|32:312,1,74.9999970197678,0|0,1:0|0:0,0:0:0:0:
256,176,110484,2,0,L|340:168,1,74.9999970197678
133,62,110711,2,0,L|141:226,1,149.999994039536,8|0,0:0|0:0,0:0:0:0:
224,288,111052,1,0,0:0:0:0:
372,212,111166,6,0,P|429:151|330:135,1,224.999991059303,0|0,1:0|0:0,0:0:0:0:
140,212,111620,2,0,P|83:151|182:135,1,224.999991059303,8|0,0:0|0:0,0:0:0:0:
256,360,112075,1,0,1:0:0:0:
256,32,112302,1,0,0:0:0:0:
128,280,112529,1,8,0:0:0:0:
384,104,112757,1,0,0:0:0:0:
8,188,112984,6,0,L|16:88,1,74.9999970197678,2|0,0:0|0:0,0:0:0:0:
128,280,113211,2,0,L|133:354,1,74.9999970197678
256,188,113438,2,0,L|264:88,1,74.9999970197678,2|0,0:0|0:0,0:0:0:0:
384,280,113665,2,0,L|389:354,1,74.9999970197678
504,188,113893,1,2,0:0:0:0:
8,188,114120,1,2,0:0:0:0:
148,132,114234,1,2,0:0:0:0:
128,280,114348,1,0,0:0:0:0:
504,188,114575,1,2,0:0:0:0:
364,132,114689,1,2,0:0:0:0:
384,280,114803,5,4,1:0:0:0:
