osu file format v14

[General]
AudioFilename: Sprintrances.mp3
AudioLeadIn: 1800
PreviewTime: 53319
Countdown: 0
SampleSet: Normal
StackLeniency: 0.7
Mode: 0
LetterboxInBreaks: 0
WidescreenStoryboard: 0

[Editor]
DistanceSpacing: 1
BeatDivisor: 4
GridSize: 4
TimelineZoom: 1

[Metadata]
Title:Sprintrances
TitleUnicode:Sprintrances
Artist:Taishi
ArtistUnicode:Taishi
Creator:Inazuma
Version:Easy
Source:HALFPIPE TOKYO
Tags:maimai trancestep yf_bmp
BeatmapID:726355
BeatmapSetID:315537

[Difficulty]
HPDrainRate:2
CircleSize:3
OverallDifficulty:2
ApproachRate:3
SliderMultiplier:0.7
SliderTickRate:1

[Events]
//Background and Video events
0,0,"HARDLOVE_sprintrances_20120531_02-00902.jpg",0,0
Video,-1300,"bg video Sprintrances.avi"
//Break Periods
//Storyboard Layer 0 (Background)
//Storyboard Layer 1 (Fail)
//Storyboard Layer 2 (Pass)
//Storyboard Layer 3 (Foreground)
//Storyboard Sound Samples

[TimingPoints]
145,337.078651685393,4,2,1,30,1,0
5538,-100,4,2,1,50,0,0
10931,-100,4,1,1,60,0,0
32588,-100,4,2,1,60,0,0
36549,-100,4,2,1,40,0,0
37897,-100,4,2,1,50,0,0
51380,-100,4,1,1,60,0,0
54077,-100,4,1,1,60,0,1
64527,-100,4,1,1,60,0,0
64864,-100,4,1,1,60,0,1
75650,-100,4,1,1,60,0,0

[Colours]
Combo1 : 249,146,32
Combo2 : 50,231,208
Combo3 : 70,120,202
Combo4 : 23,188,236

[HitObjects]
108,312,145,6,0,P|88:264|220:284,1,280,4|0,1:0|1:0,0:0:0:0:
404,72,2841,2,0,P|424:120|292:100,1,280,0|0,1:0|1:0,0:0:0:0:
20,180,5538,6,0,B|36:272|36:272|88:300,1,140,4|0,1:0|0:0,0:0:0:0:
144,316,6549,1,0,0:0:0:0:
200,276,6886,2,0,B|216:252|256:236|256:236|296:252|312:276,1,140
368,316,7897,1,0,0:0:0:0:
434,294,8234,6,0,B|476:272|476:272|492:180,1,140,0|0,0:0|0:0,0:0:0:0:
392,84,9583,1,0,0:0:0:0:
248,324,10931,6,0,B|68:348|68:348|40:328,1,210,6|8,0:0|0:0,0:0:0:0:
44,260,12279,2,0,P|89:175|178:209,1,210,2|8,0:0|0:0,0:0:0:0:
248,228,13628,6,0,B|424:208|424:208|452:232,1,210,2|8,0:0|0:0,0:0:0:0:
476,296,14976,2,0,P|464:340|380:364,1,140,2|2,0:0|0:2,0:0:0:0:
328,320,15987,2,0,P|288:312|244:316,1,70,8|6,0:0|0:0,0:0:0:0:
192,336,16661,6,0,P|152:360|68:332,1,140,8|8,0:0|0:0,0:0:0:0:
16,288,17673,2,0,B|0:112|0:112|32:96,1,210,2|8,0:0|0:0,0:0:0:0:
100,88,19021,6,0,P|180:88|192:208,1,210,2|8,0:0|0:0,0:0:0:0:
172,260,20369,2,0,P|192:284|288:268,1,140,2|2,0:0|0:2,0:0:0:0:
316,204,21380,1,8,0:0:0:0:
320,132,21718,5,6,0:0:0:0:
440,60,22392,2,0,P|476:96|484:116,1,70,2|8,0:3|0:0,0:0:0:0:
496,180,23066,2,0,P|497:220|414:275,1,140,2|2,0:0|0:3,0:0:0:0:
372,232,24077,1,8,0:0:0:0:
312,192,24414,6,0,P|248:192|216:320,1,210,6|8,0:0|0:0,0:0:0:0:
280,332,25762,2,0,B|116:348|116:348|76:320,1,210,2|8,0:0|0:0,0:0:0:0:
28,276,27111,5,2,0:0:0:0:
92,152,27785,2,0,P|124:140|160:136,1,70,2|8,0:3|0:0,0:0:0:0:
208,188,28459,2,0,B|328:208|328:208|356:192,1,140,2|2,0:0|0:3,0:0:0:0:
388,144,29470,1,8,0:0:0:0:
456,148,29807,6,0,P|500:184|432:296,1,210,6|8,0:0|0:0,0:0:0:0:
368,288,31156,2,0,B|316:336|316:336|259:296|259:296|208:344|208:344|152:303,1,280,2|6,0:0|0:0,0:0:0:0:
8,60,33852,5,2,0:1:0:0:
256,188,35201,1,2,0:1:0:0:
504,60,36549,6,0,P|464:96|456:120,1,70,0|6,0:0|1:0,0:0:0:0:
436,176,37223,2,0,P|437:229|451:251,1,70,6|6,1:0|1:0,0:0:0:0:
504,284,37897,6,0,B|384:308|384:308|364:288,1,140,6|0,0:1|0:0,0:0:0:0:
280,192,39246,2,0,B|267:179|267:179|147:203,1,140,2|0,0:1|0:0,0:0:0:0:
36,292,40594,2,0,B|156:316|156:316|176:296,1,140,2|0,0:1|0:0,0:0:0:0:
256,192,41942,12,4,43291,1:0:0:0:
136,204,44639,6,0,P|116:248|136:304,2,105,2|0|2,0:1|0:0|0:0,0:0:0:0:
200,176,45987,2,0,P|280:180|240:328,1,280,2|2,0:1|0:1,0:0:0:0:
108,304,48010,6,0,P|76:268|88:176,1,140,0|6,0:0|0:1,0:0:0:0:
204,112,49358,2,0,P|252:104|284:120,1,70,2|2,0:0|0:0,0:0:0:0:
324,156,50032,2,0,P|344:204|332:256,2,105,2|0|2,0:1|0:0|0:0,0:0:0:0:
264,188,51380,5,6,0:0:0:0:
168,88,52055,1,6,0:0:0:0:
68,184,52729,1,6,0:0:0:0:
164,284,53404,1,6,0:0:0:0:
264,188,54077,6,0,P|342:169|422:258,1,210,6|8,0:0|0:0,0:0:0:0:
380,312,55425,2,0,P|344:336|304:348,1,70,2|8,0:0|0:0,0:0:0:0:
256,316,56100,1,0,0:0:0:0:
192,344,56437,2,0,P|160:332|132:312,1,70,8|2,0:0|0:0,0:0:0:0:
88,256,57111,6,0,B|64:136|64:136|80:116,1,140,8|8,0:0|0:0,0:0:0:0:
128,76,58122,2,0,P|204:76|212:196,1,210,2|8,0:0|0:0,0:0:0:0:
276,228,59470,6,0,P|272:324|367:340,1,210,2|8,0:0|0:0,0:0:0:0:
428,304,60819,2,0,P|452:260|400:192,1,140,2|0,0:0|0:0,0:0:0:0:
336,192,61830,1,8,0:0:0:0:
276,228,62167,6,0,P|228:248|204:244,1,70,2|8,0:0|0:0,0:0:0:0:
140,240,62841,2,0,P|91:220|77:200,1,70,0|8,0:0|0:0,0:0:0:0:
28,160,63515,2,0,B|11:40|11:40|30:15,1,140,2|8,0:0|0:0,0:0:0:0:
92,36,64527,1,8,0:0:0:0:
144,84,64864,6,0,P|176:96|264:44,1,140,6|2,0:0|0:3,0:0:0:0:
332,56,65875,1,8,0:0:0:0:
400,64,66212,2,0,P|428:84|384:236,1,210,2|8,0:0|0:0,0:0:0:0:
332,216,67560,6,0,B|292:192|252:208|252:208|232:232,2,105,2|0|8,0:0|0:0|0:0,0:0:0:0:
376,272,68909,2,0,P|380:308|368:344,1,70,2|8,0:0|0:0,0:0:0:0:
304,364,69583,2,0,P|268:368|232:356,1,70,2|8,0:3|0:0,0:0:0:0:
176,320,70257,6,0,B|144:212|144:212|160:188,1,140,6|2,0:0|0:3,0:0:0:0:
224,164,71268,1,8,0:0:0:0:
292,148,71605,2,0,B|328:140|368:168|368:168|376:200,2,105,2|0|8,0:0|0:0|0:0,0:0:0:0:
224,164,72953,6,0,P|176:152|156:136,1,70,6|8,0:0|0:0,0:0:0:0:
92,124,73628,2,0,P|72:148|80:228,1,105,8|6,0:0|0:0,0:0:0:0:
256,192,74302,12,4,75650,1:0:0:0:
