osu file format v13

[General]
AudioFilename: dynamite.mp3
AudioLeadIn: 0
PreviewTime: -1
Countdown: 1
SampleSet: None
StackLeniency: 0.3
Mode: 0
LetterboxInBreaks: 1
WidescreenStoryboard: 0

[Editor]
Bookmarks: 8302
DistanceSpacing: 0.8
BeatDivisor: 4
GridSize: 8
TimelineZoom: 1

[Metadata]
Title:Dynamite
TitleUnicode:Dynamite
Artist:Taio Cruz
ArtistUnicode:Taio Cruz
Creator:Thor
Version:Boom!
Source:
Tags:
BeatmapID:472086
BeatmapSetID:199023

[Difficulty]
HPDrainRate:7
CircleSize:4.3
OverallDifficulty:7
ApproachRate:9.3
SliderMultiplier:2
SliderTickRate:2

[Events]
//Background and Video events
//Break Periods
//Storyboard Layer 0 (Background)
//Storyboard Layer 1 (Fail)
//Storyboard Layer 2 (Pass)
//Storyboard Layer 3 (Foreground)
//Storyboard Sound Samples
//Background Colour Transformations
3,100,163,162,255

[TimingPoints]
302,500,4,1,0,100,1,0

[HitObjects]
256,48,8302,5,0,0:0:0:0:
152,192,8552,1,0,0:0:0:0:
256,48,8802,1,0,0:0:0:0:
360,192,9052,1,0,0:0:0:0:
256,48,9302,1,0,0:0:0:0:
256,248,9552,5,0,0:0:0:0:
360,192,9802,2,0,P|336:152|288:128,1,100
152,192,10302,2,0,P|176:152|224:128,1,100
256,336,10802,5,0,0:0:0:0:
304,200,11052,1,0,0:0:0:0:
192,280,11302,1,0,0:0:0:0:
320,280,11552,1,0,0:0:0:0:
208,200,11802,1,0,0:0:0:0:
256,128,12052,1,0,0:0:0:0:
256,40,12302,6,0,L|352:96,1,100
424,144,12802,2,0,L|328:200,1,100
88,144,13302,2,0,L|184:200,1,100
256,40,13802,2,0,L|160:96,1,100
256,40,14302,6,0,L|256:112,1,50
256,120,14552,1,0,0:0:0:0:
256,248,14802,2,0,L|256:304,2,50,0|0|0,0:0|0:0|0:0,0:0:0:0:
256,40,15302,6,0,P|288:40|336:112,1,100
392,192,15802,1,0,0:0:0:0:
256,344,16052,2,0,P|224:344|176:272,1,100
177,298,16552,2,0,P|209:298|257:226,1,100
255,252,17052,2,0,P|225:213|176:206,1,100
176,206,17552,2,0,P|205:167|254:160,2,100,0|0|0,0:0|0:0|0:0,0:0:0:0:
72,208,18302,6,0,L|48:160,1,50
40,144,18552,1,0,0:0:0:0:
104,40,18802,1,0,0:0:0:0:
72,208,19052,2,0,P|96:256|152:280,1,100
264,208,19552,2,0,P|240:256|184:280,1,100
168,216,20052,1,0,0:0:0:0:
255,72,20302,5,0,0:0:0:0:
326,288,20552,1,0,0:0:0:0:
142,155,20802,1,0,0:0:0:0:
369,155,21052,1,0,0:0:0:0:
185,288,21302,1,0,0:0:0:0:
255,72,21552,5,0,0:0:0:0:
256,192,21802,2,0,L|256:312,1,100
256,192,22552,5,0,0:0:0:0:
256,192,23052,1,0,0:0:0:0:
256,192,23552,2,0,L|256:320,2,100,0|0|0,0:0|0:0|0:0,0:0:0:0:
152,48,24302,5,0,0:0:0:0:
256,192,24552,1,0,0:0:0:0:
360,48,24802,1,0,0:0:0:0:
256,88,25052,2,0,P|288:112|368:144,1,100
255,88,25552,2,0,P|215:117|169:137,1,100
256,192,26052,2,0,L|256:304,2,100,0|0|0,0:0|0:0|0:0,0:0:0:0:
256,192,26802,5,0,0:0:0:0:
336,224,27052,2,0,L|400:320,1,100
176,224,27552,2,0,L|112:320,2,100,0|0|0,0:0|0:0|0:0,0:0:0:0:
256,40,28302,2,0,L|256:240,1,200
256,352,29052,1,0,0:0:0:0:
256,240,29302,2,0,L|256:40,1,200
256,192,29927,12,0,31802,0:0:0:0:
128,88,32302,5,0,0:0:0:0:
384,296,32552,1,0,0:0:0:0:
255,356,32802,1,0,0:0:0:0:
256,27,33052,2,0,L|256:144,1,100
232,216,33552,2,0,P|280:208|328:72,1,200
256,88,34302,5,0,0:0:0:0:
208,248,34552,1,0,0:0:0:0:
328,152,34802,1,0,0:0:0:0:
184,152,35052,1,0,0:0:0:0:
304,248,35302,1,0,0:0:0:0:
256,344,35552,1,0,0:0:0:0:
256,344,35802,6,0,L|384:344,1,100
256,344,36302,2,0,L|128:344,2,100,0|0|0,0:0|0:0|0:0,0:0:0:0:
256,344,37052,2,0,L|256:120,1,200
256,16,37802,5,0,0:0:0:0:
256,40,37927,1,0,0:0:0:0:
256,64,38052,1,0,0:0:0:0:
160,144,38302,2,0,P|256:168|352:144,1,200
312,72,39052,2,0,P|400:72|432:184,1,200
168,296,40302,6,0,P|120:312|48:192,1,200
256,240,41052,1,0,0:0:0:0:
344,296,41302,2,0,P|392:312|464:192,1,200
256,48,42302,1,0,0:0:0:0:
256,192,42552,1,0,0:0:0:0:
256,120,42802,1,0,0:0:0:0:
256,264,43052,2,0,P|304:248|328:112,1,200
331,116,43802,5,0,0:0:0:0:
331,116,43927,1,0,0:0:0:0:
331,116,44052,1,0,0:0:0:0:
331,116,44302,2,0,P|288:136|144:56,1,200
331,116,45052,2,0,P|368:112|432:136,1,100
256,272,45802,5,0,0:0:0:0:
256,248,45927,1,0,0:0:0:0:
256,224,46052,1,0,0:0:0:0:
256,224,46302,2,0,B|256:192|256:192|224:192|192:176|168:152|160:128|160:104|160:64,1,200
160,77,47052,2,0,P|144:56|72:72,1,100
64,192,47552,5,0,0:0:0:0:
160,288,47802,1,0,0:0:0:0:
248,192,48052,1,0,0:0:0:0:
160,288,48302,1,0,0:0:0:0:
160,280,48427,1,0,0:0:0:0:
160,272,48552,1,0,0:0:0:0:
160,176,48802,6,0,B|144:128|144:128|160:72,1,100
256,96,49302,1,0,0:0:0:0:
354,80,49552,2,0,B|368:128|368:128|352:176,2,100,0|0|0,0:0|0:0|0:0,0:0:0:0:
256,192,50302,2,0,L|256:248,2,50,0|0|0,0:0|0:0|0:0,0:0:0:0:
256,96,50802,1,0,0:0:0:0:
256,80,50927,1,0,0:0:0:0:
256,64,51052,1,0,0:0:0:0:
256,48,51177,1,0,0:0:0:0:
256,32,51302,1,0,0:0:0:0:
392,312,51802,5,0,0:0:0:0:
256,192,52052,1,0,0:0:0:0:
416,288,52302,1,0,0:0:0:0:
280,160,52552,1,0,0:0:0:0:
400,176,52802,2,0,L|440:128,2,50,0|0|0,0:0|0:0|0:0,0:0:0:0:
384,192,53177,1,0,0:0:0:0:
368,208,53302,1,0,0:0:0:0:
352,224,53427,1,0,0:0:0:0:
336,240,53552,1,0,0:0:0:0:
256,320,53802,6,0,P|224:312|176:248,1,100
180,263,54302,2,0,P|168:232|104:192,1,100
180,263,54802,2,0,P|217:231|230:184,1,100
232,168,55177,1,0,0:0:0:0:
232,152,55302,1,0,0:0:0:0:
