osu file format v9

[General]
AudioFilename: Unmeibito.mp3
AudioLeadIn: 0
PreviewTime: 63425
Countdown: 0
SampleSet: Soft
StackLeniency: 0.7
Mode: 0
LetterboxInBreaks: 0

[Editor]
DistanceSpacing: 0.8
BeatDivisor: 4
GridSize: 4

[Metadata]
Title:Unmeibito
Artist:Tainaka Sachi
Creator:A s g a r d
Version:Fate
Source:mero jp de ikou!
Tags:J-Pop Destiny

[Difficulty]
HPDrainRate:3
CircleSize:3
OverallDifficulty:3
ApproachRate:4
SliderMultiplier:1.2
SliderTickRate:2

[Events]
//Background and Video events
0,0,"BG.jpg"
//Break Periods
2,18750,26230
2,81750,88230
2,129750,146230
2,205750,212230
//Storyboard Layer 0 (Background)
//Storyboard Layer 1 (Fail)
//Storyboard Layer 2 (Pass)
//Storyboard Layer 3 (Foreground)
//Storyboard Sound Samples
//Background Colour Transformations
3,100,0,0,0

[TimingPoints]
550,500,4,2,1,60,1,0
63550,-83.3333333333333,4,2,1,100,0,1
81550,-100,4,2,1,60,0,0
111550,-83.3333333333333,4,2,1,100,0,1
129550,-100,4,2,1,60,0,0
171550,-100,4,2,1,100,0,1
171612,-100,4,2,1,60,0,0
179550,-83.3333333333333,4,2,1,100,0,1
205550,-100,4,2,1,60,0,0
227550,-100,4,2,1,5,0,0

[Colours]
Combo1 : 255,169,135
Combo2 : 255,135,248
Combo3 : 135,183,255
Combo4 : 135,255,172

[HitObjects]
256,192,6550,12,0,10050
204,192,10550,2,0,B|124:186|96:108,2,120,4|0|0
256,112,12050,1,8
308,192,12550,2,0,B|388:186|416:108,2,120,0|0|0
256,272,14050,1,8
188,212,14550,6,0,B|136:176|52:196,1,120
84,288,15550,2,0,B|136:324|136:324|192:324,1,120,0|8
256,264,16550,1,0
324,212,17050,2,0,B|376:176|460:196,1,120
428,288,18050,2,0,B|376:324|376:324|319:324,1,120,8|4
108,300,27550,5,0
148,212,28050,2,0,B|208:252|216:324,1,120,8|0
298,308,29050,2,0,B|304:252|364:212,1,120,8|0
424,284,30050,1,8
488,212,30550,1,0
424,140,31050,1,8
328,140,31550,6,0,B|304:88|240:64,1,120,4|8
239,159,32550,2,0,B|207:134|158:134|127:159,2,120,0|8|0
280,248,34050,1,8
184,232,34550,1,0
88,248,35050,1,8
40,332,35550,6,0,B|96:373|156:373,1,120,4|8
218,304,36550,2,0,B|287:264|304:206,2,120,0|8|0
150,236,38050,1,8
217,168,38550,1,0
217,72,39050,1,8
312,40,39550,6,0,B|313:167,1,120,4|8
378,223,40550,2,0,B|452:128,2,120,0|8|0
184,192,42550,5,4
184,192,43050,2,0,B|140:232,1,60,0|0
105,266,43550,2,0,B|110:306|146:338|186:342,1,120,0|8
282,342,44550,2,0,B|322:337|358:305|363:265,2,120,0|8|0
256,248,46050,1,8
256,152,46550,5,4
256,152,47050,2,0,B|256:80,2,60,8|0|0
256,248,48050,1,8
304,332,48550,2,0,B|360:348|360:348|417:377,2,120,0|8|0
208,332,50050,2,0,B|152:348|152:348|95:377,2,120,8|0|8
256,248,51550,5,4
208,164,52050,1,8
256,80,52550,2,0,B|328:96|336:160,1,120,0|8
244,180,53550,1,0
236,276,54050,2,0,B|164:260|156:196,1,120,8|0
136,104,55050,5,8
60,164,55550,1,4
36,256,56050,2,0,B|36:326,2,60,8|0|0
60,164,57050,2,0,B|108:122|108:122|108:46,2,120,0|0|8
272,128,59050,6,0,B|332:128|332:128|392:112,1,120,8|0
448,192,60050,1,8
389,271,60550,2,0,B|332:256|332:256|272:256,1,120,0|8
200,192,61550,1,0
200,192,62050,1,8
104,192,62550,1,0
104,192,63050,1,8
124,68,63550,5,4
195,139,64050,2,0,B|246:194,1,72.0000017166138,8|8
344,191,64800,2,0,B|293:136,1,72.0000017166138,8|8
427,67,65550,5,4
427,167,66050,2,0,B|368:228,1,72.0000017166138,8|8
305,147,66800,2,0,B|254:95,1,72.0000017166138,8|8
154,95,67550,6,0,B|73:162|153:238,1,144.000003433228,4|8
171,255,68300,1,8
99,326,68800,6,0,B|6:328,2,72.0000017166138,8|8|0
149,326,69550,2,0,B|218:289|306:325,1,144.000003433228,4|8
339,318,70300,1,8
385,298,70550,2,0,B|422:234|366:110,1,144.000003433228,4|8
290,192,71550,6,0,B|238:116|143:116,1,144.000003433228,4|8
171,117,72300,1,8
117,202,72800,2,0,B|180:264,1,72.0000017166138,8|8
260,275,73550,6,0,B|260:364,1,72.0000017166138,4|0
310,347,74050,2,0,B|368:292,1,72.0000017166138,8|8
362,196,74800,2,0,B|444:196,2,72.0000017166138,8|8|0
326,160,75550,1,4
254,88,76050,1,8
182,159,76550,1,0
253,230,77050,1,8
200,316,77550,6,0,B|152:284|152:284|148:248|124:228|80:248,1,144.000003433228,4|8
91,140,78550,2,0,B|124:156|148:136|152:100|152:100|200:68,1,144.000003433228,4|8
256,192,79300,12,0,81550
256,192,89550,5,4
335,135,90050,2,0,B|372:192|335:248,2,120,8|0|8
256,84,91550,1,0
256,180,92050,2,0,B|256:312,2,120,8|0|8
256,84,93550,5,4
160,84,94050,2,0,B|96:121|44:121,1,120,8|0
47,216,95050,1,8
47,312,95550,2,0,B|95:311|159:348,1,120,0|8
256,340,96550,5,0
324,272,97050,1,8
391,339,97550,2,0,B|456:340|484:268,1,120,4|8
428,192,98550,1,0
481,110,99050,2,0,B|456:44|391:45,1,120,8|0
323,113,100050,5,8
255,180,100550,1,0
256,276,101050,2,0,B|183:267|164:201,2,120,8|4|8
351,276,102550,1,0
418,208,103050,1,8
373,122,103550,6,0,B|327:66|327:10,1,120,0|8
256,76,104550,1,0
184,13,105050,2,0,B|185:66|139:122,1,120,8|4
72,192,106050,1,8
147,259,106550,2,0,B|148:380,2,120,0|8|4
216,192,108050,5,8
300,144,108550,1,8
300,240,109050,1,8
256,192,109550,12,4,111050
368,112,111550,5,4
296,183,112050,2,0,B|218:126,1,72.0000017166138,8|8
148,87,112800,2,0,B|148:168,1,72.0000017166138,8|8
100,248,113550,5,4
171,319,114050,2,0,B|260:320,2,72.0000017166138,8|8|0
171,268,114800,1,8
171,217,115050,2,0,B|212:136|340:160,1,144.000003433228,8|4
362,225,116050,6,0,B|416:156|360:68,1,144.000003433228,8|0
372,89,116800,1,8
372,89,117050,1,8
271,89,117550,6,0,B|207:145|111:197,1,144.000003433228,4|8
118,208,118300,1,8
153,243,118550,2,0,B|206:270|270:326,1,144.000003433228,4|8
310,233,119550,5,4
348,326,120050,2,0,B|442:326,1,72.0000017166138,8|8
420,225,120800,2,0,B|484:162,1,72.0000017166138,8|8
418,89,121550,5,4
317,89,122050,1,8
267,77,122300,1,8
231,112,122550,2,0,B|179:148|179:196|231:232,1,144.000003433228,0|8
313,281,123550,6,0,B|404:281,2,72.0000017166138,4|0|8
277,316,124300,1,8
226,316,124550,2,0,B|164:327|130:293|141:235,1,144.000003433228,0|8
198,153,125550,5,4
269,81,126050,1,8
340,152,126550,1,4
268,223,127050,1,8
256,192,127550,12,0,129550
376,96,147550,6,0,B|308:112|288:176,1,120,4|8
208,120,148550,1,0
152,40,149050,2,0,B|108:92|114:167,1,120,8|0
192,207,150050,1,8
259,274,150550,6,0,B|318:274|366:226,2,120,0|8|4
192,207,152050,1,8
192,207,152550,2,0,B|84:280,1,120,0|8
40,192,153550,1,0
40,96,154050,1,8
107,28,154550,6,0,B|152:84|232:84,1,120,0|8
256,168,155550,1,4
302,82,156050,2,0,B|360:84|404:28,1,120,8|0
472,96,157050,1,8
503,187,157550,2,0,B|436:208|392:268,1,120,0|8
321,301,158550,1,0
232,272,159050,1,8
256,192,159550,12,0,162550
256,192,163550,5,8
448,192,164550,1,8
256,192,165550,1,8
256,94,166050,1,8
188,163,166550,2,0,B|128:192|112:260,2,120,0|8|0
256,94,168050,5,8
324,163,168550,2,0,B|384:192|400:260,2,120,0|8|0
256,232,170050,1,8
256,232,170550,2,0,B|256:292,4,60,0|0|0|0|12
232,48,173300,6,0,B|296:48,1,60,8|12
400,168,175300,6,0,B|400:232,1,60,8|12
112,228,177300,6,0,B|112:168,1,60,8|12
179,100,178050,1,0
268,136,178550,1,8
356,100,179050,1,0
429,193,179550,5,4
392,286,180050,2,0,B|322:217,1,72.0000017166138,8|8
269,306,180800,2,8,B|208:244,1,72.0000017166138
117,254,181550,1,4
78,160,182050,5,8
113,124,182300,1,8
156,99,182550,2,0,B|216:56|298:69,2,144.000003433228,0|8|4
227,170,184050,5,8
182,260,184550,1,0
253,331,185050,1,8
353,331,185550,1,4
424,259,186050,2,0,B|486:194,2,72.0000017166138,8|8|0
328,227,187050,5,8
256,155,187550,2,0,B|192:203|192:203|92:203,1,144.000003433228,4|8
128,203,188300,1,8
56,131,188800,2,8,B|56:40,1,72.0000017166138
154,37,189550,5,4
225,108,190050,2,8,B|287:170,1,72.0000017166138
275,259,190800,1,8
310,294,191050,2,0,B|403:293,2,72.0000017166138,8|0|4
310,193,192050,6,0,B|290:141|306:93|362:70,2,144.000003433228,8|0|8
310,293,193550,1,4
410,293,194050,1,8
461,206,194550,1,4
461,105,195050,1,12
360,136,195550,6,0,B|264:72,1,72.0000017166138,4|0
249,96,196050,2,0,B|135:118,1,72.0000017166138,8|8
142,145,196550,2,0,B|76:209,2,72.0000017166138,0|8|8
213,216,197550,2,0,B|196:283|230:328|314:324,1,144.000003433228,0|8
356,240,198550,5,0
348,199,198800,1,0
348,148,199050,2,0,B|324:70|244:46,1,144.000003433228,8|4
180,119,200050,1,8
130,206,200550,1,0
180,296,201050,1,8
256,232,201550,6,0,B|256:148,2,72.0000017166138,4|0|8
291,267,202300,1,0
341,267,202550,2,0,B|402:229|402:121,1,144.000003433228,4|8
256,192,203300,12,0,205550
152,104,213550,6,0,B|96:208,2,120,4|8|0
196,192,215050,1,8
196,192,215550,2,0,B|316:192,3,120,0|8|0|8
316,192,217550,5,4
359,103,218050,2,0,B|416:209,2,120,8|0|8
296,176,219550,1,0
256,264,220050,1,8
168,228,220550,1,8
84,276,221050,1,8
256,192,221550,12,0,223300
256,192,223550,12,0,227550
