osu file format v5

[General]
AudioFilename: fateOP2.ogg
AudioLeadIn: 430
PreviewTime: -1
Countdown: 0
SampleSet: Normal
StackLeniency: 0.7
Mode: 0
LetterboxInBreaks: 1

[Metadata]
Title:Kirameku Namida wa Hoshi ni(TV size)
Artist:Tainaka Sachi
Creator:tom800510
Version:Easy
Source:
Tags:

[Difficulty]
HPDrainRate:2
CircleSize:4
OverallDifficulty:5
SliderMultiplier:1.6
SliderTickRate:4

[Events]
//Background and Video events
1,0,"fate2.avi"
//Break Periods
2,18879,28590
2,47146,61598
//Storyboard Layer 0 (Background)
//Storyboard Layer 1 (Failing)
//Storyboard Layer 2 (Passing)
//Storyboard Layer 3 (Foreground)
//Storyboard Sound Samples
//Background Colour Transformations
3,100,163,162,255

[TimingPoints]
2548,555.555555555556,4,1,0,80,1

[Colours]
Combo1 : 0,128,0
Combo2 : 128,0,0
Combo3 : 0,0,160
Combo4 : 128,64,0

[HitObjects]
128,96,3103,1,0
246,98,3659,1,0
364,98,4214,1,0
365,216,4770,1,0
245,216,5325,1,2
413,313,7548,5,0
294,311,8104,1,0
175,313,8660,1,0
175,194,9215,1,0
294,195,9770,1,2
432,72,11992,5,0
435,190,12548,1,0
435,308,13103,1,0
314,310,13659,1,0
194,311,14214,2,2,L|194:116,1,160
87,79,15325,1,8
59,204,15881,6,2,B|203:162|6:327|218:139|41:346|198:252,1,160
437,318,17548,1,8
432,80,18659,1,8
91,84,29770,5,0
127,290,30742,1,2
436,70,31992,5,0
400,277,32964,1,2
83,80,34214,5,0
291,57,35186,1,2
417,295,36436,5,0
368,259,36714,1,0
312,280,36992,2,0,B|288:332|234:332|202:279,1,120,0|2
442,51,38659,5,0
244,123,39631,1,2
445,303,40881,5,0
392,99,41853,1,2
90,303,43103,5,0
128,96,44075,1,2
245,76,45325,6,2,B|351:78,1,80
345,138,45881,2,2,B|224:138,1,80
243,198,46436,2,2,B|352:198,1,80
347,257,46992,1,4
73,269,62548,6,0,B|61:345,4,40
75,150,63659,1,0
193,151,64214,1,0
192,269,64770,1,0
251,265,65047,1,0
310,264,65325,1,2
390,56,66992,6,0,B|426:100,4,40
271,57,68103,1,0
152,59,68659,1,0
152,177,69214,1,0
211,175,69492,1,0
270,171,69770,1,2
457,327,71436,6,0,B|394:327,4,40
338,324,72548,1,0
218,324,73103,1,0
134,238,73659,1,0
161,184,73936,1,0
219,170,74214,2,2,B|331:168,4,80
256,192,75881,12,4,80881
