osu file format v4

[General]
AudioFilename: Disillusion.mp3
AudioLeadIn: 0
AudioHash: bd6798560b657358d12d8de9cb632c61
PreviewTime: -1
SampleSet: Soft

[Metadata]
Title:Disillusion
Artist:Tainaka Sachi
Creator:Zyid
Version:Hard

[Difficulty]
HPDrainRate:6
CircleSize:5
OverallDifficulty:5
SliderMultiplier: 1.4
SliderTickRate: 1

[Events]
0,0,"FSN.jpg"
2,97619,123183
3,0,128,0,255

[TimingPoints]
22598,357.142857142857,4,2,0

[HitObjects]
96,128,22598,1,0,
128,160,22776,1,0,
96,192,22955,1,0,
128,224,23133,1,0,
160,192,23312,1,0,
192,224,23490,1,0,
224,192,23669,2,2,B|224:192|269:226|275:294|191:343,1,140
192,320,24205,5,6,
288,320,25455,5,0,
256,288,25633,1,0,
288,256,25812,1,0,
256,224,25990,1,0,
224,192,26169,1,0,
256,160,26347,1,0,
224,128,26526,2,2,B|224:128|232:49|166:109|200:50|120:51|178:-25|115:-32,1,140
128,32,27062,5,6,
64,96,28847,6,6,B|64:96|165:57|226:92|218:162|105:285|264:212|250:310|344:210|384:192,1,420
416,192,30276,1,2,
416,192,30812,1,2,
384,288,31347,1,0,
320,320,31705,1,0,
256,288,32062,1,0,
224,320,32240,1,0,
198,266,32597,5,2,
152,272,32776,1,2,
174,230,32955,1,2,
128,226,33133,1,2,
146,186,33312,1,2,
98,182,33490,1,2,
118,144,33669,1,2,
76,134,33847,1,2,
96,96,34026,5,0,
128,64,34205,1,0,
160,96,34383,1,0,
192,64,34562,1,0,
224,96,34740,1,0,
288,128,35097,1,2,
256,192,35633,5,6,
224,96,36883,5,0,
292,144,37240,1,0,
224,192,37597,1,0,
256,224,37776,1,0,
224,256,37955,1,0,
288,308,38312,1,0,
320,288,38490,5,6,
64,288,40276,6,6,B|64:288|64:224|64:128|128:64|224:32|288:32|384:32,1,420
416,32,41705,2,6,B|416:32|546:120|276:148|362:136|570:186|458:210|338:252|384:288,1,280
320,224,43133,1,2,
256,160,43490,1,2,
224,192,43669,1,2,
160,256,44026,1,0,
128,224,44205,1,0,
64,160,44562,1,0,
96,128,44740,1,0,
192,96,45990,5,2,
288,128,46347,1,2,
256,160,46526,1,2,
320,192,46883,1,2,
288,192,47062,1,2,
320,256,47419,1,0,
352,288,47597,1,0,
96,288,48847,6,6,B|96:288|160:288|264:277|224:256|180:157|184:63|494:329|256:128|288:96|416:32,1,420
288,64,50276,1,2,
224,128,50812,1,2,
352,160,51347,1,2,
320,224,51705,1,2,
224,288,52240,1,2,
128,224,52776,1,0,
96,160,53133,1,0,
128,128,53312,6,6,B|128:128|160:128,2,70
192,192,54205,1,6,
256,192,54562,6,2,B|256:192|288:192|320:192|352:160|384:128|384:32,1,210
448,160,55633,1,0,
416,224,55990,1,0,
320,256,56526,1,0,
160,192,57062,1,0,
192,128,57419,2,0,B|192:128|192:64|256:32|320:32|352:96|416:160|384:224|320:320|288:320,1,420
256,288,58847,5,6,
160,256,59562,1,6,
192,96,60276,5,0,
288,160,60812,1,0,
384,224,61347,1,0,
320,256,61705,1,0,
416,320,62240,1,0,
288,320,62776,1,0,
224,288,63133,1,2,
128,192,63669,1,2,
160,96,64205,1,2,
224,64,64562,1,0,
256,96,64740,5,6,
288,128,64919,1,6,
320,160,65097,1,6,
384,224,65633,1,6,
320,256,65990,6,6,B|320:256|288:288|192:288|192:256|160:192|192:160|288:96|256:32|160:0|128:32,1,420
128,96,67419,1,6,
64,160,67955,1,4,
128,224,68490,1,0,
96,288,68847,1,0,
160,320,69205,1,0,
192,288,69383,2,0,B|192:288|226:230|194:134|130:102|204:-43|324:0|386:38|418:134|386:230|290:230|147:152|34:134|2:262|34:326|85:385|167:322|209:286,1,840
256,128,72062,5,6,
192,224,72597,1,6,
320,224,73133,1,6,
256,192,74205,5,6,
354,158,74562,2,6,B|354:158|324:98|293:87|250:88|214:74|154:112|122:154|160:196|129:303|224:228|173:313|283:306|309:301,1,420
281,297,75812,1,6,
384,256,76347,1,2,
416,192,76705,1,2,
384,128,77062,1,2,
320,96,77419,1,2,
288,64,77597,2,2,B|288:64|224:32|160:32|96:64|32:128|64:224|128:288|192:288|320:288|352:256|438:259|416:160|446:99|398:51|352:0,1,770
320,128,79919,5,6,
321,200,80276,2,0,B|321:200|313:238|255:270|181:288|135:270|87:224|81:190|81:136|95:121,1,350
64,96,81347,1,6,
96,64,81526,1,6,
192,96,82062,1,2,
260,118,82419,1,2,
305,174,82776,1,2,
337,206,82955,1,0,
224,224,83312,2,2,B|224:224|145:232|205:166|146:200|147:120|71:178|64:115,1,140
96,224,84026,5,2,
64,256,84205,1,2,
96,288,84383,1,2,
192,320,84740,1,6,
192,192,85633,5,6,
191,120,85990,2,0,B|191:120|199:82|257:50|331:32|377:50|425:96|431:130|431:184|417:199,1,350
448,160,87061,1,6,
416,128,87240,1,6,
320,128,87776,1,0,
224,96,88133,1,0,
160,160,88490,1,0,
128,192,88669,1,0,
96,160,88847,1,0,
64,224,89205,1,6,
224,256,89919,5,2,
256,224,90097,1,6,
224,192,90276,2,2,B|224:192|256:160|224:128,1,70
256,192,91347,5,4,
327,199,91705,2,6,B|327:199|325:128|283:92|196:92|139:133|120:282|254:290|304:283|334:191,1,420
384,256,93133,1,6,
320,320,93490,1,6,
224,320,93847,1,2,
160,256,94205,1,2,
160,160,94562,1,2,
256,192,94740,12,6,97419
256,192,124383,5,6,
160,64,125455,5,2,
192,96,125633,1,2,
160,128,125812,1,2,
128,160,125990,1,2,
160,192,126169,1,2,
192,224,126347,1,2,
192,256,126526,1,0,
320,256,127062,5,4,
448,192,128312,5,2,
416,160,128490,1,2,
384,192,128669,1,2,
352,224,128847,1,2,
320,256,129026,1,2,
288,224,129205,1,2,
256,256,129383,1,0,
160,224,129919,5,4,
192,160,130276,6,2,B|192:160|219:78|307:60|384:128,2,210
256,192,131705,6,6,B|256:192|256:128|320:128|384:160|384:224|338:327|256:320|128:288|160:224,1,420
128,160,133133,1,6,
192,96,133669,1,2,
288,96,134205,1,2,
352,64,134562,1,2,
384,128,134919,1,2,
416,160,135097,1,0,
384,224,135455,5,2,
352,256,135634,1,2,
320,224,135813,1,2,
288,256,135991,1,2,
256,224,136170,1,2,
224,256,136348,1,2,
192,224,136527,1,2,
160,256,136705,1,2,
128,224,136883,5,2,
96,192,137062,1,2,
128,160,137240,1,2,
96,128,137419,1,2,
128,96,137597,1,2,
192,128,137955,1,2,
256,128,138312,1,0,
256,128,138490,5,6,
128,128,139740,5,2,
192,96,140097,1,2,
256,128,140455,1,2,
320,160,140812,1,2,
352,224,141169,1,2,
384,288,141526,6,2,B|384:288|302:298|234:280|160:224,1,210
128,192,142419,1,0,
64,128,142776,1,0,
37,193,143133,6,6,B|37:193|111:98|211:338|275:50|319:228|449:168,1,420
387,267,144562,2,6,B|387:267|352:266|302:244|237:263|201:305|136:270|91:257,1,280
96,128,145990,5,0,
160,96,146347,1,0,
192,128,146526,1,0,
224,192,146883,1,0,
256,160,147062,1,0,
288,224,147419,1,0,
320,256,147597,1,0,
412,32,148847,5,2,
348,96,149205,1,2,
316,128,149383,1,2,
252,192,149740,1,2,
220,224,149919,1,2,
156,288,150276,1,2,
124,320,150455,1,2,
416,288,151705,6,6,B|416:288|352:288|248:277|288:256|332:157|328:63|18:329|256:128|224:96|96:32,1,420
224,64,153134,1,2,
288,128,153670,1,2,
160,160,154205,1,2,
192,224,154563,1,2,
288,288,155098,1,2,
384,224,155634,1,0,
416,160,155991,1,0,
384,128,156170,6,6,B|384:128|352:128,2,70
320,192,157063,1,6,
256,192,157420,6,2,B|256:192|224:192|192:192|160:160|128:128|128:32,1,210
64,160,158491,1,0,
96,224,158848,1,0,
192,256,159384,1,0,
352,192,159920,1,0,
320,128,160277,2,0,B|320:128|320:64|256:32|192:32|160:96|96:160|128:224|192:320|224:320,1,420
256,288,161705,5,6,
352,256,162420,1,6,
320,96,163134,5,0,
224,160,163670,1,0,
128,224,164205,1,0,
192,256,164563,1,0,
96,320,165098,1,0,
224,320,165634,1,0,
288,288,165991,1,2,
384,192,166527,1,2,
352,96,167063,1,2,
288,64,167420,1,0,
256,96,167598,5,6,
224,128,167777,1,6,
192,160,167955,1,6,
128,224,168491,1,6,
192,256,168848,6,6,B|192:256|224:288|320:288|320:256|352:192|320:160|224:96|256:32|352:0|384:32,1,420
384,96,170277,1,6,
448,160,170813,1,4,
384,224,171348,1,0,
416,288,171705,1,0,
352,320,172063,1,0,
320,288,172241,2,0,B|320:288|286:230|318:134|382:102|308:-43|188:0|126:38|94:134|126:230|222:230|365:152|478:134|510:262|478:326|427:385|345:322|303:286,1,840
256,128,174919,5,6,
320,224,175454,1,6,
192,224,175990,1,6,
256,192,177062,5,6,
354,158,177419,2,6,B|354:158|324:98|293:87|250:88|214:74|154:112|122:154|160:196|129:303|224:228|173:313|283:306|309:301,1,420
281,297,178669,1,6,
384,256,179204,1,2,
416,192,179562,1,2,
384,128,179919,1,2,
320,96,180276,1,2,
288,64,180454,2,2,B|288:64|224:32|160:32|96:64|32:128|64:224|128:288|192:288|320:288|352:256|438:259|416:160|446:99|398:51|352:0,1,770
320,128,182776,5,6,
321,200,183133,2,0,B|321:200|313:238|255:270|181:288|135:270|87:224|81:190|81:136|95:121,1,350
64,96,184204,1,6,
96,64,184383,1,6,
192,96,184919,1,2,
260,118,185276,1,2,
305,174,185633,1,2,
337,206,185812,1,0,
224,224,186169,2,2,B|224:224|145:232|205:166|146:200|147:120|71:178|64:115,1,140
96,224,186883,5,2,
64,256,187062,1,2,
96,288,187240,1,2,
192,320,187597,1,6,
192,192,188490,5,6,
191,120,188847,2,0,B|191:120|199:82|257:50|331:32|377:50|425:96|431:130|431:184|417:199,1,350
448,160,189918,1,6,
416,128,190097,1,6,
320,128,190633,1,0,
224,96,190990,1,0,
160,160,191347,1,0,
128,192,191526,1,0,
96,160,191704,1,0,
64,224,192062,1,6,
224,256,192776,5,2,
256,224,192954,1,6,
224,192,193133,2,0,B|224:192|256:160|224:128,1,70
256,192,194205,5,4,
185,199,194562,2,6,B|185:199|187:128|229:92|316:92|373:133|392:282|258:290|208:283|178:191,1,420
128,192,195990,1,6,
160,256,196347,1,6,
224,288,196704,1,2,
288,288,197062,1,2,
352,256,197419,2,0,B|352:256|416:192|416:96|357:9|255:-11|151:17|81:93|77:209|149:339|279:317|352:256,1,770
416,288,199919,5,0,
416,192,200276,2,6,B|416:192|416:128|353:39|229:-3|126:10|32:32,1,420
64,64,201526,1,4,
128,160,202062,1,0,
64,192,202419,1,0,
128,224,202776,1,0,
192,192,203133,1,0,
224,160,203312,2,0,B|224:160|288:192|384:160|416:96|498:143|512:281|478:343|384:384|248:351|288:256|375:104|384:0|280:-29|184:3|76:51|278:261|232:175,1,770
96,288,205633,5,0,
96,192,205990,2,6,B|96:192|96:128|159:39|283:-3|386:10|480:32,1,420
448,64,207240,1,4,
384,160,207776,1,0,
320,192,208133,1,0,
256,224,208490,1,0,
224,192,208669,1,0,
160,224,209026,1,0,
64,128,209919,5,6,
160,64,210455,2,2,B|160:64|224:32,2,70
256,192,211347,5,0,
185,185,211705,2,6,B|185:185|187:256|229:292|316:292|373:251|392:102|258:94|208:101|178:193,1,420
160,128,212955,1,6,
160,32,213490,1,0,
128,64,213669,1,0,
96,96,213847,1,0,
32,160,214205,1,0,
64,192,214383,1,0,
128,256,214740,1,0,
320,256,215633,5,6,
352,224,215812,1,4,
416,160,216169,1,2,
480,64,217062,5,2,
416,64,217419,2,0,B|416:64|128:64,1,280
64,64,218490,1,6,
64,128,218847,1,0,
64,192,219205,1,0,
64,256,219562,1,0,
64,320,219919,1,0,
256,192,220097,12,0,223133
352,96,225097,5,2,
320,64,225276,1,2,
288,96,225455,1,2,
256,128,225633,1,2,
224,96,225812,1,2,
192,128,225990,1,2,
160,160,226169,1,2,
96,128,226526,1,2,
64,224,226972,1,6,
32,288,227240,1,4,
0,352,228848,5,6,
64,288,229383,1,6,
160,192,230276,5,6,
224,128,230812,1,6,
256,224,231705,5,6,
320,160,232240,1,6,
416,64,233133,5,6,
480,0,233669,1,2,
256,192,235990,5,6,
