osu file format v6

[General]
AudioFilename: Kechadon 2000.mp3
AudioLeadIn: 0
PreviewTime: -1
Countdown: 1
SampleSet: Soft
StackLeniency: 0.7
Mode: 1
LetterboxInBreaks: 1

[Editor]
DistanceSpacing: 0.800000011920929
BeatDivisor: 2
GridSize: 64

[Metadata]
Title:Kechadon2000
Artist:Taiko no tatsujin
Creator:samiljul
Version:Taiko Muzukashii
Source:
Tags:

[Difficulty]
HPDrainRate:6
CircleSize:5
OverallDifficulty:4
SliderMultiplier:1.4
SliderTickRate:1

[Events]
//Background and Video events
//Break Periods
2,94830,95457
//Storyboard Layer 0 (Background)
//Storyboard Layer 1 (Fail)
//Storyboard Layer 2 (Pass)
//Storyboard Layer 3 (Foreground)
//Storyboard Sound Samples
//Background Colour Transformations
3,100,163,162,255

[TimingPoints]
2238,545.454545454545,4,2,0,100,1,0
8783,545.454545454545,4,2,0,100,1,1
26191,-100,4,2,0,100,0,0
39828,500,4,2,0,100,1,1
55828,500,4,2,0,100,1,0
71828,480,4,2,0,100,1,1
94868,545.454545454545,4,2,0,100,1,0

[HitObjects]
256,192,2238,1,0
256,192,2783,1,8
256,192,3328,1,0
256,192,3874,1,8
256,192,4419,1,0
256,192,4965,1,8
256,192,5510,1,0
256,192,6056,1,8
256,192,6601,1,0
256,192,7147,1,8
256,192,7965,1,4
256,192,8237,1,4
256,192,8510,1,4
256,192,8783,5,0
256,192,8919,1,0
256,192,9055,1,0
256,192,9192,1,0
256,192,9328,1,0
256,192,9464,1,0
256,192,9737,1,0
256,192,9873,1,0
256,192,10010,1,0
256,192,10283,1,0
256,192,10419,1,0
256,192,10555,1,0
256,192,10692,1,0
256,192,10964,5,0
256,192,11100,1,0
256,192,11236,1,0
256,192,11373,1,0
256,192,11509,1,0
256,192,11645,1,0
256,192,11918,1,0
256,192,12054,1,0
256,192,12191,1,0
256,192,12464,1,0
256,192,12600,1,0
256,192,12736,1,0
256,192,12873,1,0
256,192,13146,5,0
256,192,13282,1,0
256,192,13418,1,0
256,192,13555,1,0
256,192,13691,1,0
256,192,13827,1,0
256,192,14100,1,0
256,192,14236,1,0
256,192,14373,1,0
256,192,14646,1,0
256,192,14782,1,0
256,192,14918,1,0
256,192,15055,1,0
256,192,15328,5,0
256,192,15464,1,0
256,192,15600,1,0
256,192,15737,1,0
256,192,15873,1,0
256,192,16009,1,0
256,192,16282,1,0
256,192,16418,1,0
256,192,16555,1,0
256,192,16828,1,0
256,192,16964,1,0
256,192,17100,1,0
256,192,17237,1,0
256,192,17510,5,0
256,192,17646,1,0
256,192,17782,1,0
256,192,17919,1,0
256,192,18055,1,0
256,192,18191,1,8
256,192,18464,1,0
256,192,18600,1,0
256,192,18737,1,8
256,192,19010,1,0
256,192,19146,1,0
256,192,19282,1,0
256,192,19419,1,8
256,192,19692,5,0
256,192,19828,1,0
256,192,19964,1,0
256,192,20101,1,0
256,192,20237,1,0
256,192,20373,1,8
256,192,20646,1,0
256,192,20782,1,0
256,192,20919,1,8
256,192,21192,1,0
256,192,21328,1,0
256,192,21464,1,0
256,192,21601,1,8
256,192,21873,5,0
256,192,22009,1,0
256,192,22145,1,0
256,192,22282,1,0
256,192,22418,1,0
256,192,22554,1,8
256,192,22827,1,0
256,192,22963,1,0
256,192,23100,1,8
256,192,23373,1,0
256,192,23509,1,0
256,192,23645,1,0
256,192,23782,1,8
256,192,24055,5,0
256,192,24191,1,0
256,192,24327,1,0
256,192,24464,1,0
256,192,24600,1,0
256,192,24736,1,8
256,192,25009,1,0
256,192,25145,1,0
256,192,25282,1,8
256,192,25555,1,0
256,192,25691,1,0
256,192,25827,1,0
256,192,25964,1,8
256,192,26237,5,0
256,192,26510,1,0
256,192,26782,1,0
256,192,27055,1,0
256,192,28146,1,0
256,192,28419,1,0
256,192,28692,1,0
256,192,28964,1,0
256,192,30056,1,0
256,192,30329,1,0
256,192,30601,1,0
256,192,30874,1,0
256,192,31964,1,0
256,192,32237,1,0
256,192,32510,1,0
256,192,33873,1,0
256,192,34146,1,0
256,192,34419,1,0
256,192,34692,1,0
256,192,35782,1,0
256,192,36055,1,0
256,192,36328,1,0
256,192,36601,1,0
256,192,39056,5,4
256,192,39329,1,4
256,192,39602,1,4
256,192,39828,5,0
256,192,39953,1,0
256,192,40078,1,0
256,192,40203,1,0
256,192,40328,1,8
256,192,40453,1,0
256,192,40703,1,0
256,192,40828,1,8
256,192,40953,1,0
256,192,41203,1,0
256,192,41328,1,8
256,192,41453,1,0
256,192,41578,1,0
256,192,41828,5,0
256,192,41953,1,0
256,192,42078,1,0
256,192,42203,1,0
256,192,42328,1,8
256,192,42453,1,0
256,192,42703,1,0
256,192,42828,1,8
256,192,42953,1,0
256,192,43203,1,0
256,192,43328,1,8
256,192,43453,1,0
256,192,43578,1,0
256,192,43828,5,0
256,192,43953,1,0
256,192,44078,1,0
256,192,44203,1,0
256,192,44328,1,8
256,192,44453,1,0
256,192,44703,1,0
256,192,44828,1,8
256,192,44953,1,0
256,192,45203,1,0
256,192,45328,1,8
256,192,45453,1,0
256,192,45578,1,0
256,192,45828,5,0
256,192,45953,1,0
256,192,46078,1,0
256,192,46203,1,0
256,192,46328,1,8
256,192,46453,1,0
256,192,46703,1,0
256,192,46828,1,8
256,192,46953,1,0
256,192,47203,1,0
256,192,47328,1,8
256,192,47453,1,0
256,192,47578,1,0
256,192,47828,5,0
256,192,47953,1,0
256,192,48078,1,8
256,192,48203,1,0
256,192,48328,1,8
256,192,48453,1,0
256,192,48703,1,0
256,192,48828,1,8
256,192,48953,1,0
256,192,49203,1,0
256,192,49328,1,8
256,192,49453,1,0
256,192,49578,1,8
256,192,49828,5,0
256,192,49953,1,0
256,192,50078,1,8
256,192,50203,1,0
256,192,50328,1,8
256,192,50453,1,0
256,192,50703,1,0
256,192,50828,1,8
256,192,50953,1,0
256,192,51203,1,0
256,192,51328,1,8
256,192,51453,1,0
256,192,51578,1,8
256,192,51828,5,0
256,192,51953,1,0
256,192,52078,1,8
256,192,52203,1,0
256,192,52328,1,8
256,192,52453,1,0
256,192,52703,1,0
256,192,52828,1,8
256,192,52953,1,0
256,192,53203,1,0
256,192,53328,1,8
256,192,53453,1,0
256,192,53578,1,8
256,192,53828,5,0
256,192,53953,1,0
256,192,54078,1,8
256,192,54203,1,0
256,192,54328,1,8
256,192,54453,1,0
256,192,54703,1,0
256,192,54828,1,8
256,192,54953,1,0
256,192,55203,1,0
256,192,55328,1,8
256,192,55453,1,0
256,192,55578,1,8
256,192,55828,5,0
256,192,57328,1,0
256,192,58328,1,0
256,192,58494,1,0
256,192,58661,1,0
256,192,58828,1,0
256,192,60328,1,0
256,192,61328,1,0
256,192,61494,1,0
256,192,61661,1,0
256,192,61828,1,0
256,192,63328,1,0
256,192,64328,1,0
256,192,64494,1,0
256,192,64661,1,0
256,192,64828,1,0
256,192,66328,1,0
256,192,67328,1,0
256,192,67494,1,0
256,192,67661,1,0
256,192,67828,1,0
256,192,71078,5,4
256,192,71328,1,4
256,192,71578,1,4
256,192,71828,5,0
256,192,71948,1,0
256,192,72068,1,0
256,192,72188,1,0
256,192,72308,1,0
256,192,72428,1,0
256,192,72668,1,0
256,192,72788,1,0
256,192,72908,1,0
256,192,73148,1,0
256,192,73268,1,0
256,192,73388,1,0
256,192,73508,1,0
256,192,73748,5,0
256,192,73868,1,0
256,192,73988,1,0
256,192,74108,1,0
256,192,74228,1,0
256,192,74348,1,0
256,192,74588,1,0
256,192,74708,1,0
256,192,74828,1,0
256,192,75068,1,0
256,192,75188,1,0
256,192,75308,1,0
256,192,75428,1,0
256,192,75668,5,0
256,192,75788,1,0
256,192,75908,1,0
256,192,76028,1,0
256,192,76148,1,0
256,192,76268,1,8
256,192,76508,1,0
256,192,76628,1,0
256,192,76748,1,8
256,192,76988,1,0
256,192,77108,1,0
256,192,77228,1,0
256,192,77348,1,8
256,192,77588,5,0
256,192,77708,1,0
256,192,77828,1,0
256,192,77948,1,0
256,192,78068,1,0
256,192,78188,1,8
256,192,78428,1,0
256,192,78548,1,0
256,192,78668,1,8
256,192,78908,1,0
256,192,79028,1,0
256,192,79148,1,0
256,192,79268,1,8
256,192,79508,5,0
256,192,79628,1,0
256,192,79748,1,0
256,192,79868,1,0
256,192,79988,1,8
256,192,80108,1,0
256,192,80348,1,0
256,192,80468,1,8
256,192,80588,1,0
256,192,80829,1,0
256,192,80948,1,8
256,192,81068,1,0
256,192,81188,1,0
256,192,81429,5,0
256,192,81549,1,0
256,192,81669,1,0
256,192,81789,1,0
256,192,81909,1,8
256,192,82029,1,0
256,192,82269,1,0
256,192,82389,1,8
256,192,82509,1,0
256,192,82750,1,0
256,192,82869,1,8
256,192,82989,1,0
256,192,83109,1,0
256,192,83349,5,0
256,192,83469,1,0
256,192,83589,1,8
256,192,83709,1,0
256,192,83829,1,8
256,192,83949,1,0
256,192,84189,1,0
256,192,84309,1,8
256,192,84429,1,0
256,192,84670,1,0
256,192,84789,1,8
256,192,84909,1,0
256,192,85029,1,8
256,192,85269,5,0
256,192,85389,1,0
256,192,85509,1,8
256,192,85629,1,0
256,192,85749,1,8
256,192,85869,1,0
256,192,86109,1,0
256,192,86229,1,8
256,192,86349,1,0
256,192,86590,1,0
256,192,86709,1,8
256,192,86829,1,0
256,192,86949,1,8
256,192,87189,5,0
256,192,87309,1,0
256,192,87429,1,0
256,192,87549,1,0
256,192,87669,1,0
256,192,87789,1,0
256,192,87909,1,0
256,192,88029,1,0
256,192,88149,1,8
256,192,88269,1,8
256,192,88389,1,8
256,192,88510,1,8
256,192,88630,1,8
256,192,88750,1,8
256,192,88870,1,8
256,192,89110,5,0
256,192,89230,1,0
256,192,89350,1,0
256,192,89470,1,0
256,192,89590,1,8
256,192,89710,1,8
256,192,89830,1,8
256,192,89950,1,8
256,192,90070,1,0
256,192,90190,1,0
256,192,90310,1,0
256,192,90430,1,0
256,192,90550,1,8
256,192,90670,1,8
256,192,90790,1,8
256,192,91030,5,0
256,192,91150,1,0
256,192,91270,1,8
256,192,91390,1,8
256,192,91510,1,0
256,192,91630,1,0
256,192,91750,1,8
256,192,91870,1,8
256,192,91990,1,0
256,192,92110,1,0
256,192,92230,1,8
256,192,92350,1,8
256,192,92470,1,0
256,192,92590,1,0
256,192,92710,1,8
256,192,92950,5,0
256,192,93070,1,8
256,192,93190,5,0
256,192,93310,1,8
256,192,93430,5,0
256,192,93550,1,8
256,192,93670,5,0
256,192,93790,1,8
256,192,93910,5,0
256,192,94030,1,8
256,192,94150,5,0
256,192,94270,1,8
256,192,94390,5,0
256,192,94510,1,8
256,192,94630,5,0
256,192,96777,5,0
256,192,97594,1,4
