osu file format v6

[General]
AudioFilename: Kechadon 2000.mp3
AudioLeadIn: 0
PreviewTime: 26231
Countdown: 1
SampleSet: Soft
StackLeniency: 0.7
Mode: 0
LetterboxInBreaks: 1
SkinPreference:taiko

[Editor]
DistanceSpacing: 0.800000011920929
BeatDivisor: 1
GridSize: 16

[Metadata]
Title:Kechadon2000
Artist:Taiko no tatsujin
Creator:samiljul
Version:Easy
Source:
Tags:

[Difficulty]
HPDrainRate:2
CircleSize:3
OverallDifficulty:2
SliderMultiplier:1.6
SliderTickRate:2

[Events]
//Background and Video events
//Break Periods
//Storyboard Layer 0 (Background)
//Storyboard Layer 1 (Fail)
//Storyboard Layer 2 (Pass)
//Storyboard Layer 3 (Foreground)
//Storyboard Sound Samples
//Background Colour Transformations
3,100,163,162,255

[TimingPoints]
2238,545.295913915952,4,2,0,100,1,0
8737,-100,4,2,0,100,0,0
26231,-100,4,2,0,100,0,0
39828,500,4,2,0,100,1,0
55828,-100,4,2,0,100,0,0
71828,480,4,2,0,100,1,1
94868,545.454545454545,4,2,0,100,1,0

[Colours]
Combo1 : 26,140,255
Combo2 : 217,0,0

[HitObjects]
128,80,2238,5,0
128,192,3328,1,0
192,288,4419,2,0,B|384:256|480:112|432:32,1,320
336,96,6055,1,0
256,96,6600,1,0
256,176,7145,1,0
256,256,7690,2,0,B|128:240|64:96,1,160
96,80,8781,6,0,B|448:80,1,320
432,160,10417,1,0
432,240,10962,2,0,B|48:240,1,320
80,160,12598,1,0
128,48,13143,6,0,B|416:64|480:352,1,480
384,320,15325,2,0,B|240:320|64:160,1,320
160,128,16960,1,4
256,64,17506,5,0
352,64,18051,1,0
448,64,18596,1,0
448,224,19687,1,0
448,304,20232,1,0
368,304,20778,1,0
192,304,21868,1,0
112,304,22413,1,0
112,224,22959,1,0
112,128,24049,2,0,B|288:64|480:144,1,320
432,208,25685,1,4
144,80,28412,6,0,B|512:80,1,320
400,304,30593,2,0,B|48:304,1,320
80,224,32774,2,0,B|160:96|336:32,1,320
448,144,34955,2,0,B|400:304|176:336,1,320
256,208,37136,1,0
256,128,37682,1,0
256,48,38227,1,8
368,48,38772,2,0,B|448:160|305:282,1,160
384,288,39828,6,0,B|208:288,1,160
112,288,40828,2,0,B|112:96,1,160
112,48,41828,2,0,B|304:48,1,160
368,48,42828,2,0,B|368:224,1,160
368,288,43828,5,0
288,288,44328,1,0
208,288,44828,1,0
96,224,45828,1,0
96,144,46328,1,0
96,64,46828,1,0
192,0,47828,2,0,B|368:16|512:224|288:352|432:224,1,320
304,288,49828,2,0,B|144:304|48:64|80:80|64:64,1,320
240,32,51828,6,0,B|416:32|496:208,1,320
384,336,53828,2,0,B|240:352|96:144,1,320
192,128,55328,1,4
96,96,57828,6,0,B|96:320,2,160
432,96,60328,2,0,B|432:288,2,160
176,288,62828,2,0,B|384:288,2,160
176,80,65828,2,0,B|400:80,2,160
256,192,67828,5,4
96,96,71828,6,0,B|352:64|432:144,1,320
448,224,73748,2,0,B|352:320|128:320,1,320
89,279,75668,2,0,B|9:151|212:12,1,320
304,48,77588,2,0,B|480:192|400:336,1,320
288,320,79508,5,0
208,320,79988,1,0
128,320,80468,1,0
128,176,81428,1,0
128,96,81908,1,0
128,16,82388,1,0
256,16,83348,5,0
336,16,83828,1,0
416,16,84308,1,0
416,144,85268,1,0
416,224,85748,1,0
416,304,86228,1,0
320,304,87188,6,0,B|96:272|80:48,1,320
176,48,89108,2,0,B|368:64|448:256,1,320
384,288,91028,5,0
320,288,91508,1,0
256,288,91988,1,0
192,288,92468,1,0
128,288,92948,1,0
128,224,93428,1,0
128,160,93908,1,0
256,208,94868,12,4,97595
