osu file format v5

[General]
AudioFilename: (Namco Original)Warera Muteki no Dokon Dan.mp3
AudioLeadIn: 2007
PreviewTime: 22333
Countdown: 1
SampleSet: Normal
StackLeniency: 0.4
Mode: 1
LetterboxInBreaks: 1
SkinPreference:taiko
EditorBookmarks: 72398

[Metadata]
Title:Warera Muteki no Dokon Dan
Artist:Taiko no Tatsujin
Creator:Zekira
Version:Taiko-Oni
Source:
Tags:taiko no tatsujin

[Difficulty]
HPDrainRate:7
CircleSize:5
OverallDifficulty:8
SliderMultiplier:1.8
SliderTickRate:2

[Events]
//Background and Video events
0,0,"dokon.jpg"
//Break Periods
//Storyboard Layer 0 (Background)
//Storyboard Layer 1 (Failing)
//Storyboard Layer 2 (Passing)
//Storyboard Layer 3 (Foreground)
//Storyboard Sound Samples
//Background Colour Transformations
3,100,255,128,255

[TimingPoints]
876,413.422448838972,4,1,0,100,1,0
7490,-100,4,1,0,100,0,1
22373,-100,4,1,0,100,0,0
62062,-100,4,1,0,100,0,1
73660,413.422448838972,4,1,0,100,1,0
96812,413.422448838972,4,1,0,100,1,1

[Colours]
Combo1 : 112,196,193
Combo2 : 243,89,34
Combo3 : 112,196,193
Combo4 : 243,89,34

[HitObjects]
256,192,875,1,0
344,192,1186,1,0
344,192,1289,1,0
344,96,1496,1,0
432,96,1702,1,0
256,192,2116,5,2
256,192,2529,5,0
168,192,2839,1,0
168,192,2943,1,0
168,288,3149,1,0
80,288,3356,1,0
80,192,3563,5,2
80,144,3666,1,2
80,96,3769,1,2
168,96,3976,1,2
256,192,4183,5,0
344,192,4493,1,0
344,192,4596,1,0
344,288,4803,1,0
432,288,5010,1,0
432,192,5216,5,2
432,192,5423,1,2
256,192,5837,5,0
168,192,6147,1,0
168,192,6250,1,0
168,96,6457,1,0
80,96,6663,1,0
80,232,6870,5,2
128,232,6973,1,2
176,232,7077,1,2
312,232,7284,1,2
312,136,7490,5,0
312,40,7697,1,0
312,40,7800,1,0
312,40,7904,1,0
400,40,8110,1,0
400,40,8214,1,0
400,40,8317,1,0
400,136,8524,1,0
400,136,8627,1,0
400,136,8731,1,0
400,224,8937,5,2
400,312,9144,5,0
304,312,9351,1,0
304,312,9454,1,0
304,312,9557,1,0
208,312,9764,5,2
112,312,9971,5,0
112,216,10178,5,2
112,168,10281,1,2
112,120,10384,5,0
16,120,10591,5,2
16,208,10798,5,0
16,296,11004,1,0
64,296,11108,1,0
104,296,11211,1,0
192,296,11418,5,2
280,296,11624,5,0
368,296,11831,1,0
416,296,11935,1,0
464,296,12038,1,0
464,208,12245,5,2
464,112,12451,5,0
464,64,12555,1,0
464,16,12658,1,0
368,16,12865,5,2
184,16,13278,5,0
184,64,13382,1,0
184,112,13485,1,0
184,200,13692,5,2
272,200,13898,1,2
320,200,14002,1,2
360,200,14105,5,0
360,112,14312,5,2
360,112,14415,1,2
360,112,14518,1,2
360,24,14725,5,0
448,24,14932,5,2
448,112,15139,1,2
448,152,15242,1,2
448,192,15345,5,0
448,280,15552,5,2
360,280,15759,5,0
272,280,15965,5,2
224,280,16069,1,2
176,280,16172,1,2
88,280,16379,1,2
88,368,16586,5,0
176,368,16792,5,2
224,368,16896,1,2
272,368,16999,5,0
360,368,17206,5,2
448,368,17412,5,0
448,280,17619,5,2
448,192,17826,1,2
448,144,17929,1,2
448,96,18033,5,0
360,96,18239,5,6
360,272,18653,5,0
272,272,18859,5,2
184,272,19066,5,0
96,272,19273,1,0
96,224,19376,1,0
96,176,19480,1,0
96,88,19686,5,2
8,88,19893,5,0
8,176,20100,1,0
8,224,20203,1,0
8,272,20306,1,0
8,360,20513,5,2
96,360,20720,5,0
184,360,20926,1,0
232,360,21030,1,0
280,360,21133,1,0
368,360,21340,1,0
456,360,21547,1,0
456,272,21753,5,2
456,184,21960,1,2
456,136,22063,1,2
456,88,22167,5,0
368,88,22373,1,0
256,192,22684,1,0
256,192,22787,5,2
168,192,22994,5,0
80,192,23200,5,2
80,104,23407,1,2
80,104,23510,5,0
80,104,23614,1,0
168,104,23820,5,2
256,104,24027,5,0
392,104,24337,1,0
392,104,24441,5,2
480,104,24647,5,0
480,192,24854,5,2
480,280,25061,1,2
480,280,25164,1,2
480,280,25267,5,0
480,368,25474,5,2
392,368,25681,5,0
304,368,25888,1,0
256,368,25991,1,0
208,368,26094,5,2
120,368,26301,5,0
32,368,26508,1,0
32,280,26714,1,0
32,232,26818,1,0
32,184,26921,5,2
32,96,27128,5,0
32,8,27335,1,4
120,8,27541,1,4
296,8,27955,1,4
384,8,28161,1,4
472,8,28368,5,2
472,96,28575,1,2
472,96,28678,1,2
472,96,28782,5,0
472,184,28988,1,0
472,320,29298,1,0
472,320,29402,5,2
384,320,29608,5,0
296,320,29815,5,2
208,320,30022,1,2
160,320,30125,5,0
112,320,30228,1,0
24,320,30435,5,2
24,232,30642,5,0
24,232,30745,1,0
24,232,30849,5,2
24,232,30952,1,2
24,232,31055,5,0
112,232,31262,5,2
200,232,31469,5,0
288,232,31675,5,2
336,232,31779,1,2
376,232,31882,5,0
464,232,32089,5,2
464,144,32296,5,0
464,56,32502,1,0
416,56,32606,1,0
368,56,32709,5,2
280,56,32916,5,0
192,56,33122,1,0
104,56,33329,1,0
56,56,33433,1,0
8,56,33536,5,2
8,144,33743,5,0
8,232,33949,1,4
184,232,34363,1,4
272,232,34569,5,6
360,232,34776,5,4
88,232,35396,5,2
88,144,35603,5,0
88,144,35706,1,0
88,144,35810,1,0
176,144,36016,5,2
176,144,36120,1,2
176,144,36223,1,2
264,144,36430,5,0
312,144,36533,1,0
360,144,36637,5,2
448,144,36843,1,2
448,192,36947,1,2
448,240,37050,5,0
448,328,37257,1,0
448,328,37360,1,0
448,328,37463,1,0
360,328,37670,5,2
360,328,37773,1,2
360,328,37877,1,2
272,328,38084,5,0
224,328,38187,1,0
176,328,38290,5,2
88,328,38497,1,2
88,280,38600,1,2
88,232,38704,5,0
88,144,38910,1,0
88,144,39014,1,0
88,144,39117,5,2
88,56,39324,5,0
88,56,39427,1,0
88,56,39530,5,2
88,144,39737,5,0
88,144,39841,1,0
88,144,39944,5,2
88,56,40151,5,0
88,56,40254,1,0
88,56,40357,5,2
88,144,40564,5,0
88,144,40667,1,0
88,144,40771,5,2
88,56,40977,5,0
88,56,41081,1,0
88,56,41184,5,2
176,56,41391,5,0
216,56,41494,1,0
264,56,41598,5,2
304,56,41701,1,2
344,56,41804,5,0
344,144,42011,5,2
424,144,42218,5,0
424,144,42321,1,0
424,144,42424,5,2
424,56,42631,5,0
424,56,42735,1,0
424,56,42838,5,2
424,144,43045,5,0
424,144,43148,1,0
424,144,43251,5,2
424,56,43458,5,0
424,56,43561,1,0
424,56,43665,5,2
336,56,43871,5,0
336,56,43975,1,0
336,56,44078,1,0
336,144,44285,5,2
336,144,44388,1,2
336,144,44492,1,2
336,56,44698,5,0
336,56,44802,1,0
336,56,44905,1,0
336,144,45112,5,2
336,144,45215,1,2
336,144,45318,1,2
256,192,45525,5,4
256,192,45732,5,6
256,280,45939,5,0
256,280,46145,1,0
256,192,46352,1,4
256,192,46559,5,6
256,104,46765,5,0
256,104,46972,1,0
256,16,47179,2,4,L|488:16|488:128|488:176,1,360
256,192,48833,5,6
256,192,49039,1,6
256,192,49246,1,6
256,192,49453,1,6
256,192,49659,1,6
256,192,50073,1,6
432,192,50486,5,4
432,8,50900,1,4
344,8,51106,2,4,L|120:8,1,180
256,192,52140,5,6
256,192,52347,1,6
256,192,52553,1,6
256,192,52760,1,6
256,192,52967,1,6
256,192,53380,1,6
80,192,53794,5,4
80,104,54000,1,4
80,8,54207,1,4
168,8,54414,2,4,L|376:8,1,180
256,264,55447,1,0
344,264,55654,1,0
392,264,55757,1,0
440,264,55861,1,0
440,192,56067,1,0
440,104,56274,5,2
352,104,56481,1,2
304,104,56584,1,2
256,104,56688,1,2
256,192,56894,1,2
168,192,57101,5,0
80,192,57308,1,0
32,192,57411,1,0
32,232,57514,1,0
32,320,57721,1,0
208,320,58135,5,2
208,320,58238,1,2
208,320,58341,5,0
384,320,58755,1,0
384,232,58961,1,0
384,184,59065,1,0
384,136,59168,5,2
384,48,59375,5,0
472,48,59581,1,0
472,136,59788,1,0
472,184,59892,1,0
472,232,59995,5,2
472,320,60202,5,0
256,192,60408,12,0,61649
256,192,62062,5,0
344,192,62269,5,0
392,192,62372,1,0
440,192,62475,5,2
440,104,62682,1,2
392,104,62786,5,0
344,104,62889,1,0
256,104,63096,5,2
256,192,63302,1,2
256,240,63406,1,2
256,288,63509,5,0
256,192,63716,1,0
168,192,63922,1,0
120,192,64026,1,0
72,192,64129,5,2
72,280,64336,1,2
120,280,64439,5,0
168,280,64543,1,0
256,280,64749,5,2
256,192,64956,1,2
256,144,65059,1,2
256,96,65163,5,0
344,96,65369,1,0
344,192,65576,1,0
344,240,65679,1,0
344,288,65783,5,2
432,288,65990,5,0
432,288,66093,1,0
432,288,66196,1,0
432,192,66403,1,0
432,144,66506,1,0
432,96,66610,5,2
432,8,66816,5,0
432,8,66920,1,0
432,8,67023,1,0
344,8,67230,1,0
296,8,67333,1,0
248,8,67437,5,2
160,8,67643,5,0
160,8,67747,1,0
160,8,67850,1,0
72,8,68057,1,0
72,56,68160,1,0
72,104,68263,5,2
72,192,68470,5,0
256,192,69090,1,4
256,192,69297,1,4
256,192,69504,1,4
256,192,70124,1,4
256,192,70330,2,4,L|256:8|480:8|480:320|280:320,1,900
424,240,73660,1,0
424,240,73763,1,0
424,240,73866,5,2
424,328,74073,5,0
424,328,74176,1,0
424,328,74280,5,2
424,240,74486,5,0
424,240,74590,1,0
424,240,74693,5,2
424,328,74900,5,0
424,328,75003,1,0
424,328,75106,5,2
424,240,75313,5,0
424,240,75417,1,0
424,240,75520,5,2
424,328,75727,5,0
424,328,75830,1,0
424,328,75933,5,2
336,328,76140,5,0
296,328,76243,1,0
248,328,76347,5,2
208,328,76450,1,2
168,328,76553,5,0
168,240,76760,5,2
88,240,76967,5,0
88,240,77070,1,0
88,240,77174,5,2
88,328,77380,5,0
88,328,77484,1,0
88,328,77587,5,2
88,240,77794,5,0
88,240,77897,1,0
88,240,78000,5,2
88,328,78207,5,0
88,328,78311,1,0
88,328,78414,5,2
176,328,78621,5,0
176,328,78724,1,0
176,328,78827,1,0
176,240,79034,5,2
176,240,79137,1,2
176,240,79241,1,2
176,328,79447,5,0
176,328,79551,1,0
176,328,79654,1,0
176,240,79861,5,2
176,240,79964,1,2
176,240,80068,1,2
256,192,80274,5,4
256,192,80481,5,6
256,104,80688,5,0
256,104,80894,1,0
256,192,81101,1,4
256,192,81308,5,6
256,280,81515,5,0
256,280,81721,1,0
256,368,81928,2,4,L|24:368|24:256|24:208,1,360
256,192,83582,1,4
256,192,83788,1,4
256,192,83995,1,4
256,192,84202,1,4
256,192,84408,1,4
256,192,84822,1,4
80,192,85235,5,6
80,376,85649,1,6
168,376,85855,2,6,L|384:376,1,180
256,192,86889,5,4
256,192,87302,1,4
256,192,87716,1,4
256,192,88129,1,4
432,192,88543,5,6
432,280,88749,1,6
432,376,88956,1,6
344,376,89163,2,6,L|128:376,1,180
256,120,90196,5,0
168,120,90403,1,0
120,120,90506,1,0
72,120,90610,1,0
72,192,90817,1,0
72,280,91023,5,2
160,280,91230,1,2
208,280,91333,1,2
256,280,91437,1,2
256,192,91643,1,2
344,192,91850,5,0
432,192,92057,1,0
480,192,92160,1,0
480,152,92264,1,0
480,64,92470,1,0
304,64,92884,5,2
304,64,92987,1,2
304,64,93090,5,0
128,64,93504,1,0
128,152,93710,1,0
128,200,93814,1,0
128,248,93917,5,2
128,336,94124,5,0
40,336,94331,1,0
40,248,94537,1,0
40,200,94641,1,0
40,152,94744,5,2
40,64,94951,5,0
256,192,95157,12,0,96398
256,192,96812,5,0
168,192,97018,5,0
120,192,97122,1,0
72,192,97225,5,2
72,280,97432,1,2
120,280,97535,5,0
168,280,97638,1,0
256,280,97845,5,2
256,192,98052,1,2
256,144,98155,1,2
256,96,98258,5,0
256,192,98465,1,0
344,192,98672,1,0
392,192,98775,1,0
440,192,98879,5,2
440,104,99085,1,2
392,104,99189,5,0
344,104,99292,1,0
256,104,99499,5,2
256,192,99705,1,2
256,240,99809,1,2
256,288,99912,5,0
168,288,100119,1,0
168,192,100326,1,0
168,144,100429,1,0
168,96,100532,5,2
80,96,100739,5,0
80,96,100842,1,0
80,96,100946,1,0
80,192,101152,1,0
80,240,101256,1,0
80,288,101359,5,2
80,376,101566,5,0
80,376,101669,1,0
80,376,101773,1,0
168,376,101979,1,0
216,376,102083,1,0
264,376,102186,5,2
352,376,102393,5,0
352,376,102496,1,0
352,376,102599,1,0
440,376,102806,1,0
440,328,102909,1,0
440,280,103013,5,2
440,192,103220,5,0
256,192,103840,1,4
256,192,104046,1,4
256,192,104253,1,4
256,192,104873,1,4
256,192,105080,6,6,L|256:8|488:8|488:360|24:360|24:304,1,1260
32,152,108387,5,4
120,152,108594,1,4
296,152,109007,1,4
384,152,109214,5,6
384,328,109628,1,6
296,328,109834,5,4
208,328,110041,1,0
160,328,110144,1,0
112,328,110248,1,0
64,328,110351,1,0
64,280,110454,5,2
64,232,110558,1,2
64,184,110661,1,2
64,96,110868,5,0
112,96,110971,1,0
160,96,111075,5,2
248,96,111281,1,2
296,96,111385,1,2
344,96,111488,5,0
432,96,111695,1,0
432,144,111798,1,0
432,192,111901,5,2
432,240,112005,1,2
432,288,112108,5,0
344,288,112315,1,0
256,288,112522,5,2
256,192,112935,1,6
