osu file format v5

[General]
AudioFilename: (Namco Original)Warera Muteki no Dokon Dan.mp3
AudioLeadIn: 2007
PreviewTime: 22333
Countdown: 1
SampleSet: Normal
StackLeniency: 0.4
Mode: 0
LetterboxInBreaks: 1
SkinPreference:taiko
EditorBookmarks: 72398

[Metadata]
Title:Warera Muteki no Dokon Dan
Artist:Taiko no Tatsujin
Creator:Zekira
Version:Osu-Muzukashii
Source:
Tags:taiko no tatsujin

[Difficulty]
HPDrainRate:6
CircleSize:4
OverallDifficulty:7
SliderMultiplier:1.5
SliderTickRate:2

[Events]
//Background and Video events
0,0,"dokon.jpg"
//Break Periods
//Storyboard Layer 0 (Background)
//Storyboard Layer 1 (Failing)
//Storyboard Layer 2 (Passing)
//Storyboard Layer 3 (Foreground)
//Storyboard Sound Samples
//Background Colour Transformations
3,100,255,128,255

[TimingPoints]
876,413.422448838972,4,1,0,100,1,0
7490,-100,4,1,0,100,0,1
22373,-100,4,1,0,100,0,0
62062,-100,4,1,0,100,0,1
73660,413.422448838972,4,1,0,100,1,0
96812,413.422448838972,4,1,0,100,1,1

[Colours]
Combo1 : 112,196,193
Combo2 : 243,89,34
Combo3 : 112,196,193
Combo4 : 243,89,34

[HitObjects]
256,192,875,1,0
344,192,1186,1,0
344,192,1289,1,0
344,96,1496,1,0
432,96,1702,1,0
256,192,2529,1,0
168,192,2839,1,0
168,192,2943,1,0
168,288,3149,1,0
80,288,3356,1,0
256,192,4183,1,0
344,192,4493,1,0
344,192,4596,1,0
344,288,4803,1,0
432,288,5010,1,0
256,192,5837,1,0
168,192,6147,1,0
168,192,6250,1,0
168,96,6457,1,0
80,96,6663,1,0
256,192,7490,1,0
432,56,8110,1,0
432,128,8317,1,0
432,280,8731,5,2
280,280,9144,5,0
128,280,9557,1,0
184,232,9764,1,0
128,184,9971,5,2
16,80,10384,1,2
16,232,10798,5,0
208,344,11418,1,0
280,344,11624,1,0
432,344,12038,1,0
432,264,12245,1,0
432,192,12451,6,2,L|432:32|256:32,1,300
40,192,14105,5,0
112,192,14312,5,2
184,192,14518,1,2
256,192,14725,1,2
328,192,14932,1,2
472,192,15759,5,0
400,192,15965,5,2
328,192,16172,1,2
256,192,16379,1,2
184,192,16586,5,0
256,192,17412,1,4
256,192,17619,1,4
256,40,18033,1,4
256,40,18239,1,4
256,192,18653,1,4
256,192,19066,6,6,L|256:32|472:32|472:264,1,600
256,192,22373,5,0
104,192,22787,1,0
104,112,22994,1,0
104,40,23200,1,0
256,40,23614,5,2
408,40,24027,5,0
408,192,24441,1,0
408,264,24647,1,0
408,336,24854,5,2
256,192,25681,5,0
104,192,26094,1,0
104,264,26301,1,0
104,336,26508,1,0
256,336,26921,5,2
256,192,27335,5,4
256,192,27541,1,4
256,192,27955,1,4
256,192,28161,1,4
256,192,28988,1,0
408,192,29402,1,0
408,112,29608,1,0
408,40,29815,1,0
256,40,30228,5,2
104,40,30642,5,0
48,88,30849,1,0
104,136,31055,1,0
48,184,31262,5,2
104,232,31469,1,2
336,40,32296,5,0
336,192,32709,1,0
336,264,32916,1,0
336,336,33122,5,2
184,336,33536,1,2
32,336,33949,1,6
32,192,34363,5,4
144,96,34776,1,4
424,192,35603,6,4,L|120:192,2,300
24,32,38910,5,0
256,32,39530,1,0
256,104,39737,1,0
256,176,39944,1,0
256,248,40151,5,2
408,248,40564,5,0
184,248,41184,1,0
184,248,41391,1,0
184,96,41804,5,2
336,96,42218,5,0
336,320,42838,1,0
408,320,43045,1,0
408,248,43251,1,0
408,176,43458,5,2
400,40,43871,1,6
400,336,44285,1,6
96,344,44698,1,6
96,40,45112,1,6
256,192,45525,5,4
256,192,45732,1,4
256,40,46352,1,4
256,40,46559,1,4
256,344,47179,2,4,L|24:344|24:248,1,300
256,192,48833,1,0
400,192,49246,1,0
400,120,49453,1,0
400,48,49659,5,2
256,48,50073,1,2
256,192,50486,5,0
256,344,50900,1,0
256,344,51106,1,0
256,192,52140,1,0
112,192,52553,1,0
112,264,52760,1,0
112,336,52967,5,2
256,336,53380,1,2
256,192,53794,5,0
256,192,54000,5,2
256,120,54207,1,2
256,120,54414,5,0
48,336,55447,1,0
48,264,55654,1,0
176,336,56067,1,0
176,264,56274,1,0
168,112,56688,5,2
240,112,56894,1,2
312,112,57101,5,0
384,112,57308,1,0
384,184,57514,5,2
384,256,57721,1,2
256,192,58135,5,0
256,192,58341,1,0
432,48,58961,1,0
432,120,59168,1,0
432,264,59581,1,0
432,336,59788,1,0
360,336,59995,5,2
256,232,60408,5,0
256,160,60615,1,0
256,160,60718,1,0
256,160,60822,1,0
40,344,62062,1,0
112,344,62269,1,0
112,344,62372,1,0
112,344,62475,1,0
184,344,62682,1,0
184,344,62786,1,0
184,344,62889,1,0
256,344,63096,1,0
472,40,63716,5,2
400,40,63922,1,2
400,40,64026,1,2
400,40,64129,1,2
328,40,64336,1,2
256,40,64543,5,0
184,40,64749,1,0
472,40,65369,1,0
472,112,65576,5,2
472,184,65783,1,2
472,256,65990,1,2
472,328,66196,1,2
400,328,66403,1,2
328,328,66610,1,2
256,328,66816,1,2
184,328,67023,5,0
112,328,67230,1,0
40,328,67437,1,0
40,256,67643,1,0
40,184,67850,1,0
40,112,68057,1,0
40,40,68263,1,0
112,40,68470,1,0
256,192,69090,1,4
256,192,70330,6,6,L|256:8|480:8|480:320|480:360,1,750
488,352,73660,5,0
256,352,74280,1,0
256,280,74486,1,0
256,208,74693,1,0
256,136,74900,5,2
104,136,75313,5,0
104,248,75623,1,0
104,248,75727,1,0
176,248,75933,1,0
176,320,76140,1,0
328,288,76553,5,2
176,288,76967,5,0
176,64,77587,1,0
104,64,77794,1,0
104,136,78000,1,0
104,208,78207,5,2
104,360,78621,5,0
176,360,78827,1,0
176,360,78931,1,0
176,360,79034,1,0
248,360,79241,1,0
248,360,79344,1,0
248,360,79447,1,0
320,360,79654,1,0
320,360,79757,1,0
320,360,79861,1,0
256,192,80274,1,4
256,192,80481,1,4
256,344,81101,1,4
256,344,81308,1,4
256,40,81928,6,6,L|488:40|488:136,1,300
256,192,83582,5,0
112,192,83995,1,0
112,264,84202,1,0
112,336,84408,5,2
256,336,84822,1,2
256,192,85235,5,0
256,40,85649,1,0
256,40,85855,1,0
256,192,86889,1,0
400,192,87302,1,0
400,120,87509,1,0
400,48,87716,5,2
256,48,88129,1,2
256,192,88543,5,0
256,192,88749,5,2
256,264,88956,1,2
256,264,89163,5,0
464,48,90196,1,0
464,120,90403,1,0
336,48,90817,1,0
336,120,91023,1,0
344,272,91437,5,2
272,272,91643,1,2
200,272,91850,5,0
128,272,92057,1,0
128,200,92264,5,2
128,128,92470,1,2
256,192,92884,5,0
256,192,93090,1,0
80,336,93710,1,0
80,264,93917,1,0
80,120,94331,1,0
80,48,94537,1,0
152,48,94744,5,2
256,152,95157,5,4
472,40,96812,1,0
400,40,97018,1,0
400,40,97122,1,0
400,40,97225,1,0
328,40,97432,1,0
328,40,97535,1,0
328,40,97638,1,0
256,40,97845,1,0
40,344,98465,5,2
112,344,98672,1,2
112,344,98775,1,2
112,344,98879,1,2
184,344,99085,1,2
256,344,99292,5,0
328,344,99499,1,0
40,344,100119,1,0
40,272,100326,5,2
40,200,100532,1,2
40,128,100739,1,2
40,56,100946,1,2
112,56,101152,1,2
184,56,101359,1,2
256,56,101566,1,2
328,56,101773,5,0
400,56,101979,1,0
472,56,102186,1,0
472,128,102393,1,0
472,200,102599,1,0
472,272,102806,1,0
472,344,103013,1,0
400,344,103220,1,0
256,192,103840,1,4
256,192,105080,6,6,L|256:376|32:376|32:64|216:64,1,900
256,192,108387,5,0
256,192,108594,1,0
400,192,109007,1,0
400,192,109214,1,0
400,40,109628,5,2
256,40,110041,5,0
104,40,110454,1,0
104,192,110868,1,0
224,192,111178,1,0
256,192,111281,1,0
408,192,111695,1,0
408,304,112005,1,0
368,304,112108,1,0
296,304,112315,1,0
224,304,112522,1,0
256,192,112935,5,2
