osu file format v5

[General]
AudioFilename: (Namco Original)Warera Muteki no Dokon Dan.mp3
AudioLeadIn: 2007
PreviewTime: 22333
Countdown: 0
SampleSet: Normal
StackLeniency: 0.4
Mode: 0
LetterboxInBreaks: 1
SkinPreference:taiko
EditorBookmarks: 72398

[Metadata]
Title:Warera Muteki no Dokon Dan
Artist:Taiko no Tatsujin
Creator:Zekira
Version:Osu-Futsuu
Source:
Tags:taiko no tatsujin

[Difficulty]
HPDrainRate:5
CircleSize:4
OverallDifficulty:6
SliderMultiplier:1.2
SliderTickRate:2

[Events]
//Background and Video events
0,0,"dokon.jpg"
//Break Periods
//Storyboard Layer 0 (Background)
//Storyboard Layer 1 (Failing)
//Storyboard Layer 2 (Passing)
//Storyboard Layer 3 (Foreground)
//Storyboard Sound Samples
//Background Colour Transformations
3,100,255,128,255

[TimingPoints]
876,413.422448838972,4,1,0,100,1,0
7490,-100,4,1,0,100,0,1
22373,-100,4,1,0,100,0,0
62062,-100,4,1,0,100,0,1
73660,413.422448838972,4,1,0,100,1,0
96812,413.422448838972,4,1,0,100,1,1

[Colours]
Combo1 : 243,89,34
Combo2 : 112,196,193

[HitObjects]
256,192,2116,5,2
256,192,3769,1,2
256,192,5423,1,2
256,192,6663,1,6
32,32,7490,5,0
256,32,8317,1,0
472,32,9144,1,0
472,152,9557,1,0
472,272,9971,1,0
40,352,10798,1,0
264,352,11624,1,0
128,192,12451,6,2,L|392:192,1,240
40,40,14518,1,2
160,40,14932,1,2
472,40,16172,5,0
352,40,16586,1,0
472,240,17412,6,6,L|88:240,1,360
256,192,22373,5,0
256,192,23200,1,0
376,328,24027,1,0
256,328,24441,1,0
136,328,24854,1,0
256,192,25681,1,0
256,192,26508,1,0
376,56,27335,1,4
256,56,27748,1,4
136,56,28161,1,4
256,192,28988,1,0
256,192,29815,1,0
392,312,30642,1,0
392,192,31055,1,0
392,72,31469,1,0
256,192,32296,1,0
256,192,33122,1,0
120,72,33949,1,4
120,192,34363,1,4
120,312,34776,1,4
72,192,35603,6,6,L|432:192,1,360
192,192,38910,5,0
432,192,39530,1,0
432,192,39737,1,0
320,192,40564,1,0
80,192,41184,1,0
80,192,41391,1,0
256,352,42218,1,0
256,112,42838,1,0
256,112,43045,1,0
136,192,43871,5,2
256,192,44285,1,2
376,192,44698,1,2
48,192,45525,5,4
48,192,45732,1,4
464,192,46352,1,4
464,192,46559,1,4
464,368,47179,6,6,L|224:368,1,240
256,72,48833,5,0
256,192,49246,1,0
256,312,49659,1,0
256,192,50486,1,4
256,312,52140,5,2
256,192,52553,1,2
256,72,52967,1,2
256,192,53794,1,6
40,192,55447,5,0
256,192,56274,1,0
480,192,57101,1,0
480,192,57514,1,0
256,192,58961,1,0
256,192,59168,1,0
256,72,59581,1,0
48,192,60408,1,4
464,192,60822,1,4
160,264,62062,1,0
256,192,62475,1,0
352,120,62889,1,4
352,264,63716,1,0
256,192,64129,1,0
160,120,64543,1,4
400,120,65369,1,4
440,304,67023,1,0
320,304,67437,1,0
200,304,67850,1,0
80,304,68263,1,0
256,192,69090,1,4
256,192,70330,6,6,L|256:8|496:8|496:224,1,600
320,192,73660,5,0
80,192,74280,1,0
80,192,74486,1,0
192,192,75313,1,0
432,192,75933,1,0
432,192,76140,1,0
256,32,76967,5,2
256,272,77587,1,2
256,272,77794,1,2
256,192,78621,5,0
464,192,80274,1,4
48,192,81101,1,4
48,16,81928,6,6,L|288:16,1,240
256,312,83582,5,0
256,192,83995,1,0
256,72,84408,1,0
256,192,85235,1,4
256,72,86889,5,2
256,192,87302,1,2
256,312,87716,1,2
256,192,88543,1,6
400,192,90196,5,0
336,192,90403,1,0
152,192,91023,1,0
472,32,91850,1,0
472,152,92264,1,0
256,192,93710,1,0
256,192,93917,1,0
256,312,94331,1,0
16,312,95157,1,4
352,120,96812,1,0
256,192,97225,1,0
160,264,97638,1,4
160,120,98465,1,0
256,192,98879,1,0
352,264,99292,1,4
112,264,100119,1,4
72,80,101773,1,0
192,80,102186,1,0
312,80,102599,1,0
432,80,103013,1,0
256,192,103840,1,4
256,192,105080,6,6,L|256:376|16:376|16:160,1,600
344,48,108387,5,0
392,80,108594,1,0
392,200,109007,1,0
344,232,109214,1,0
352,264,110041,1,0
256,192,110454,1,0
160,120,110868,1,0
160,264,111695,1,0
256,192,112108,1,0
352,120,112522,1,0
256,192,112935,5,2
