osu file format v5

[General]
AudioFilename: The Carnivorous Carnival.mp3
AudioLeadIn: 2000
PreviewTime: 39033
Countdown: 1
SampleSet: Normal
StackLeniency: 0.7
Mode: 1
LetterboxInBreaks: 1

[Editor]
DistanceSpacing: 0.800000011920929
BeatDivisor: 4
GridSize: 32

[Metadata]
Title:The Carnivorous Carnival
Artist:Taiko no Tatsujin
Creator:aquabluu
Version:Taiko Easy
Source:
Tags:

[Difficulty]
HPDrainRate:5
CircleSize:5
OverallDifficulty:5
SliderMultiplier:1.3
SliderTickRate:1

[Events]
//Background and Video events
0,0,"purplerain.jpg"
//Break Periods
//Storyboard Layer 0 (Background)
//Storyboard Layer 1 (Fail)
//Storyboard Layer 2 (Pass)
//Storyboard Layer 3 (Foreground)
//Storyboard Sound Samples
//Background Colour Transformations
3,100,0,0,0

[TimingPoints]
1950,357.142857142857,4,1,0,100,1,0
39092,-100,4,1,0,100,0,1
84807,-100,4,1,0,100,0,0

[HitObjects]
132,201,1949,1,4
201,192,3378,1,0
169,102,4807,1,0
244,162,6235,1,0
122,190,6950,5,2
188,208,7664,5,4
125,128,8378,5,2
156,132,9092,5,0
226,153,9807,5,2
277,177,10521,5,0
145,220,11235,5,2
217,229,11949,5,0
87,119,12217,1,0
141,130,12485,1,0
270,168,13021,5,2
157,57,13378,5,0
190,72,13735,1,0
264,88,14092,1,0
116,154,14449,1,0
192,171,14807,1,0
293,178,15521,1,0
108,219,16235,1,0
178,234,16592,1,0
124,144,16949,1,0
200,155,17307,1,0
174,104,17664,1,0
230,152,18378,1,0
104,272,18735,1,0
207,281,19092,1,0
60,152,19807,1,0
120,168,20164,1,0
182,179,20521,1,0
86,96,21235,1,0
195,69,21592,1,0
225,141,21949,1,0
156,202,22664,1,0
207,224,23021,1,0
95,258,23378,1,4
97,137,24271,5,2
181,147,24449,1,2
223,153,24807,5,0
97,137,25699,5,2
181,147,25878,1,2
223,153,26235,5,0
97,137,27128,5,2
181,147,27307,1,2
223,153,27664,5,0
97,137,28557,5,2
181,147,28735,1,2
223,153,29092,5,0
97,137,29985,5,2
181,147,30163,1,2
223,153,30521,5,0
141,246,31235,5,2
251,261,31949,5,0
168,179,32663,5,2
240,124,33378,5,0
290,159,34092,1,0
94,140,34807,1,0
141,190,35045,1,0
211,207,35283,1,0
264,212,35521,1,0
189,125,35759,1,0
260,106,35997,1,0
60,64,36235,2,0,L|37:224|328:303,1,455
168,193,39092,1,0
281,188,39449,1,0
133,115,39806,1,0
85,209,40164,1,0
232,284,40521,1,0
371,188,40878,1,0
227,117,41235,1,0
220,212,41949,1,0
98,152,42307,1,0
101,249,42665,1,0
275,275,43022,1,0
348,174,43379,1,0
189,100,43736,1,0
168,204,44093,1,0
79,131,44807,5,2
91,229,45165,1,2
258,261,45522,1,2
288,147,45879,1,2
148,86,46236,1,2
159,188,46593,1,2
244,77,46950,1,2
290,217,47665,1,2
119,136,48022,1,2
120,242,48379,1,2
276,144,48736,1,2
192,224,49093,1,2
305,246,49450,1,2
360,168,49807,1,2
100,113,50522,5,0
98,194,50879,1,0
225,177,51236,1,0
230,95,51593,1,0
327,108,51950,1,0
352,242,52307,1,0
468,113,52665,1,0
121,129,53379,1,0
72,173,53736,1,0
186,272,54093,1,0
313,128,54450,1,0
332,267,54807,1,0
399,140,55165,1,0
189,123,55522,1,0
84,165,56236,5,2
157,259,56593,1,2
274,173,56950,1,2
333,269,57307,1,2
386,156,57665,1,2
276,77,58022,1,2
156,136,58379,1,2
116,213,59093,1,2
208,290,59450,1,2
288,214,59807,1,2
313,287,60165,1,2
379,216,60522,1,2
220,128,61236,5,6
115,172,61593,1,6
256,192,61950,12,0,63022
256,192,63379,12,0,64450
256,192,64807,12,0,65879
256,192,66236,12,0,67307
140,201,67665,5,0
276,228,68022,5,0
191,164,68379,1,0
283,145,68736,1,0
206,223,69093,1,0
365,169,69450,1,0
121,96,69807,1,0
85,199,70165,1,0
286,224,70522,1,0
214,92,70879,1,0
168,200,71236,1,0
292,120,71593,1,0
220,185,71950,1,0
284,231,72307,1,0
106,65,72665,1,4
256,192,73379,12,0,74450
256,192,74807,12,0,75879
256,192,76236,12,0,77307
256,192,77665,12,0,78736
209,222,79093,5,0
109,159,79450,5,0
119,259,79807,1,0
212,135,80522,5,2
294,186,80879,1,2
310,259,81236,1,2
125,211,81950,5,0
204,251,82307,1,0
210,167,82665,1,0
181,203,83022,1,0
141,214,83379,1,4
97,136,83736,1,4
97,136,84093,5,6
247,165,84807,5,0
191,219,85521,1,0
266,257,85879,1,0
128,150,86236,1,0
229,150,86950,1,0
329,187,87307,1,0
214,234,87664,1,0
86,210,88378,1,0
156,148,88736,1,0
236,158,89093,1,0
116,91,89807,1,0
216,101,90164,1,0
292,117,90521,1,0
205,245,91414,5,2
110,199,91593,1,2
142,109,91950,5,0
196,145,92843,5,2
232,155,93021,1,2
269,108,93378,5,0
305,220,94271,5,2
208,196,94450,1,2
122,192,94807,1,2
158,132,95878,1,6
236,164,96236,5,0
276,191,96593,1,0
263,216,96950,1,0
118,204,97307,1,0
200,227,97664,1,0
152,132,98378,5,2
220,225,99093,5,0
139,194,99450,1,0
260,142,99807,1,0
356,156,100164,1,0
292,266,100521,1,0
176,220,101236,5,2
176,130,101950,5,0
210,176,102128,1,0
314,169,102664,1,0
366,216,102843,1,0
219,263,103378,1,0
90,192,103736,1,0
155,137,104093,1,0
207,163,104450,1,0
255,150,104807,1,0
156,90,105521,1,0
296,101,106236,1,0
329,149,106473,1,0
137,167,106711,1,0
207,180,106950,1,0
252,199,107188,1,0
221,113,107426,1,0
71,56,107664,2,0,L|40:305|434:360|249:77|309:84,1,1040
