osu file format v6

[General]
AudioFilename: Soroban2000.mp3
AudioLeadIn: 2000
PreviewTime: -1
Countdown: 1
SampleSet: Normal
StackLeniency: 0.7
Mode: 0
LetterboxInBreaks: 1
SkinPreference:taiko

[Editor]
DistanceSpacing: 0.800000011920929
BeatDivisor: 4
GridSize: 32

[Metadata]
Title:Soroban2000
Artist:Taiko no Tatsujin
Creator:Myoclonus
Version:TatsujinCourse
Source:Taiko no Tatsujin
Tags:Taiko Soroban 2000

[Difficulty]
HPDrainRate:5
CircleSize:5
OverallDifficulty:7
SliderMultiplier:1.4
SliderTickRate:1

[Events]
//Background and Video events
0,0,"bg3.jpg"
//Break Periods
//Storyboard Layer 0 (Background)
//Storyboard Layer 1 (Fail)
//Storyboard Layer 2 (Pass)
//Storyboard Layer 3 (Foreground)
//Storyboard Sound Samples
//Background Colour Transformations
3,100,255,255,255

[TimingPoints]
0,352.941176470588,4,1,0,100,1,0
23999,312.5,4,1,0,100,1,0
26499,-100,4,1,0,100,0,1
31499,-100,4,1,0,100,0,0
36499,-100,4,1,0,100,0,1
46499,-100,4,1,0,100,0,0
48999,352.941176470588,4,1,0,100,1,0
61704,288.461538461538,4,1,0,100,1,0
64011,-100,4,1,0,100,0,1
73242,-100,4,1,0,100,0,0
77857,272.727272727273,4,1,0,100,1,0
80038,-100,4,1,0,100,0,1
88766,-100,4,1,0,100,0,0
95311,250,4,1,0,100,1,0
97311,-100,4,1,0,100,0,1
113311,352.941176470588,4,1,0,100,1,1
117546,-100,4,1,0,100,0,0

[Colours]
Combo1 : 112,196,193
Combo2 : 243,89,34

[HitObjects]
256,192,0,5,0
224,224,176,1,0
160,192,352,5,8
192,224,441,5,0
224,160,617,5,8
256,128,794,5,0
288,160,882,1,0
320,128,970,5,8
352,160,1058,5,0
320,192,1147,5,8
288,224,1235,1,8
256,224,1323,1,8
192,224,1764,5,0
160,192,2117,1,0
192,160,2382,1,0
224,192,2558,1,0
192,224,2647,1,0
160,192,2823,5,8
128,160,2999,5,0
160,128,3088,5,8
224,128,3264,5,0
288,128,3441,5,8
256,160,3529,5,0
288,192,3617,1,0
256,224,3705,1,0
288,256,3794,5,8
256,288,3882,5,0
224,256,3970,5,8
192,224,4058,1,8
224,192,4147,1,8
160,128,4588,5,0
224,160,4941,1,0
256,192,5058,1,0
288,160,5176,1,0
320,192,5294,1,0
352,160,5411,1,0
384,192,5529,1,0
384,224,5647,2,0,L|256:352|64:192|128:128,1,490
128,128,7058,2,0,L|224:32|384:192|288:288,1,490
256,256,8470,1,0
224,224,8529,5,8
224,160,8764,1,8
256,128,8823,5,0
288,128,8999,1,0
320,160,9058,5,8
320,224,9294,1,8
288,256,9352,5,0
256,256,9529,5,8
224,224,9705,5,0
224,224,9764,1,0
224,224,9823,1,0
192,192,9882,5,8
224,160,9970,1,8
192,128,10058,1,8
320,192,11029,1,8
224,192,11294,5,0
256,192,11411,1,0
288,192,11529,1,0
192,160,11735,5,8
288,160,11999,5,0
224,160,12117,1,0
256,160,12235,1,0
64,128,12705,1,0
160,128,13058,5,8
224,96,13235,5,0
256,128,13411,1,0
320,96,13764,5,8
352,128,14117,5,0
288,192,14470,5,8
256,224,14647,5,0
224,224,14823,1,0
160,160,15176,5,8
128,192,15529,1,8
128,192,15617,1,8
128,192,15705,1,8
128,192,15882,1,8
160,224,16058,5,0
224,192,16411,5,8
256,224,16588,5,0
320,192,16764,1,0
352,224,16852,1,0
416,192,17117,5,8
384,160,17293,1,8
320,160,17470,5,0
256,192,17647,1,0
224,160,17735,5,8
192,192,17911,5,0
160,160,17999,5,8
96,192,18176,5,0
96,192,18264,1,0
96,192,18352,1,0
64,160,18441,5,8
64,160,18529,1,8
64,160,18617,1,8
64,160,18705,1,8
128,128,18882,5,0
192,96,19058,1,0
256,160,19235,5,8
288,160,19323,1,8
320,160,19411,5,0
384,160,19588,1,0
448,192,19764,5,8
416,224,19852,1,8
384,224,19941,5,0
320,224,20117,5,8
256,224,20294,5,0
224,192,20382,5,8
160,192,20558,1,8
128,224,20647,5,0
96,160,20823,5,8
160,128,20999,1,8
192,128,21088,1,8
224,128,21176,5,0
256,128,21264,1,0
288,128,21352,5,8
320,128,21441,1,8
352,128,21529,1,8
416,160,21705,5,0
352,192,21882,5,8
288,192,22058,1,8
256,192,22147,5,0
224,192,22235,1,0
160,192,22411,1,0
96,192,22588,1,0
128,128,22764,5,8
160,128,22852,1,8
192,128,22941,1,8
256,128,23117,5,0
320,128,23294,5,0
352,160,23382,5,8
320,192,23470,5,0
352,224,23558,5,8
320,256,23647,5,0
288,256,23735,1,0
256,224,23823,5,8
224,224,23911,1,8
224,64,25249,1,0
288,128,25561,5,8
288,192,25874,1,8
224,160,26186,1,8
224,224,26499,5,0
192,256,26655,1,0
160,224,26811,5,8
128,192,26967,1,8
160,160,27124,5,0
192,128,27280,5,8
224,160,27436,1,8
256,192,27592,5,0
288,160,27749,5,8
320,192,27827,1,8
352,160,27905,1,8
384,192,28061,5,0
352,224,28217,5,8
320,256,28374,5,0
288,224,28530,5,8
256,224,28686,1,8
224,256,28842,5,0
192,224,28999,1,0
160,256,29155,1,0
128,224,29311,5,8
96,192,29467,5,0
128,160,29545,1,0
160,192,29624,5,8
192,160,29780,5,0
224,192,29936,1,0
256,160,30092,5,8
288,192,30249,5,0
320,192,30405,1,0
352,160,30561,5,8
384,192,30717,5,0
416,192,30874,1,0
448,160,30952,5,8
416,128,31030,1,8
352,128,31186,5,0
288,128,31342,5,8
256,128,31420,1,8
256,192,32749,5,4
288,64,35249,5,8
224,96,35561,5,0
288,128,35874,1,0
224,160,36186,1,0
256,192,36342,1,0
288,192,36420,1,0
320,192,36499,1,0
352,192,36655,1,0
384,160,36811,5,8
384,128,36967,1,8
352,96,37124,5,0
320,96,37280,1,0
288,96,37358,1,0
256,64,37436,5,8
224,96,37592,5,0
192,96,37749,5,8
160,128,37905,5,0
128,96,38061,5,8
96,128,38217,5,0
128,160,38374,5,8
160,160,38452,1,8
192,192,38530,5,0
256,160,38686,5,8
288,160,38764,1,8
320,192,38842,5,0
384,192,38999,1,0
416,160,39155,1,0
384,128,39311,1,0
352,128,39389,1,0
320,128,39467,1,0
288,96,39545,5,8
256,128,39624,5,0
224,128,39780,1,0
160,128,39936,1,0
96,160,40092,5,8
128,192,40170,1,8
160,192,40249,5,0
224,192,40405,5,8
288,192,40561,5,0
352,192,40717,1,0
416,192,40874,1,0
448,224,40952,1,0
416,256,41030,5,8
352,256,41186,5,0
320,256,41264,1,0
288,256,41342,5,8
256,256,41420,1,8
224,256,41499,5,0
192,256,41655,1,0
160,224,41811,5,8
128,192,41967,1,8
160,160,42124,5,0
224,160,42280,1,0
256,160,42358,1,0
288,160,42436,5,8
352,160,42592,5,0
384,160,42749,5,8
416,192,42905,5,0
384,224,43061,5,8
352,224,43217,5,0
288,224,43374,5,8
256,224,43452,1,8
224,224,43530,5,0
160,224,43686,5,8
128,192,43764,1,8
160,160,43842,5,0
224,160,43999,1,0
288,160,44155,1,0
352,160,44311,1,0
384,160,44389,1,0
416,128,44467,1,0
384,96,44545,5,8
352,96,44624,5,0
288,96,44780,1,0
224,96,44936,1,0
160,96,45092,1,8
128,96,45170,1,8
96,128,45249,5,0
160,160,45405,1,8
224,160,45561,5,0
288,160,45717,1,0
352,160,45874,1,0
384,192,45952,1,0
352,224,46030,5,8
288,224,46186,5,0
256,224,46264,1,0
224,224,46342,5,8
192,224,46420,1,8
256,192,47749,5,4
64,128,48999,1,0
160,128,49352,5,8
224,96,49529,5,0
256,128,49705,1,0
320,96,50058,5,8
352,128,50411,5,0
288,192,50764,5,8
256,224,50941,5,0
224,224,51117,1,0
160,160,51470,5,8
192,192,51557,5,0
128,192,51822,5,8
128,192,51911,1,8
128,192,51999,1,8
128,192,52087,1,8
128,192,52176,1,8
128,192,52263,1,8
160,224,52352,5,0
224,192,52705,5,8
256,224,52882,5,0
320,192,53058,1,0
352,224,53146,1,0
416,192,53411,5,8
416,160,53499,1,8
384,160,53587,1,8
320,160,53764,5,0
256,192,53941,1,0
224,160,54029,5,8
192,192,54205,5,0
160,160,54293,5,8
96,192,54470,5,0
96,192,54558,1,0
96,192,54646,1,0
64,160,54735,5,8
64,160,54823,1,8
64,160,54911,1,8
64,160,54999,1,8
64,160,55087,1,8
128,128,55176,5,0
192,96,55352,1,0
256,160,55529,5,8
288,160,55617,1,8
320,160,55705,5,0
384,160,55882,1,0
448,192,56058,5,8
416,224,56146,1,8
384,224,56235,5,0
320,224,56411,5,8
256,224,56588,5,0
224,192,56763,1,0
192,224,56851,5,8
160,192,56940,1,8
96,160,57116,5,0
128,128,57204,1,0
160,128,57293,5,8
192,128,57382,1,8
224,128,57470,5,0
256,128,57558,1,0
288,128,57646,5,8
320,128,57735,1,8
352,128,57823,1,8
384,128,57910,1,8
416,160,57999,5,0
288,192,58351,5,8
256,192,58441,5,0
224,192,58529,1,0
192,192,58616,5,8
160,192,58704,5,0
96,192,58882,1,0
128,128,59057,1,0
160,128,59146,5,8
192,128,59235,1,8
256,128,59411,5,0
320,128,59587,1,0
352,160,59676,5,8
320,192,59764,5,0
352,224,59852,5,8
320,256,59941,5,0
288,256,60029,1,0
256,224,60117,5,8
224,224,60205,1,8
128,192,60998,5,0
160,128,61992,1,0
224,64,62857,1,0
288,96,63146,5,8
224,128,63434,1,8
192,160,63579,1,8
224,192,63723,1,8
256,160,63867,1,8
288,256,64011,5,0
352,256,64155,1,0
384,288,64228,5,8
352,320,64300,1,8
288,320,64444,5,0
224,320,64588,5,8
192,320,64660,1,8
160,288,64732,5,0
128,320,64877,1,0
96,288,65021,5,8
128,256,65165,5,0
160,224,65237,1,0
192,224,65309,5,8
224,224,65453,1,8
288,224,65598,5,0
352,224,65742,5,8
384,256,65814,1,8
352,288,65886,5,0
288,288,66030,1,0
224,288,66175,5,8
160,288,66319,5,0
96,256,66463,1,0
128,192,66607,1,0
160,192,66679,1,0
192,192,66752,1,0
224,160,66824,5,8
256,192,66896,5,0
320,192,67040,1,0
320,192,67112,1,0
320,192,67184,1,0
384,224,67328,5,8
416,256,67473,5,0
384,288,67617,5,8
352,288,67761,1,8
320,288,67905,5,0
256,288,68050,1,0
224,288,68122,5,8
192,288,68194,5,0
160,288,68266,5,8
128,256,68338,5,0
96,224,68410,1,0
128,192,68482,5,8
192,160,68627,5,0
320,160,68771,1,0
352,192,68844,5,8
320,224,68916,1,8
256,224,69060,5,0
192,224,69204,5,8
160,224,69276,1,8
128,192,69348,5,0
96,224,69493,1,0
64,192,69637,5,8
96,160,69781,5,0
128,128,69853,1,0
160,128,69925,5,8
192,128,70069,1,8
256,128,70214,5,0
320,128,70358,5,8
352,160,70430,1,8
320,192,70502,5,0
256,192,70646,1,0
192,192,70791,5,8
128,192,70935,5,0
64,160,71079,1,0
96,96,71223,1,0
128,96,71295,1,0
160,96,71368,1,0
192,64,71440,5,8
224,96,71512,5,0
288,96,71656,1,0
288,96,71728,1,0
288,96,71800,1,0
352,128,71944,5,8
384,160,72089,5,0
352,192,72233,5,8
320,192,72377,1,8
288,192,72521,5,0
224,192,72666,1,0
192,192,72738,5,8
160,192,72810,5,0
128,192,72882,5,8
96,160,72954,5,0
64,128,73026,1,0
96,96,73098,5,8
128,64,73170,1,8
256,192,74107,5,0
320,192,74396,2,0,L|32:192,2,280
288,64,77857,5,8
224,96,78402,1,8
288,128,78947,1,8
224,160,79084,1,8
256,192,79220,1,8
288,160,79493,1,8
320,192,79766,1,8
288,224,80038,5,0
224,224,80175,1,0
192,224,80243,5,8
160,224,80311,1,8
128,192,80447,5,0
96,160,80584,5,8
96,128,80652,1,8
128,96,80720,5,0
192,96,80857,1,0
256,96,80993,5,8
320,96,81129,5,0
352,96,81197,1,0
384,96,81266,5,8
416,128,81402,1,8
384,160,81538,5,0
320,160,81675,5,8
288,160,81743,1,8
256,160,81811,5,0
192,160,81947,5,8
128,160,82084,5,0
96,192,82220,1,0
128,224,82288,1,0
160,224,82357,5,8
224,224,82493,1,8
256,224,82561,5,0
288,224,82629,1,0
352,224,82766,1,0
384,224,82834,5,8
416,224,82902,5,0
448,256,82970,5,8
416,288,83038,5,0
352,288,83175,5,8
288,288,83311,5,0
224,288,83447,5,8
192,288,83516,5,0
160,288,83584,1,0
128,256,83720,5,8
192,224,83857,5,0
224,224,83925,5,8
256,224,83993,5,0
288,224,84061,5,8
320,224,84129,5,0
352,192,84197,1,0
320,192,84266,5,8
288,192,84334,1,8
256,192,84402,5,0
192,192,84538,1,0
160,192,84606,5,8
128,192,84674,1,8
96,160,84810,5,0
64,128,84947,5,8
64,96,85015,1,8
96,64,85083,5,0
160,64,85220,1,0
224,64,85356,5,8
288,64,85492,5,0
320,64,85560,1,0
352,64,85629,5,8
384,96,85765,1,8
352,128,85901,5,0
288,128,86038,5,8
256,128,86107,1,8
224,128,86175,5,0
160,128,86311,5,8
96,128,86447,5,0
64,192,86584,1,0
96,192,86652,1,0
128,192,86720,5,8
192,192,86857,5,0
224,192,86925,5,8
256,192,86993,1,8
320,192,87129,5,0
352,192,87197,1,0
384,224,87265,5,8
352,256,87402,5,0
320,256,87470,5,8
288,256,87538,1,8
224,256,87675,5,0
160,256,87811,1,0
128,256,87879,1,0
96,224,87947,5,8
128,192,88084,1,8
192,192,88220,5,0
224,192,88288,5,8
256,192,88357,5,0
288,192,88425,5,8
320,192,88493,5,0
352,192,88561,1,0
384,192,88629,5,8
416,192,88697,1,8
416,128,88970,1,8
352,128,89107,1,8
192,128,89584,5,0
96,128,89857,2,0,L|416:128|160:128,1,560
256,128,95561,1,4
288,64,96311,5,8
224,96,96561,1,8
288,128,96811,1,8
224,160,97061,1,8
256,160,97123,1,8
288,160,97186,1,8
320,192,97311,5,0
384,192,97436,1,0
416,224,97498,5,8
384,256,97561,1,8
320,256,97686,5,0
256,256,97811,5,8
224,256,97873,1,8
192,256,97936,5,0
128,256,98061,1,0
96,224,98186,5,8
128,192,98311,5,0
160,192,98373,5,8
192,192,98436,1,8
256,192,98561,5,0
320,192,98686,1,0
352,192,98748,1,0
384,192,98811,5,8
416,160,98936,5,0
416,96,99061,5,8
352,128,99186,5,0
288,128,99311,1,0
256,128,99373,1,0
224,128,99436,5,8
192,128,99561,5,0
160,128,99623,5,8
128,128,99686,1,8
96,160,99811,5,0
96,192,99873,1,0
128,224,99936,5,8
192,224,100061,5,0
224,224,100186,5,8
256,224,100311,5,0
288,224,100436,5,8
320,224,100561,1,8
352,224,100686,5,0
384,224,100811,5,8
416,224,100936,1,8
448,192,101061,5,0
448,160,101186,1,0
416,160,101311,1,0
352,160,101436,1,0
320,160,101498,5,8
288,160,101561,1,8
224,160,101686,5,0
160,160,101811,5,8
128,160,101873,1,8
96,128,101936,5,0
128,96,102061,1,0
160,64,102186,5,8
192,64,102248,1,8
224,64,102311,5,0
256,64,102373,5,8
288,64,102436,5,0
288,96,102561,5,8
256,96,102623,1,8
224,96,102686,5,0
192,96,102748,5,8
160,96,102811,5,0
192,160,102936,5,8
160,192,103061,5,0
192,224,103186,5,0
256,224,103311,5,0
288,224,103373,1,0
320,224,103436,5,8
384,224,103561,5,0
416,192,103623,5,8
416,160,103686,1,8
352,128,103811,5,0
320,128,103873,1,0
288,128,103936,5,8
224,128,104061,5,0
160,128,104186,5,8
128,160,104311,5,0
128,192,104436,5,8
160,224,104561,1,8
192,192,104686,5,0
224,224,104811,5,8
256,192,104936,1,8
288,224,105061,5,0
320,192,105186,5,8
352,224,105311,5,0
384,192,105436,1,0
416,224,105498,5,8
448,192,105561,1,8
448,128,105686,5,0
384,128,105811,5,8
352,128,105873,1,8
320,128,105936,5,0
288,128,106061,1,0
256,128,106186,5,8
192,128,106311,5,0
160,128,106373,5,8
128,160,106436,1,8
128,192,106561,5,0
160,224,106686,1,0
224,224,106811,5,8
256,224,106873,5,0
288,224,106936,1,0
352,224,107061,5,8
416,224,107186,5,0
416,160,107311,1,0
384,160,107373,1,0
352,160,107436,5,8
320,160,107498,5,0
288,160,107561,1,0
256,160,107623,5,8
224,160,107686,5,0
160,160,107811,1,0
128,128,107936,5,8
160,96,108061,5,0
192,96,108186,5,8
224,96,108311,5,0
288,96,108436,1,0
320,96,108498,5,8
352,96,108561,1,8
416,96,108686,5,0
448,128,108811,1,0
416,160,108936,5,8
384,160,108998,5,0
352,160,109061,5,8
288,160,109186,5,0
256,160,109311,5,8
224,160,109436,5,0
192,160,109561,5,8
160,160,109686,1,8
96,192,109811,5,0
128,224,109873,5,8
160,224,109936,5,0
224,224,110061,5,8
256,224,110186,1,8
320,224,110311,5,0
352,224,110373,5,8
384,224,110436,5,0
416,224,110498,5,8
448,256,110561,1,8
416,288,110686,1,8
352,288,110811,5,0
320,288,110873,5,8
288,288,110936,5,0
256,288,110998,5,8
224,288,111061,1,8
160,288,111186,1,8
96,256,111311,5,0
64,224,111373,5,8
64,192,111436,5,0
96,160,111498,5,8
128,160,111561,1,8
160,192,111686,5,0
160,224,111748,5,8
128,256,111811,5,0
96,256,111873,5,8
64,224,111936,1,8
64,192,112061,5,0
96,160,112123,5,8
128,160,112186,5,0
160,192,112248,5,8
160,224,112311,1,8
128,256,112436,5,0
96,256,112498,5,8
64,224,112561,5,0
64,192,112623,5,8
96,160,112686,1,8
128,160,112811,1,8
160,160,112873,5,0
192,160,112936,5,8
224,160,112998,5,0
256,160,113061,1,0
320,160,113279,1,4
256,192,114722,1,4
96,96,117546,1,0
128,96,117634,5,8
160,96,117722,5,0
192,96,117811,1,0
224,96,117899,5,8
256,96,117987,5,0
288,96,118075,5,8
96,128,118252,1,0
128,128,118340,5,8
160,128,118428,5,0
192,128,118517,1,0
224,128,118605,5,8
256,128,118693,5,0
288,128,118781,5,8
96,160,118958,1,0
128,160,119046,5,8
160,160,119134,5,0
192,160,119223,1,0
224,160,119311,5,8
256,160,119399,5,0
288,160,119487,5,8
352,96,119663,5,0
352,128,119752,1,0
352,160,119840,1,0
352,192,119928,1,0
352,224,120016,5,8
288,224,120193,1,8
256,224,120281,1,8
224,224,120369,5,0
192,224,120458,1,0
128,224,120634,5,8
96,224,120722,1,8
96,160,120899,5,0
128,160,120987,1,0
192,160,121163,5,8
224,160,121252,1,8
288,160,121428,5,0
320,160,121516,1,0
352,160,121605,1,0
352,192,121693,5,8
320,192,121781,1,8
288,224,121958,5,0
320,224,122046,1,0
352,224,122134,5,8
352,256,122222,1,8
320,256,122311,1,8
256,256,122487,5,0
224,256,122575,1,0
192,256,122663,1,0
160,256,122752,1,0
128,224,122840,5,8
128,160,123016,1,8
128,160,123075,1,8
128,160,123134,1,8
160,160,123193,5,0
128,192,123369,1,0
64,160,123545,5,8
96,192,123634,5,0
128,128,123810,5,8
160,96,123987,5,0
192,128,124075,1,0
224,96,124163,5,8
256,128,124251,5,0
224,160,124340,5,8
192,192,124428,1,8
160,192,124516,1,8
96,192,124957,5,0
64,160,125310,1,0
96,128,125575,1,0
128,160,125751,1,0
96,192,125840,1,0
64,160,126016,5,8
32,128,126192,5,0
64,96,126281,5,8
128,96,126457,5,0
192,96,126634,5,8
160,128,126722,5,0
192,160,126810,1,0
160,192,126898,1,0
192,224,126987,5,8
160,256,127075,5,0
128,224,127163,5,8
96,192,127251,1,8
128,160,127340,1,8
64,96,127781,5,0
128,128,128134,1,0
160,160,128251,1,0
192,128,128369,1,0
224,160,128487,1,0
256,128,128604,1,0
288,160,128722,1,0
288,192,128840,2,0,L|160:320|-32:160|32:96,1,490
32,96,130251,2,0,L|128:0|288:160|192:256,1,490
160,224,131663,1,0
128,192,131722,5,8
128,128,131957,1,8
160,96,132016,5,0
192,96,132192,1,0
224,128,132251,5,8
224,192,132487,1,8
192,224,132545,5,0
160,224,132722,5,8
128,192,132898,5,0
128,192,132957,1,0
128,192,133016,1,0
96,160,133075,5,8
128,128,133163,1,8
96,96,133251,1,8
