osu file format v6

[General]
AudioFilename: Soroban2000.mp3
AudioLeadIn: 2000
PreviewTime: -1
Countdown: 1
SampleSet: Normal
StackLeniency: 0.7
Mode: 0
LetterboxInBreaks: 1
SkinPreference:taiko

[Editor]
DistanceSpacing: 0.800000011920929
BeatDivisor: 4
GridSize: 32

[Metadata]
Title:Soroban2000
Artist:Taiko no Tatsujin
Creator:Myoclonus
Version:Oni
Source:Taiko no Tatsujin
Tags:Taiko Soroban 2000

[Difficulty]
HPDrainRate:5
CircleSize:5
OverallDifficulty:7
SliderMultiplier:1.4
SliderTickRate:1

[Events]
//Background and Video events
0,0,"bg3.jpg"
//Break Periods
2,91147,95411
//Storyboard Layer 0 (Background)
//Storyboard Layer 1 (Fail)
//Storyboard Layer 2 (Pass)
//Storyboard Layer 3 (Foreground)
//Storyboard Sound Samples
//Background Colour Transformations
3,100,255,255,255

[TimingPoints]
0,352.941176470588,4,1,0,100,1,0
23999,312.5,4,1,0,100,1,0
26499,-100,4,1,0,100,0,1
31499,-100,4,1,0,100,0,0
36499,-100,4,1,0,100,0,1
46499,-100,4,1,0,100,0,0
48999,352.941176470588,4,1,0,100,1,0
61704,288.461538461538,4,1,0,100,1,0
64011,-100,4,1,0,100,0,1
73242,-100,4,1,0,100,0,0
77857,272.727272727273,4,1,0,100,1,0
80038,-100,4,1,0,100,0,1
88766,-100,4,1,0,100,0,0
95311,250,4,1,0,100,1,0
97311,-100,4,1,0,100,0,1
113311,352.941176470588,4,1,0,100,1,1
117546,-100,4,1,0,100,0,0

[HitObjects]
96,288,0,5,0
128,224,176,1,0
160,192,264,5,8
192,224,352,5,0
224,224,441,1,0
224,160,617,1,0
192,160,705,1,0
160,128,794,5,8
192,96,882,1,8
256,192,970,12,0,2559
416,288,2823,5,0
384,224,2999,1,0
416,192,3088,5,8
384,160,3176,1,8
352,160,3264,5,0
288,192,3441,1,0
256,160,3529,1,0
288,128,3617,5,8
320,96,3705,1,8
256,192,3794,12,8,5294
448,192,5647,6,0,B|224:192|192:128|224:64|288:64|320:96|320:128|288:192|192:192|128:192|96:192,1,490
160,192,7058,2,0,B|320:192|256:288|192:320|96:256|64:192|96:128|160:96|256:128|320:160,1,490
352,160,8470,1,0
384,128,8558,5,8
352,96,8647,1,8
320,96,8735,1,8
288,128,8823,1,8
288,192,8999,5,0
256,224,9088,5,8
224,224,9176,1,8
192,192,9264,1,8
160,160,9352,1,8
160,96,9529,5,0
224,96,9705,5,8
256,128,9882,1,8
256,128,9941,1,8
256,128,9999,1,8
256,128,10058,1,8
256,192,11294,5,0
256,192,11999,1,0
96,96,12705,1,0
128,64,12882,5,8
160,128,13058,1,8
192,96,13235,5,0
256,64,13588,5,8
320,96,13764,5,0
352,64,13852,5,8
384,96,13941,5,0
416,64,14029,5,8
416,160,14294,1,8
416,160,14382,1,8
416,160,14470,1,8
352,192,14647,5,0
320,128,14999,5,8
256,160,15176,5,0
224,128,15264,5,8
192,160,15352,5,0
160,128,15441,5,8
128,160,15529,5,0
64,128,15705,5,8
32,160,15882,1,8
96,192,16058,5,0
160,224,16411,5,8
224,192,16588,5,0
256,160,16676,5,8
288,192,16764,5,0
320,160,16852,5,8
384,192,17117,1,8
384,192,17205,1,8
384,192,17294,1,8
448,224,17470,5,0
416,128,17823,5,8
352,96,17999,5,0
320,64,18088,5,8
288,96,18176,5,0
256,128,18264,5,8
224,96,18352,5,0
160,96,18529,5,8
160,96,18617,1,8
160,96,18705,1,8
96,128,18882,5,0
128,192,19235,5,8
192,160,19411,5,0
224,192,19499,5,8
256,160,19588,5,0
288,192,19676,5,8
320,128,19941,1,8
384,160,20117,1,8
352,192,20294,5,0
416,224,20647,5,8
352,256,20823,5,0
320,224,20911,5,8
288,256,20999,5,0
256,224,21088,5,8
224,256,21176,5,0
192,192,21352,5,8
192,192,21441,1,8
192,192,21529,1,8
128,224,21705,5,0
64,160,22058,5,8
128,128,22235,5,0
160,96,22323,5,8
192,128,22411,5,0
224,96,22499,5,8
288,128,22764,1,8
320,160,22941,1,8
288,192,23117,1,8
256,192,23294,5,0
224,192,23382,1,0
224,224,23470,5,8
256,224,23558,1,8
288,224,23647,5,0
320,224,23735,1,0
320,192,23823,5,8
288,192,23911,1,8
224,64,25249,1,8
288,96,25561,1,8
224,128,25874,1,8
288,160,26186,1,8
256,192,26499,5,0
224,224,26655,5,8
192,224,26811,1,8
160,192,26967,5,0
160,160,27124,5,8
192,128,27280,1,8
224,128,27436,5,0
288,128,27592,5,8
320,160,27670,1,8
288,192,27749,5,0
320,224,27905,1,0
352,224,28061,5,8
384,224,28217,5,0
416,192,28374,1,0
416,160,28530,5,8
384,128,28686,5,0
416,96,28842,5,8
384,64,28999,5,0
320,64,29155,1,0
256,96,29311,1,0
224,128,29389,1,0
256,160,29467,5,8
320,192,29624,5,0
288,224,29780,1,0
256,224,29936,1,0
224,192,30092,5,8
192,224,30249,5,0
160,224,30405,1,0
128,192,30561,5,8
128,160,30717,5,0
160,128,30874,1,0
192,160,30952,5,8
224,128,31030,1,8
288,128,31186,5,0
352,160,31342,5,8
320,192,31420,1,8
256,192,32749,5,4
288,320,35249,1,0
224,288,35561,5,8
288,256,35874,1,8
224,224,36186,1,8
256,192,36499,5,0
288,160,36655,5,8
320,160,36811,1,8
352,192,36967,5,0
384,160,37124,5,8
416,160,37280,1,8
448,192,37436,5,0
448,256,37592,5,8
416,288,37670,1,8
384,288,37749,5,0
352,256,37905,1,0
320,224,38061,5,8
288,256,38217,5,0
256,224,38374,1,0
288,192,38530,5,8
320,160,38608,1,8
288,128,38686,5,0
224,128,38842,5,8
192,160,38920,1,8
224,192,38999,5,0
192,224,39155,1,0
128,224,39311,1,0
128,192,39389,1,0
96,192,39467,5,8
96,224,39545,1,8
96,256,39624,5,0
160,256,39780,1,0
224,256,39936,1,0
288,224,40092,5,8
320,224,40170,1,8
352,256,40249,5,0
384,256,40405,1,0
416,224,40561,5,8
416,192,40717,5,0
352,160,40874,1,0
384,128,40952,5,8
352,96,41030,1,8
288,128,41186,5,0
256,160,41264,5,8
288,192,41342,1,8
256,224,41420,1,8
224,224,41499,5,0
192,192,41655,5,8
160,192,41811,1,8
128,224,41967,5,0
96,192,42124,5,8
64,160,42280,1,8
96,128,42436,5,0
160,96,42592,5,8
192,128,42670,1,8
160,160,42749,5,0
224,160,42905,1,0
288,160,43061,5,8
352,160,43217,5,0
416,160,43374,1,0
448,224,43530,5,8
416,256,43608,1,8
384,256,43686,5,0
320,224,43842,5,8
288,224,43920,1,8
256,256,43999,5,0
192,256,44155,1,0
128,256,44311,1,0
96,224,44389,1,0
128,224,44467,5,8
160,256,44545,1,8
192,256,44624,5,0
224,224,44780,1,0
192,192,44936,1,0
224,128,45092,5,8
192,128,45170,1,8
256,160,45249,5,0
320,160,45405,1,0
384,192,45561,5,8
320,224,45717,5,0
256,224,45874,1,0
224,192,45952,5,8
192,224,46030,1,8
128,192,46186,5,0
160,160,46264,5,8
192,192,46342,1,8
224,160,46420,1,8
256,192,47749,5,4
416,288,48999,1,0
352,288,49175,5,8
384,224,49351,1,8
320,224,49528,5,0
256,256,49881,5,8
192,288,50057,5,0
160,256,50146,5,8
128,288,50234,5,0
96,256,50322,5,8
128,192,50587,1,8
128,192,50675,1,8
128,192,50763,1,8
192,224,50940,5,0
224,160,51293,5,8
288,192,51469,5,0
320,160,51557,5,8
352,192,51646,5,0
384,160,51734,5,8
416,192,51822,5,0
448,128,51999,5,8
448,128,52087,1,8
448,128,52175,1,8
384,96,52351,5,0
288,128,52704,5,8
224,96,52881,5,0
192,128,52969,5,8
160,96,53057,5,0
128,128,53146,5,8
64,160,53410,1,8
64,160,53499,1,8
64,160,53587,1,8
96,224,53763,5,0
160,192,54116,5,8
224,224,54293,5,0
256,192,54381,5,8
288,224,54469,5,0
320,192,54557,5,8
352,224,54646,5,0
416,192,54822,5,8
416,192,54910,1,8
416,192,54999,1,8
448,256,55175,5,0
352,288,55528,5,8
256,288,55705,5,0
224,256,55793,5,8
192,288,55881,5,0
160,256,55969,5,8
96,288,56234,1,8
96,288,56322,1,8
96,288,56410,1,8
64,224,56587,5,0
128,160,56940,5,8
192,192,57116,5,0
224,160,57204,5,8
256,192,57293,5,0
288,160,57381,5,8
320,192,57469,5,0
384,224,57646,5,8
384,224,57734,1,8
384,224,57822,1,8
320,256,57998,5,0
224,224,58351,5,8
160,256,58527,5,0
128,224,58616,5,8
160,192,58704,5,0
128,160,58792,5,8
192,96,59057,1,8
192,96,59146,1,8
192,96,59234,1,8
256,128,59410,5,0
320,96,59587,1,0
352,128,59675,1,0
384,160,59763,5,8
352,192,59851,1,8
320,224,59940,5,0
288,192,60028,1,0
256,160,60116,5,8
288,128,60204,1,8
480,160,62857,1,8
416,224,63146,1,8
352,160,63434,1,8
320,192,63579,1,8
288,160,63723,1,8
256,192,63867,1,8
224,192,64011,5,0
192,224,64155,5,8
192,224,64228,1,8
192,224,64300,1,8
160,224,64444,5,0
128,192,64588,5,8
128,192,64660,1,8
128,192,64732,1,8
160,160,64877,5,0
128,128,65021,5,8
160,96,65165,5,0
160,96,65237,1,0
160,96,65309,1,0
192,64,65453,5,8
224,96,65598,5,0
256,64,65742,5,8
256,64,65814,1,8
256,64,65886,1,8
288,96,66030,5,0
320,128,66175,5,8
288,160,66319,5,0
320,192,66463,1,0
256,224,66607,1,0
224,192,66679,1,0
192,160,66751,5,8
160,192,66824,1,8
192,224,66896,5,0
128,224,67040,1,0
128,224,67112,1,0
128,224,67184,1,0
96,192,67328,5,8
128,160,67473,5,0
160,128,67617,1,0
192,128,67761,1,8
224,160,67905,5,0
256,192,68050,1,0
288,160,68122,5,8
288,160,68194,1,8
288,160,68266,1,8
320,192,68338,5,0
288,160,68410,5,8
288,160,68482,1,8
320,128,68627,5,0
352,96,68771,5,8
352,96,68843,1,8
352,96,68915,1,8
384,128,69059,5,0
416,160,69203,5,8
416,160,69276,1,8
416,160,69348,1,8
384,192,69492,5,0
416,224,69636,5,8
384,256,69780,5,0
384,256,69853,1,0
384,256,69925,1,0
352,288,70069,5,8
320,256,70213,5,0
288,224,70357,5,8
288,224,70429,1,8
288,224,70502,1,8
256,256,70646,5,0
224,224,70790,5,8
192,192,70934,5,0
224,160,71078,1,0
288,160,71223,1,0
320,160,71295,1,0
352,128,71367,5,8
320,96,71439,1,8
288,96,71511,5,0
224,96,71655,1,0
224,96,71728,1,0
224,96,71800,1,0
192,64,71944,5,8
160,96,72088,5,0
192,128,72232,1,0
160,160,72377,5,8
192,192,72521,5,0
256,192,72665,1,0
288,224,72737,5,8
288,224,72809,1,8
288,224,72881,1,8
256,256,72953,5,0
288,224,73026,5,8
288,224,73098,1,8
288,224,73170,1,8
256,192,74107,5,12
352,192,74396,6,0,B|448:128|384:64|320:32|224:64|192:128|160:224|192:288|288:288|352:256|288:128|256:96|192:96,1,560
288,320,78947,5,8
256,288,79084,1,8
224,256,79220,1,8
320,256,79493,1,8
320,192,79766,1,8
256,192,80038,5,0
224,160,80175,5,8
224,160,80243,1,8
224,160,80311,1,8
192,192,80447,5,0
160,224,80584,5,8
160,224,80652,1,8
160,224,80720,1,8
128,192,80857,5,0
96,160,80993,5,8
128,128,81129,5,0
128,128,81197,1,0
128,128,81266,1,0
160,96,81402,5,8
192,128,81538,5,0
224,160,81675,5,8
224,160,81743,1,8
224,160,81811,1,8
256,192,81947,5,0
288,192,82084,5,8
352,192,82220,5,0
352,192,82288,1,0
352,192,82357,1,0
384,160,82493,1,0
384,160,82561,1,0
384,160,82629,1,0
416,192,82766,1,0
416,224,82834,1,0
384,256,82902,5,8
352,256,82970,1,8
320,224,83039,5,0
288,256,83175,5,8
256,224,83311,5,0
288,192,83447,1,0
288,192,83516,1,0
288,192,83584,1,0
256,160,83720,5,8
192,192,83857,5,0
192,160,83925,5,8
192,160,83993,1,8
192,160,84061,1,8
192,128,84129,5,0
192,160,84197,5,8
192,160,84266,1,8
192,160,84334,1,8
160,160,84402,5,0
128,192,84538,5,8
128,192,84607,1,8
128,192,84675,1,8
96,224,84811,5,0
64,192,84947,5,8
64,192,85016,1,8
64,192,85084,1,8
32,160,85220,5,0
64,128,85357,5,8
96,96,85493,5,0
96,96,85561,1,0
96,96,85629,1,0
128,128,85766,5,8
160,160,85902,5,0
192,128,86038,5,8
192,128,86107,1,8
192,128,86175,1,8
224,160,86311,5,0
256,128,86447,5,8
288,160,86584,5,0
288,160,86652,1,0
288,160,86720,1,0
320,128,86857,1,0
320,128,86925,1,0
320,128,86993,1,0
352,160,87129,1,0
352,160,87197,1,0
352,160,87266,1,0
320,192,87402,1,0
320,192,87470,1,0
320,192,87538,1,0
288,224,87675,1,0
256,192,87811,1,0
256,192,87879,1,0
256,192,87947,1,0
224,160,88084,5,8
192,192,88220,5,0
160,160,88288,5,8
160,160,88357,1,8
160,160,88425,1,8
128,192,88493,5,0
160,160,88561,5,8
160,160,88629,1,8
160,160,88697,1,8
256,192,89584,1,12
384,192,89857,6,0,B|224:64|256:32|352:32|384:32|416:64|352:128|320:160|256:192|160:256|224:256|352:256,1,560
256,128,96311,5,8
224,160,96561,1,8
288,160,96811,1,8
256,192,97061,1,8
256,192,97123,1,8
256,192,97186,1,8
288,224,97311,5,0
320,192,97436,5,8
320,192,97498,1,8
320,192,97561,1,8
352,224,97686,5,0
384,192,97811,5,8
384,192,97873,1,8
384,192,97936,1,8
416,224,98061,5,0
448,192,98186,5,8
416,160,98311,5,0
416,160,98373,1,0
416,160,98436,1,0
448,128,98561,5,8
416,96,98686,5,0
416,96,98748,1,0
416,96,98811,1,0
384,64,98936,5,8
352,96,99061,5,0
320,64,99186,5,8
288,96,99311,5,0
288,96,99373,1,0
288,96,99436,1,0
320,128,99561,1,0
320,128,99623,1,0
320,128,99686,1,0
288,160,99811,1,0
288,160,99873,1,0
288,160,99936,1,0
320,192,100061,1,0
288,224,100186,5,8
256,256,100311,5,0
224,224,100436,5,8
192,192,100561,1,8
224,160,100686,5,0
192,128,100811,5,8
160,96,100936,1,8
128,128,101061,5,0
96,160,101186,1,0
128,192,101311,1,0
96,224,101436,5,8
96,224,101498,1,8
96,224,101561,1,8
128,256,101686,5,0
160,224,101811,5,8
160,224,101873,1,8
160,224,101936,1,8
192,256,102061,5,0
224,224,102186,5,8
256,224,102248,1,8
224,256,102311,5,0
256,256,102373,1,0
288,256,102436,1,0
320,224,102561,5,8
288,192,102623,1,8
320,192,102686,5,0
352,224,102748,1,0
384,256,102811,1,0
416,224,102936,5,8
384,192,103061,5,0
416,160,103186,5,8
384,128,103311,5,0
384,128,103373,1,0
384,128,103436,1,0
352,96,103561,1,0
352,96,103623,1,0
352,96,103686,1,0
320,128,103811,1,0
320,128,103873,1,0
320,128,103936,1,0
288,160,104061,1,0
256,128,104186,5,8
224,160,104311,5,0
192,128,104436,5,8
192,128,104561,1,8
160,160,104686,5,0
128,192,104811,5,8
160,224,104936,1,8
192,256,105061,5,0
160,288,105186,5,8
192,320,105311,5,0
224,288,105436,5,8
224,288,105498,1,8
224,288,105561,1,8
256,320,105686,5,0
288,288,105811,5,8
288,288,105873,1,8
288,288,105936,1,8
320,256,106061,5,0
352,224,106186,5,8
320,192,106311,5,0
320,192,106373,1,0
320,192,106436,1,0
352,160,106561,5,8
384,192,106686,5,0
416,160,106811,5,8
416,160,106873,1,8
416,160,106936,1,8
384,128,107061,5,0
352,96,107186,5,8
288,96,107311,5,0
288,96,107373,1,0
288,96,107436,1,0
288,128,107498,5,8
288,160,107561,5,0
288,160,107623,1,0
288,160,107686,1,0
256,192,107811,1,0
224,160,107936,5,8
192,192,108061,5,0
160,160,108186,5,8
128,192,108311,5,0
96,160,108436,1,0
96,160,108498,1,0
96,160,108561,1,0
64,128,108686,1,0
96,96,108811,1,0
128,64,108936,5,8
128,64,108998,1,8
128,64,109061,1,8
160,96,109186,1,8
192,64,109311,5,0
224,96,109436,1,0
256,64,109561,5,8
288,96,109686,1,8
320,128,109811,5,0
320,128,109873,1,0
320,128,109936,1,0
352,96,110061,5,8
384,160,110186,1,8
320,192,110311,5,0
320,192,110373,1,0
320,192,110436,1,0
320,192,110498,1,0
288,192,110561,5,8
224,192,110686,1,8
160,224,110811,5,0
160,224,110873,1,0
160,224,110936,1,0
160,224,110998,1,0
192,224,111061,5,8
256,224,111186,1,8
320,256,111311,5,0
352,256,111373,1,0
384,224,111436,1,0
384,192,111498,5,8
352,160,111561,1,8
320,160,111686,5,0
288,128,111748,1,0
288,96,111811,1,0
320,64,111873,5,8
352,64,111936,1,8
384,96,112061,5,0
384,128,112123,1,0
352,160,112186,1,0
320,160,112248,5,8
288,192,112311,1,8
288,224,112436,5,0
320,256,112498,1,0
352,256,112561,1,0
384,224,112623,5,8
384,192,112686,1,8
352,160,112811,5,0
320,160,112873,1,0
288,160,112936,1,0
256,128,112998,5,8
224,160,113061,5,0
256,192,113279,1,4
256,192,114722,1,4
64,160,117546,1,0
96,128,117634,5,8
128,160,117722,5,0
160,224,117899,5,8
192,256,117987,5,0
224,224,118075,5,8
192,160,118252,5,0
224,128,118340,5,8
256,160,118428,5,0
288,224,118605,5,8
320,256,118693,5,0
352,224,118781,5,8
320,160,118958,5,0
352,128,119046,5,8
384,160,119134,5,0
416,224,119311,5,8
448,256,119399,5,0
480,224,119487,5,8
384,160,119663,5,0
352,128,119752,5,8
320,160,119840,5,0
256,192,120016,5,8
224,192,120369,5,0
192,160,120458,5,8
160,192,120546,5,0
128,192,120634,1,0
96,160,120722,5,8
64,192,120811,5,0
32,160,120899,5,8
32,288,121075,5,0
64,256,121163,5,8
96,288,121252,5,0
128,288,121340,1,0
160,256,121428,5,8
192,288,121516,5,0
224,256,121605,5,8
288,288,121781,5,0
320,288,121869,5,8
352,256,121958,5,0
352,224,122046,1,0
320,192,122134,5,8
256,192,122487,5,0
256,192,122546,1,0
256,192,122605,1,0
224,160,122663,5,8
224,160,122722,1,8
224,160,122781,1,8
192,192,122840,5,0
160,160,122928,1,0
128,192,123016,5,8
96,224,123105,1,8
96,256,123193,5,0
160,256,123369,1,0
192,224,123458,5,8
224,256,123546,5,0
256,256,123634,1,0
320,256,123811,1,0
352,224,123899,1,0
352,192,123987,5,8
320,160,124075,1,8
256,192,124252,12,0,125752
448,288,126016,5,0
384,288,126193,1,0
352,256,126281,5,8
320,256,126369,1,8
288,288,126458,5,0
224,288,126634,1,0
192,288,126722,1,0
160,256,126810,5,8
160,224,126899,1,8
256,192,127075,12,0,128575
96,192,128840,6,0,B|256:192|288:96|160:64|96:96|160:192|224:224|288:224|352:160|256:96|320:32|352:64|384:128|416:192|352:192|320:224,1,490
320,224,130252,2,0,B|160:320|96:256|160:160|256:160|288:256|256:320|96:320|64:224|160:96|256:96,1,490
256,96,131663,1,0
288,128,131752,5,8
288,128,131840,1,8
288,128,131928,1,8
288,128,132016,1,8
256,160,132193,5,0
288,192,132281,5,8
288,192,132369,1,8
288,192,132458,1,8
288,192,132546,1,8
352,192,132722,5,0
288,192,132899,5,8
256,192,133075,1,8
256,192,133134,1,8
256,192,133193,1,8
256,192,133252,1,8
