osu file format v6

[General]
AudioFilename: Soroban2000.mp3
AudioLeadIn: 2000
PreviewTime: -1
Countdown: 1
SampleSet: Normal
StackLeniency: 0.7
Mode: 0
LetterboxInBreaks: 1
SkinPreference:taiko

[Editor]
DistanceSpacing: 0.800000011920929
BeatDivisor: 6
GridSize: 32

[Metadata]
Title:Soroban2000
Artist:Taiko no Tatsujin
Creator:Myoclonus
Version:Nomal
Source:
Tags:

[Difficulty]
HPDrainRate:0
CircleSize:5
OverallDifficulty:5
SliderMultiplier:1.4
SliderTickRate:1

[Events]
//Background and Video events
0,0,"bg3.jpg"
//Break Periods
2,60140,61657
2,75749,77747
2,91147,95111
//Storyboard Layer 0 (Background)
//Storyboard Layer 1 (Fail)
//Storyboard Layer 2 (Pass)
//Storyboard Layer 3 (Foreground)
//Storyboard Sound Samples
//Background Colour Transformations
3,100,255,255,255

[TimingPoints]
0,352.941176470588,4,1,0,100,1,0
23999,312.5,4,1,0,100,1,0
26499,-100,4,1,0,100,0,1
31499,-100,4,1,0,100,0,0
36499,-100,4,1,0,100,0,1
46499,-100,4,1,0,100,0,0
48999,352.941176470588,4,1,0,100,1,0
61704,288.461538461538,4,1,0,100,1,0
64011,-100,4,1,0,100,0,1
73242,-100,4,1,0,100,0,0
77857,272.727272727273,4,1,0,100,1,0
80038,-100,4,1,0,100,0,1
88766,-100,4,1,0,100,0,0
95311,250,4,1,0,100,1,0
97311,-100,4,1,0,100,0,1
113311,352.941176470588,4,1,0,100,1,1
117546,-100,4,1,0,100,0,0

[HitObjects]
64,64,0,1,0
96,96,176,1,0
128,128,352,1,0
128,224,705,1,0
256,192,1058,12,0,2294
448,64,2823,5,8
416,96,2999,1,8
384,128,3176,1,8
384,224,3529,1,8
256,192,3882,12,8,5117
64,64,5647,6,0,B|64:288|64:288|352:288,1,490
384,288,7058,6,8,B|384:64|384:64|96:64,1,490
64,64,8470,5,0
128,160,8823,5,8
64,256,9176,5,0
192,256,9529,5,8
256,192,9882,1,12
64,64,11294,5,0
64,128,11999,1,0
64,64,12705,1,0
160,64,13058,5,8
128,96,13235,5,0
192,96,13588,5,8
224,128,13764,1,8
256,96,14117,5,0
320,64,14470,5,8
352,96,14647,5,0
416,128,15529,1,0
416,192,15882,5,8
384,160,16058,5,0
320,160,16411,5,8
320,192,16588,1,8
256,192,16941,5,0
192,160,17294,5,8
160,192,17470,5,0
128,192,18352,1,0
64,192,18705,5,8
96,224,18882,5,0
192,224,19235,5,8
160,256,19411,1,8
256,256,19764,5,0
320,224,20117,5,8
352,256,20294,5,0
384,192,21176,1,0
320,160,21529,5,8
288,192,21705,5,0
224,160,22058,5,8
224,192,22235,1,8
160,192,22588,5,0
160,96,22941,1,0
256,96,23294,1,4
256,192,23647,1,4
64,192,25249,5,8
160,192,25874,1,8
256,192,26499,5,0
288,224,26811,1,0
320,224,27124,1,0
352,192,27436,1,0
352,160,27749,1,0
320,128,28061,1,0
288,128,28374,1,0
256,128,28999,5,8
224,160,29311,1,8
256,192,29624,1,8
224,224,29937,1,8
192,192,30249,1,8
160,160,30561,1,8
192,128,30874,1,8
224,128,31186,1,8
256,192,32749,5,4
448,192,35249,5,8
352,192,35874,1,8
256,192,36499,5,0
192,192,36811,1,0
128,192,37124,1,0
64,192,37749,1,0
96,192,37905,1,0
128,192,38061,1,0
192,192,38374,5,8
256,192,38999,5,0
288,160,39155,1,0
320,192,39311,1,0
384,192,39624,5,8
320,224,40249,5,0
288,256,40405,1,0
256,224,40561,1,0
256,192,40874,5,8
192,192,41499,5,0
128,192,41811,1,0
64,192,42124,1,0
64,160,42749,5,8
96,160,42905,1,8
128,160,43062,1,8
192,160,43374,1,8
224,160,43999,1,8
256,192,44155,1,8
224,224,44311,1,8
288,160,44624,1,8
288,192,45249,1,8
352,192,45405,1,8
320,192,45561,1,8
256,192,45874,1,8
256,192,46186,1,8
256,192,47749,5,4
96,96,48999,1,0
160,64,49351,5,8
192,96,49528,5,0
256,64,49881,5,8
288,64,50057,1,8
352,96,50410,5,0
416,128,50763,5,8
384,160,50940,5,0
320,160,51822,1,0
256,128,52175,5,8
224,160,52351,5,0
160,128,52704,5,8
128,128,52881,1,8
64,160,53234,5,0
128,192,53587,5,8
96,224,53763,5,0
64,160,54646,1,0
128,192,54999,5,8
96,224,55175,5,0
192,224,55528,5,8
224,224,55705,1,8
256,192,56058,5,0
320,192,56410,5,8
352,224,56587,5,0
448,224,57469,1,0
448,128,57822,5,8
416,160,57998,5,0
352,128,58351,5,8
320,128,58528,1,8
256,128,58881,5,0
192,128,59234,1,0
192,192,59587,1,4
256,192,59940,1,4
384,192,62857,5,8
256,192,63434,1,8
192,192,64011,5,0
160,224,64300,1,0
128,224,64588,1,0
96,192,64877,1,0
128,160,65165,1,0
160,192,65453,1,0
192,160,65596,1,0
224,192,65741,1,0
288,192,66319,1,0
320,160,66607,1,0
352,160,66896,1,0
384,192,67184,1,0
352,224,67473,1,0
320,192,67761,1,0
288,224,67905,1,0
256,192,68050,1,0
256,160,68627,1,0
224,160,68915,1,0
192,128,69203,1,0
192,96,69492,1,0
224,64,69780,1,0
256,64,70069,5,8
288,96,70213,1,8
288,128,70357,1,8
256,224,70934,5,0
288,224,71223,1,0
320,256,71511,1,0
320,288,71800,1,0
288,320,72088,1,0
256,320,72377,5,8
224,288,72521,1,8
224,256,72665,1,8
256,224,72953,1,8
256,192,74107,1,12
192,128,74396,6,0,B|192:352|192:352|64:192|64:192|256:192,1,560
256,64,78947,5,8
256,128,79220,1,8
256,192,79493,1,8
192,192,80038,5,0
160,256,80311,1,0
96,256,80584,1,0
64,192,80857,1,0
128,128,81129,1,0
192,128,81402,1,0
192,160,81538,1,0
192,192,81675,1,0
256,192,82220,1,0
288,256,82493,1,0
352,256,82766,1,0
384,192,83038,1,0
320,128,83311,1,0
320,192,83584,1,0
288,192,83720,1,0
256,192,83857,1,0
224,192,84402,1,0
160,192,84675,1,0
96,192,84947,1,0
128,160,85084,1,0
96,128,85220,1,0
160,128,85493,1,0
224,128,85766,1,0
224,160,85902,1,0
224,192,86038,1,0
288,192,86584,1,0
352,192,86857,1,0
416,192,87129,1,0
384,160,87266,1,0
416,128,87402,1,0
352,128,87675,1,0
288,128,87947,1,0
288,160,88084,1,0
288,192,88220,1,0
256,192,88493,1,0
256,192,89584,5,12
352,192,89857,6,0,B|256:352|96:288|96:320|64:160|64:192|64:192|256:96,1,560
320,192,96311,5,8
256,128,96561,1,8
192,192,96811,1,8
256,192,97311,5,0
288,256,97561,1,0
352,256,97811,1,0
384,192,98061,1,0
320,128,98311,1,0
320,192,98561,1,0
320,192,98686,1,0
320,192,98811,1,0
288,256,99311,1,0
256,320,99561,1,0
192,320,99811,1,0
160,256,100061,1,0
224,192,100311,1,0
224,256,100561,1,0
224,256,100686,1,0
224,256,100811,1,0
160,256,101311,1,0
128,192,101561,1,0
192,128,101811,1,0
256,192,102061,1,0
224,256,102311,1,0
192,192,102561,5,8
192,192,102686,1,8
192,192,102811,1,8
256,192,103311,5,0
288,256,103561,1,0
352,256,103811,1,0
384,192,104061,1,0
320,128,104311,1,0
320,192,104561,5,8
320,192,104686,1,8
320,192,104811,1,8
256,192,105311,5,0
224,128,105561,1,0
192,192,105811,1,0
160,256,106061,1,0
128,192,106311,1,0
96,192,106436,1,0
64,160,106561,1,0
96,128,106686,1,0
128,128,106811,1,0
192,128,107311,1,0
224,192,107561,1,0
256,128,107811,1,0
288,192,108061,1,0
320,128,108311,1,0
352,128,108436,1,0
384,160,108561,1,0
352,192,108686,1,0
320,192,108811,1,0
256,192,109311,5,8
288,224,109561,1,8
224,224,109811,1,8
256,256,110061,1,8
192,256,110311,1,8
160,224,110436,1,8
192,192,110561,1,8
224,160,110686,1,8
256,192,110811,1,8
256,192,111311,1,8
224,224,111561,1,8
288,224,111811,1,8
256,256,112061,1,8
320,256,112311,1,8
352,224,112436,1,8
320,192,112561,1,8
288,160,112686,1,8
256,192,112811,1,8
256,192,113279,5,4
256,192,114722,1,4
96,96,117546,1,0
160,160,117899,5,8
224,96,118252,5,0
288,160,118605,5,8
352,96,118958,5,0
416,160,119311,5,8
352,224,119663,5,0
288,288,120016,5,8
224,224,120369,5,0
160,288,120722,5,8
96,224,121075,5,0
160,160,121428,5,8
96,64,121781,5,0
192,64,122134,1,0
160,64,122487,1,0
64,64,123193,1,0
96,96,123369,1,0
128,128,123546,1,0
128,224,123899,1,0
256,192,124252,12,0,125487
448,64,126016,5,8
416,96,126193,1,8
384,128,126369,1,8
384,224,126722,1,8
256,192,127075,12,8,128310
448,160,128840,6,0,B|192:0|192:32|64:256,1,490
128,224,130252,2,0,B|256:416|352:320|448:64,1,490
384,96,131663,1,0
384,160,132016,5,8
320,128,132369,5,0
320,192,132722,5,8
256,192,133075,1,12
