osu file format v5

[General]
AudioFilename: Saitama2000.mp3
AudioLeadIn: 1512
PreviewTime: 11739
Countdown: 1
SampleSet: Normal
StackLeniency: 0.7
Mode: 0
LetterboxInBreaks: 1

[Metadata]
Title:Saitama2000
Artist:Taiko no Tatsujin
Creator:Kharl
Version:Oni
Source:
Tags:

[Difficulty]
HPDrainRate:5
CircleSize:6
OverallDifficulty:9
SliderMultiplier:1.4
SliderTickRate:4

[Events]
//Background and Video events
0,0,"saitama.png"
//Break Periods
2,70164,72964
//Storyboard Layer 0 (Background)
//Storyboard Layer 1 (Failing)
//Storyboard Layer 2 (Passing)
//Storyboard Layer 3 (Foreground)
//Storyboard Sound Samples
//Background Colour Transformations
3,100,163,162,255

[TimingPoints]
2730,300,4,1,1,85,1,0
73530,-100,4,1,1,100,0,1

[Colours]
Combo1 : 112,196,193
Combo2 : 243,89,34

[HitObjects]
256,192,1530,12,0,6630
216,88,7530,5,0
296,88,7830,1,0
360,152,8130,1,0
360,232,8430,1,0
296,296,8730,1,0
216,296,9030,1,0
256,192,9330,5,2
256,192,9630,1,2
160,152,9930,5,0
160,232,10230,1,0
216,296,10530,1,0
296,296,10830,1,0
360,232,11130,1,0
360,152,11430,1,0
256,192,11730,5,2
256,192,12030,1,2
312,288,12330,5,0
272,288,12480,1,0
240,256,12630,1,2
200,256,12780,1,2
176,288,12930,1,0
152,256,13080,1,2
112,256,13230,1,2
112,160,13530,5,0
152,160,13680,1,0
184,136,13830,1,2
224,136,13980,1,2
256,160,14130,1,0
296,160,14280,2,0,B|296:88,1,70
392,112,14730,5,0
392,152,14880,1,0
360,184,15030,5,2
360,224,15180,1,2
392,248,15330,5,0
360,272,15480,5,2
360,312,15630,1,2
264,312,15930,5,0
264,272,16080,1,0
240,240,16230,5,2
240,200,16380,1,2
264,168,16530,5,0
264,128,16680,2,0,B|264:56,1,70
376,48,17130,5,0
416,48,17280,1,0
440,80,17430,1,2
440,112,17580,1,2
408,136,17730,5,0
376,152,17880,1,2
376,184,18030,1,2
320,272,18330,5,0
288,272,18480,1,0
264,248,18630,1,2
264,216,18780,1,2
240,192,18930,1,0
208,192,19080,2,0,B|136:192,1,70
136,96,19530,5,0
136,96,19680,1,0
168,96,19830,5,2
168,96,19980,1,2
200,96,20130,5,0
232,96,20280,5,2
232,96,20430,1,2
304,176,20730,5,0
304,176,20880,1,0
272,176,21030,5,2
272,176,21180,1,2
240,176,21330,5,0
208,176,21480,1,0
208,176,21555,1,0
208,176,21630,1,0
168,272,21930,5,0
192,296,22080,1,2
224,296,22230,1,2
248,272,22380,5,0
272,296,22530,1,2
296,272,22680,1,0
320,296,22830,1,2
320,200,23130,5,0
296,168,23280,1,2
272,200,23430,1,0
248,168,23580,1,2
224,200,23730,1,0
192,200,23880,2,0,B|144:144,1,70
80,88,24330,5,0
104,112,24480,5,2
104,144,24630,1,2
80,168,24780,5,0
104,192,24930,5,2
80,216,25080,5,0
104,240,25230,5,2
208,272,25530,5,0
240,248,25680,5,2
208,224,25830,5,0
240,200,25980,5,2
208,176,26130,5,0
208,144,26280,2,0,B|264:144,1,70
296,56,26730,5,0
264,80,26880,1,2
264,112,27030,1,2
296,136,27180,5,0
320,160,27330,1,2
296,184,27480,1,0
272,208,27630,1,2
272,304,27930,5,0
296,280,28080,1,2
320,256,28230,1,0
344,280,28380,1,2
368,304,28530,1,0
400,304,28680,2,0,B|400:240,1,70
400,144,29130,5,0
360,144,29280,5,2
360,144,29430,1,2
328,144,29580,5,0
296,144,29730,5,2
264,144,29880,5,0
232,144,30030,5,2
232,240,30330,5,0
264,240,30480,5,2
296,240,30630,5,0
328,240,30780,5,2
360,240,30930,5,0
392,240,31080,1,0
392,240,31155,1,0
392,240,31230,1,0
392,136,31530,5,0
320,64,31830,1,0
224,64,32130,1,0
192,64,32280,1,0
160,64,32430,1,0
160,160,32730,1,0
160,192,32880,2,0,B|208:240,1,70
240,240,33180,1,0
272,240,33330,1,0
304,240,33480,1,0
336,240,33630,1,0
392,136,33930,5,0
456,208,34230,1,0
400,288,34530,1,0
368,312,34680,1,0
336,336,34830,1,0
240,336,35130,1,0
216,312,35280,2,0,B|160:248,1,70
192,232,35580,1,0
216,208,35730,1,0
240,184,35880,1,0
264,160,36030,1,0
336,96,36330,5,0
256,32,36630,1,0
176,88,36930,1,0
144,112,37080,1,0
120,136,37230,1,0
120,232,37530,1,0
144,256,37680,2,0,B|208:200,1,70
224,232,37980,1,0
248,256,38130,1,0
272,280,38280,1,0
296,304,38430,1,0
200,312,38730,5,0
112,272,39030,1,0
112,176,39330,1,0
128,144,39480,1,0
144,176,39630,1,0
232,176,39930,1,0
264,200,40080,1,0
264,200,40155,1,0
264,200,40230,1,0
232,224,40380,1,0
200,248,40530,1,0
192,160,40830,5,2
128,88,41130,5,0
216,88,41430,1,0
304,88,41730,1,0
336,88,41880,1,0
368,88,42030,1,0
368,176,42330,5,0
280,176,42630,1,0
192,176,42930,1,0
160,176,43080,1,0
128,176,43230,1,0
128,272,43530,5,0
216,272,43830,1,0
304,272,44130,1,0
336,272,44280,1,0
368,272,44430,1,0
368,184,44730,5,0
272,184,45030,1,0
272,96,45330,1,0
240,96,45480,1,0
208,96,45630,1,0
104,72,45930,5,2
104,168,46230,1,0
104,264,46530,1,0
104,296,46680,1,0
104,328,46830,1,0
208,328,47130,5,2
208,240,47430,1,0
208,152,47730,1,0
208,120,47880,1,0
208,88,48030,1,0
304,88,48330,5,2
304,176,48630,1,0
304,264,48930,1,0
304,296,49080,1,0
304,328,49230,1,0
200,288,49530,5,2
104,240,49830,1,0
160,152,50130,1,0
192,152,50280,1,0
176,184,50430,1,0
272,184,50730,5,0
368,184,51030,1,0
320,184,51330,1,0
296,152,51480,1,0
344,152,51630,1,0
344,56,51930,5,0
248,56,52230,1,0
272,88,52530,1,0
296,56,52680,1,0
320,88,52830,1,0
424,88,53130,5,0
424,184,53430,1,0
456,136,53730,1,0
424,136,53880,1,0
392,136,54030,1,0
288,136,54330,5,0
216,176,54630,1,0
264,176,54930,1,0
240,136,55080,1,0
200,136,55230,1,0
104,136,55530,5,2
104,232,55830,1,0
72,160,56130,1,0
104,184,56280,1,0
136,208,56430,1,0
248,240,56730,5,2
248,144,57030,1,0
208,216,57330,1,0
248,192,57480,1,0
280,168,57630,1,0
376,136,57930,5,2
376,232,58230,1,0
376,136,58530,1,0
376,184,58680,1,0
376,232,58830,1,0
280,232,59130,5,2
280,136,59430,5,0
280,232,59730,1,0
280,184,59880,1,0
280,232,60030,1,0
200,288,60330,5,2
160,272,60480,1,2
128,240,60630,1,2
120,200,60780,1,2
136,160,60930,5,0
168,136,61080,5,2
200,120,61230,1,2
296,120,61530,1,2
328,136,61680,1,2
360,160,61830,1,2
376,200,61980,1,2
360,240,62130,5,0
328,272,62280,5,2
296,288,62430,1,2
256,192,62730,1,2
232,160,62880,1,2
200,152,63030,1,2
160,160,63180,1,2
128,184,63330,5,0
120,224,63480,5,2
128,264,63630,1,2
152,296,63780,6,2,B|239:369|384:341|453:250|414:93|304:48,1,490
232,64,65130,5,2
192,64,65280,1,2
168,104,65430,1,2
192,144,65580,1,2
208,104,65730,5,0
248,104,65880,5,2
232,144,66030,1,2
336,144,66330,1,2
376,144,66480,1,2
392,184,66630,1,2
376,224,66780,1,2
352,184,66930,5,0
336,224,67080,5,2
312,184,67230,1,2
224,232,67530,1,2
184,232,67680,1,2
168,280,67830,1,2
208,312,67980,1,2
208,272,68130,5,0
248,280,68280,5,2
224,232,68430,1,2
256,192,68580,12,0,69930
256,192,73530,5,0
256,104,73830,1,2
304,32,74130,1,0
336,32,74280,1,0
368,32,74430,1,2
408,112,74730,1,0
408,144,74880,2,0,B|448:200,1,70
432,232,75180,1,0
400,256,75330,1,2
360,264,75480,1,0
328,264,75630,2,2,B|280:216,1,70
256,192,75930,5,2
192,112,76230,1,0
120,40,76530,1,2
96,64,76680,1,2
80,96,76830,1,0
96,128,76980,1,2
120,160,77130,1,0
104,192,77280,1,2
80,216,77430,2,0,B|50:293|101:325|176:296,1,140
168,288,77880,1,0
192,264,78030,1,2
256,192,78330,5,0
256,280,78630,1,2
304,352,78930,1,0
336,352,79080,1,0
368,352,79230,1,2
392,312,79380,1,0
408,272,79530,1,2
424,232,79680,1,0
432,192,79830,1,2
432,152,79980,1,0
400,136,80130,2,2,B|328:144,1,70
304,136,80430,1,2
280,160,80580,1,0
256,192,80730,5,2
232,224,80880,2,2,B|184:272,1,70
160,312,81180,1,2
128,336,81330,1,2
96,320,81480,1,0
80,288,81630,1,2
96,256,81780,1,0
120,224,81930,1,0
96,192,82080,2,2,B|46:117|92:49|192:96,1,210
224,112,82680,1,2
248,136,82830,1,0
224,168,82980,1,2
256,192,83130,5,0
256,280,83430,1,2
304,352,83730,1,0
336,352,83880,1,0
368,352,84030,1,2
408,272,84330,1,0
408,240,84480,2,0,B|448:184,1,70
432,152,84780,1,0
400,128,84930,1,2
360,120,85080,1,0
328,120,85230,2,2,B|280:168,1,70
256,192,85530,5,2
192,272,85830,1,0
120,344,86130,1,2
96,320,86280,1,2
80,288,86430,1,0
96,256,86580,1,2
120,224,86730,1,0
104,192,86880,1,2
80,168,87030,2,0,B|50:91|101:59|176:88,1,140
168,96,87480,1,0
192,120,87630,1,2
256,192,87930,5,0
256,104,88230,1,2
304,32,88530,1,0
336,32,88680,1,0
368,32,88830,1,2
392,72,88980,1,0
408,112,89130,1,2
424,152,89280,1,0
432,192,89430,1,2
432,232,89580,1,0
400,248,89730,2,2,B|328:240,1,70
304,248,90030,1,2
280,224,90180,1,0
256,192,90330,5,2
232,160,90480,2,2,B|184:112,1,70
160,72,90780,1,2
128,48,90930,1,2
96,64,91080,1,0
80,96,91230,1,2
96,128,91380,1,0
120,160,91530,1,0
96,192,91680,2,2,B|46:267|92:335|192:288,1,210
224,272,92280,1,2
248,248,92430,1,0
224,216,92580,1,2
256,192,92730,5,0
344,232,93030,1,2
432,280,93330,1,0
416,312,93480,1,0
392,344,93630,1,2
296,344,93930,1,0
264,344,94080,2,0,B|192:344,1,70
168,328,94380,1,0
144,304,94530,1,2
144,272,94680,1,0
160,240,94830,2,2,B|224:208,1,70
256,192,95130,5,2
192,112,95430,1,0
120,40,95730,1,2
152,40,95880,1,2
184,40,96030,1,0
216,40,96180,1,2
248,64,96330,1,0
272,96,96480,1,2
304,120,96630,2,0,B|344:84|415:78|424:184,1,140
392,168,97080,1,0
352,168,97230,1,2
256,192,97530,5,0
168,224,97830,1,2
88,280,98130,1,0
120,296,98280,1,0
152,320,98430,1,2
184,296,98580,1,0
216,272,98730,1,2
248,296,98880,1,0
280,320,99030,1,2
312,336,99180,1,0
344,312,99330,2,2,B|352:248,1,70
320,216,99630,1,2
288,200,99780,1,0
256,192,99930,5,2
280,160,100080,2,2,B|328:128,1,70
360,152,100380,1,2
392,128,100530,1,2
376,88,100680,1,0
344,72,100830,1,2
304,64,100980,1,0
264,64,101130,1,0
232,72,101280,2,2,B|176:158|79:54|64:176,1,210
104,168,101880,1,2
136,168,102030,1,0
168,168,102180,1,2
168,200,102330,5,0
264,160,102630,1,2
168,112,102930,1,0
200,136,103080,1,0
224,112,103230,1,2
328,72,103530,1,0
360,88,103680,2,0,B|400:144,1,70
440,136,103980,1,0
456,168,104130,1,2
416,184,104280,1,0
400,144,104430,2,2,B|360:88,1,70
320,104,104730,5,2
240,160,105030,1,0
328,208,105330,1,2
288,240,105480,1,2
328,256,105630,1,0
368,240,105780,1,2
368,280,105930,1,0
328,304,106080,1,2
288,280,106230,2,0,B|250:332|188:268|152:320,1,140
128,336,106680,1,0
96,320,106830,1,2
160,248,107130,5,0
88,184,107430,1,2
160,112,107730,1,0
184,72,107880,1,0
208,112,108030,1,2
184,152,108180,1,0
144,152,108330,1,2
120,112,108480,1,0
144,72,108630,1,2
96,72,108780,1,0
80,112,108930,2,2,B|32:184,1,70
72,200,109230,1,2
56,240,109380,1,0
24,208,109530,5,2
40,168,109680,2,2,B|72:120,1,70
104,152,109980,1,2
128,192,110130,1,2
152,152,110280,1,0
168,192,110430,1,2
192,152,110580,1,0
168,112,110730,1,0
128,112,110880,2,2,B|150:41|276:37|312:176,1,210
312,160,111480,1,2
312,200,111630,1,0
280,224,111780,1,2
256,192,111930,5,4
