osu file format v5

[General]
AudioFilename: Nanairo Harmony.mp3
AudioLeadIn: 1500
PreviewTime: -1
Countdown: 1
SampleSet: Normal

[Metadata]
Title:Nanairo Harmony
Artist:Taiko no Tatsujin
Creator:aquabluu
Version:Normal

[Difficulty]
HPDrainRate:4
CircleSize:4
OverallDifficulty:5
SliderMultiplier:1.5
SliderTickRate:2

[Events]
//Background and Video events
0,0,"taiko.jpg"
//Break Periods
2,29099,34887
//Storyboard Layer 0 (Background)
//Storyboard Layer 1 (Failing)
//Storyboard Layer 2 (Passing)
//Storyboard Layer 3 (Foreground)
//Storyboard Sound Samples
//Background Colour Transformations
3,100,163,162,255

[TimingPoints]
2430,413.93940067502,4,1,0,100

[HitObjects]
256,192,2430,1,0
136,195,2843,2,0,B|38:192|46:77,1,150
224,33,4085,2,0,B|326:9|390:84,3,150
404,92,5534,1,0
480,288,6155,6,0,B|363:355|322:340,2,150
472,214,7397,2,0,B|468:-4|20:7|20:231,1,600
32,320,9466,5,0
96,256,9880,1,0
160,192,10294,1,0
224,128,10708,2,0,B|224:32|96:32,1,150
64,96,11330,1,0
128,160,11744,1,0
192,224,12157,2,0,B|288:320|416:320,1,225
448,256,13192,1,0
480,160,13606,1,0
416,96,14020,2,0,B|320:32|192:64,1,225
192,192,15676,5,0
320,192,16296,1,0
480,192,17331,6,0,B|480:320|288:320,1,225
288,320,18159,2,0,B|160:320|128:256,1,150
128,256,18780,1,0
64,192,19401,6,0,B|64:32,2,150
160,192,20643,2,0,C|160:32|448:32|480:160,1,600
512,288,22713,6,0,C|456:240|352:256,1,150
288,288,23540,1,0
192,320,23954,2,0,C|96:352|0:256,1,225
32,160,24989,1,0
64,64,25403,1,0
192,96,26024,5,0
352,96,26438,1,0
384,192,26852,1,0
352,224,27059,2,0,C|192:352|36:319|32:0,1,675
64,96,35959,5,0
192,96,36373,1,0
192,192,36786,1,0
64,192,37200,1,0
128,288,37614,1,0
128,288,37821,1,0
447,96,39270,6,0,C|382:60|300:108,1,150
320,192,40098,1,0
448,192,40512,1,0
384,288,40926,1,0
384,288,41133,1,0
256,320,42582,5,0
256,224,42996,1,0
256,128,43410,1,0
256,32,43823,2,0,C|96:96,1,150
96,128,44444,1,0
64,320,45893,6,0,C|128:256|96:192,1,150
64,128,46721,1,0
64,32,47135,2,0,C|192:32|192:256|448:256,1,600
416,320,49205,5,0
416,224,49619,1,0
384,128,50033,1,0
320,64,50446,2,0,C|224:32|160:64,1,150
128,128,51274,1,0
128,224,51688,1,0
128,224,51895,1,0
32,288,52516,1,0
128,352,52930,1,0
224,288,53344,1,0
448,64,55828,6,0,C|288:32,1,150
224,64,56656,1,0
288,128,57070,2,0,C|448:160,5,150
480,224,59553,1,0
448,288,59967,1,0
416,352,60381,2,0,C|96:288,1,300
64,256,61623,1,0
96,192,62037,1,0
256,192,63693,12,0,65348
64,64,65969,2,0,C|17:128|64:192,1,150
64,224,66590,1,0
64,256,66797,1,0
256,352,67625,2,0,C|160:256|288:128|128:0,1,525
256,192,70316,12,0,71971
384,64,72592,2,0,C|465:64|480:160,1,150
416,160,73213,1,0
480,192,73420,1,0
416,224,73627,2,0,C|416:295|320:288,1,150
288,256,74248,1,0
192,192,74662,1,0
128,64,75283,1,0
256,32,76111,5,0
256,192,76939,1,0
256,352,77766,1,0
128,288,78594,6,0,C|224:192|96:64,1,300
64,128,79836,1,0
64,192,80043,1,0
32,96,80664,6,0,B|149:29|190:44,2,150
40,170,81906,2,0,B|44:388|492:377|492:153,1,600
480,64,83975,5,0
416,128,84389,1,0
352,192,84803,1,0
288,256,85217,2,0,B|288:352|416:352,1,150
448,288,85839,1,0
384,224,86253,1,0
320,160,86666,2,0,B|224:64|96:64,1,225
64,128,87701,1,0
32,224,88115,1,0
96,288,88529,2,0,B|192:352|320:320,1,225
448,256,89977,6,0,C|480:160|448:96,1,150
416,128,90598,1,0
384,160,90805,1,0
480,192,91840,6,0,B|480:64|288:64,1,225
288,64,92668,2,0,B|160:64|128:128,1,150
128,128,93289,1,0
64,192,93910,6,0,B|64:352,2,150
160,192,95151,2,0,C|160:352|448:352|480:224,1,600
512,96,97221,6,0,C|456:144|352:128,1,150
288,96,98049,1,0
192,64,98463,2,0,C|96:32|0:128,1,225
32,224,99498,1,0
64,320,99912,1,0
192,288,100533,5,0
352,288,100947,1,0
384,192,101361,1,0
352,160,101568,2,0,C|192:32|36:65|32:384,1,675
128,352,103845,5,0
192,288,104259,1,0
256,224,104673,1,0
320,160,105086,2,0,C|384:320,1,150
416,256,105707,1,0
480,192,106121,1,0
480,96,106535,1,0
320,32,107156,1,0
224,32,107570,2,0,C|96:64|64:96,1,150
128,96,108191,1,0
