osu file format v5

[General]
AudioFilename: Nanairo Harmony.mp3
AudioLeadIn: 1500
PreviewTime: -1
Countdown: 1
SampleSet: Normal

[Metadata]
Title:Nanairo Harmony
Artist:Taiko no Tatsujin
Creator:aquabluu
Version:Insane

[Difficulty]
HPDrainRate:7
CircleSize:5
OverallDifficulty:7
SliderMultiplier:1.5
SliderTickRate:2

[Events]
//Background and Video events
0,0,"taiko.jpg"
//Break Periods
2,29099,34887
//Storyboard Layer 0 (Background)
//Storyboard Layer 1 (Failing)
//Storyboard Layer 2 (Passing)
//Storyboard Layer 3 (Foreground)
//Storyboard Sound Samples
//Background Colour Transformations
3,100,163,162,255

[TimingPoints]
2430,413.93940067502,4,1,0,100

[HitObjects]
64,64,2430,1,2
128,160,2843,2,0,B|64:224|160:320,1,150
192,352,3671,2,0,B|256:256|160:224,1,150
175,198,4292,1,0
208,178,4499,1,0
239,150,4706,1,0
251,116,4913,1,2
320,64,5327,1,0
352,96,5534,1,0
480,32,6155,6,0,B|408:61|420:168,1,150
384,192,6776,1,0
416,192,6983,1,2
448,192,7190,1,2
448,224,7397,2,2,B|383:345|120:346|48:218,1,450
32,128,9053,1,0
128,96,9466,6,0,B|98:63|129:15,1,75
192,32,9880,2,0,B|224:66|190:106,1,75
192,160,10294,2,0,B|166:194|191:232,1,75
256,224,10708,2,0,B|289:183|253:144,1,75
288,96,11122,1,0
320,64,11329,1,0
416,96,11743,1,0
448,128,11950,1,2
416,160,12157,2,2,B|435:266|378:318,1,150
352,320,12778,1,0
256,352,13192,1,0
160,320,13606,1,0
87,256,14020,2,0,B|17:199|16:126,1,150
32,96,14641,1,0
64,64,14848,1,0
96,32,15055,1,0
96,32,15158,1,0
96,32,15262,1,0
224,32,15676,6,2,B|312:40|371:99,1,150
416,96,16296,1,0
320,160,16710,1,2
320,160,16814,1,2
320,160,16917,1,2
416,224,17331,6,0,B|476:298|420:366,1,150
384,288,17952,1,0
320,320,18159,2,0,B|301:283|343:239,1,75
294,202,18573,1,0
232,211,18780,1,0
192,288,19401,6,0,B|128:320|96:288,2,75
96,224,20229,1,0
64,192,20436,1,2
32,160,20643,2,2,B|233:-13|454:212,1,450
384,256,22299,1,0
288,288,22713,6,0,B|326:342|266:371,1,75
224,352,23126,2,0,B|182:314|230:267,1,75
224,224,23540,1,0
256,192,23747,1,0
288,160,23954,2,0,B|312:86|443:93,1,150
480,128,24575,1,0
480,224,24989,1,0
448,320,25403,1,0
356,262,25817,1,0
356,262,25921,1,0
356,262,26024,1,0
256,192,26438,5,0
224,288,26852,1,0
160,320,27059,1,0
96,320,27266,1,0
32,288,27473,1,2
64,224,27680,1,2
32,160,27887,1,0
96,64,28301,1,0
96,64,28404,1,0
96,64,28508,1,0
143,41,28715,1,0
192,64,28922,1,4
255,189,35959,5,0
160,160,36373,1,0
128,128,36580,1,0
128,96,36786,1,0
160,64,36993,1,0
160,64,37097,1,0
160,64,37200,1,0
256,32,37614,2,0,B|309:31|349:81,1,75
352,96,38028,1,0
384,128,38235,1,2
352,160,38442,1,0
384,192,38649,1,2
352,224,38856,1,0
256,288,39270,5,0
192,320,39477,2,2,B|148:334|109:286,1,75
96,256,39891,1,0
64,224,40098,1,0
32,192,40305,1,2
32,192,40408,1,2
32,192,40512,1,2
32,64,40926,1,0
96,32,41133,1,0
160,60,41340,2,0,B|166:104|192:145,1,75
234,132,41754,1,2
288,133,41961,2,0,B|314:92|316:35,1,75
358,40,42375,1,4
416,32,42582,6,0,B|458:78|443:129,1,75
384,96,42996,2,0,B|373:125|410:163,1,75
448,160,43410,2,0,B|479:209|440:251,1,75
401,250,43823,1,0
416,286,44030,1,2
411,316,44237,1,2
381,336,44444,1,0
340,333,44651,1,0
224,352,45065,1,0
96,288,45479,1,0
32,192,45893,5,0
64,160,46100,1,0
96,192,46307,1,0
192,192,46721,1,0
160,160,46928,1,0
160,128,47135,2,0,C|135:25|267:29|251:148|397:150|418:49,1,600
320,64,49205,5,0
448,32,49619,1,0
480,160,50033,1,0
432,191,50240,1,0
384,160,50446,2,0,C|306:135|254:198,1,150
326,204,51067,1,0
384,224,51274,2,0,C|336:271|248:241,1,150
224,224,51895,1,0
192,192,52102,2,0,C|220:112|132:136,1,150
128,160,52723,1,0
96,160,52930,1,2
32,64,53344,1,0
160,32,53758,1,4
320,32,54172,5,0
480,64,54586,1,0
448,192,55000,1,0
448,320,55828,6,0,C|411:271|365:347,1,150
320,320,56449,1,0
288,288,56656,1,0
256,256,56863,1,0
224,288,57070,2,2,B|259:354|24:356|60:274,1,225
64,256,57897,2,2,B|115:224|111:111|42:57,1,225
64,32,58725,2,0,B|141:22|140:120|194:111,1,150
235,82,59346,1,0
291,57,59553,1,0
349,60,59760,1,0
402,79,59967,1,0
448,96,60174,1,0
448,96,60278,1,0
448,96,60381,2,0,B|483:280|266:331,1,300
262,296,61416,1,0
305,272,61623,1,0
336,237,61830,1,0
349,189,62037,1,4
256,128,62865,5,0
256,224,63279,1,0
256,192,63693,12,0,65348
128,160,65969,5,0
160,128,66176,1,0
160,96,66383,1,0
192,64,66590,1,0
224,64,66797,1,0
352,96,67211,1,0
384,128,67418,1,0
416,128,67625,1,0
448,160,67832,5,0
384,320,68453,1,0
352,288,68660,1,0
224,224,69074,1,0
192,256,69281,1,0
160,288,69488,1,0
128,256,69695,1,0
96,224,69902,1,0
128,192,70109,1,0
256,192,70316,12,0,71971
96,96,72592,2,0,B|80:51|159:40,1,75
213,47,73006,2,0,B|267:56|262:124,1,75
175,108,73420,1,0
160,160,73627,1,2
128,288,74041,1,0
160,320,74248,1,2
256,288,74662,2,0,B|361:274|389:182,1,150
384,160,75283,1,0
256,64,76111,5,2
96,288,76939,1,2
416,288,77766,1,4
352,224,78180,5,2
352,224,78284,1,2
352,224,78387,1,2
288,224,78594,2,0,B|238:285|156:189,1,150
192,160,79215,1,0
256,160,79422,2,0,B|165:59|118:147,1,150
128,64,80043,1,0
32,32,80664,6,0,B|104:61|92:168,1,150
96,192,81285,1,0
64,192,81492,1,0
32,192,81699,1,0
64,224,81906,2,0,B|129:345|392:346|464:218,1,450
480,128,83562,1,0
384,96,83976,6,0,B|414:63|383:15,1,75
320,32,84390,2,0,B|288:66|322:106,1,75
320,160,84803,2,0,B|346:194|321:232,1,75
256,224,85217,2,0,B|223:183|259:144,1,75
224,96,85631,1,0
192,64,85838,1,0
96,96,86252,1,0
64,128,86459,1,0
64,160,86666,2,0,B|45:266|102:318,1,150
128,320,87287,1,0
246,357,87701,1,0
364,324,88115,1,0
352,288,88322,1,0
384,256,88529,2,0,B|453:353|481:226,1,150
480,192,89150,1,0
438,143,89357,1,0
438,143,89460,1,0
438,143,89564,1,0
347,32,89978,5,0
371,83,90185,1,2
353,117,90392,1,0
311,146,90599,1,2
267,154,90806,1,0
192,32,91220,1,2
192,32,91323,1,2
192,32,91426,1,2
84,156,91840,6,0,B|24:82|80:14,1,150
128,96,92461,1,0
192,64,92668,2,0,B|211:101|169:145,1,75
192,192,93082,1,0
224,192,93289,1,0
320,96,93910,6,0,B|384:64|416:96,2,75
356,134,94531,1,2
384,160,94738,1,0
416,192,94945,1,2
448,224,95152,2,2,B|247:397|26:172,1,450
144,152,96808,1,0
124,71,97222,5,2
166,38,97429,1,0
178,84,97636,1,2
214,47,97843,1,0
231,99,98050,1,2
267,59,98256,1,0
298,99,98463,2,2,B|355:147|323:249,1,150
313,277,99084,1,0
224,320,99498,1,0
128,256,99912,1,0
64,160,100326,1,2
64,160,100430,1,2
64,160,100533,1,2
32,64,100947,6,0,B|147:48|204:110,1,150
192,128,101568,1,0
192,160,101775,2,0,B|239:254|311:231,1,150
328,209,102396,1,0
320,160,102603,1,0
363,131,102810,1,0
363,131,102913,1,0
363,131,103017,1,0
416,160,103224,1,0
448,192,103431,1,0
384,96,103845,5,0
320,32,104259,1,0
192,32,104673,1,0
128,96,105086,1,0
256,128,105500,1,0
256,160,105707,1,0
160,224,106121,1,2
352,256,106535,1,2
251,271,106949,1,0
251,271,107053,1,0
251,271,107156,1,0
128,320,107570,2,2,B|49:277|72:245,1,75
64,224,107984,1,0
32,192,108191,1,2
64,160,108398,2,2,B|172:160|142:57,1,150
200,38,109019,1,0
295,78,109433,1,0
352,93,109640,1,0
310,137,109847,1,4
