osu file format v5

[General]
AudioFilename: Nanairo Harmony.mp3
AudioLeadIn: 1500
PreviewTime: -1
Countdown: 1
SampleSet: Normal

[Metadata]
Title:Nanairo Harmony
Artist:Taiko no Tatsujin
Creator:aquabluu
Version:Hard

[Difficulty]
HPDrainRate:5
CircleSize:5
OverallDifficulty:6
SliderMultiplier:1.5
SliderTickRate:2

[Events]
//Background and Video events
0,0,"taiko.jpg"
//Break Periods
2,29099,34887
//Storyboard Layer 0 (Background)
//Storyboard Layer 1 (Failing)
//Storyboard Layer 2 (Passing)
//Storyboard Layer 3 (Foreground)
//Storyboard Sound Samples
//Background Colour Transformations
3,100,163,162,255

[TimingPoints]
2430,413.93940067502,4,1,0,100

[HitObjects]
256,192,2430,1,0
191,128,2843,2,0,B|127:187|180:284,1,150
64,288,3671,1,0
64,192,4085,2,0,B|128:36|320:32,1,300
448,32,5327,1,0
422,74,5534,1,0
439,159,6155,6,0,B|484:232|410:304,1,150
337,238,6983,1,0
351,321,7397,2,0,C|109:292|238:237|185:195,1,450
125,170,9053,1,0
0,128,9466,5,0
96,32,9880,1,0
224,32,10294,1,0
224,160,10708,1,0
96,192,11122,1,0
96,224,11329,1,0
160,320,11743,1,0
288,320,12157,2,0,C|481:317|324:105|527:81,1,675
256,96,14641,1,0
256,128,14848,1,0
448,288,15676,6,0,C|303:338|236:272,1,225
326,233,16710,1,0
279,199,16917,1,0
211,140,17331,6,0,C|144:103|80:161,1,150
46,205,17952,1,0
85,237,18159,2,0,B|98:341|192:268,1,150
224,277,18780,1,0
288,160,19401,2,0,B|381:102|293:26,1,150
224,96,20229,1,0
153,161,20643,2,0,C|18:94|346:45|360:168,1,600
512,160,22713,5,0
448,44,23126,1,0
384,128,23540,1,0
452,210,23954,2,0,C|502:282|446:325,1,150
400,325,24575,1,0
279,295,24989,1,0
256,194,25403,1,0
214,93,26024,6,0,C|137:71|66:97,1,150
91,184,26852,1,0
121,150,27059,2,0,C|290:282|358:223,1,300
335,136,28301,2,0,C|290:194|219:143,1,150
283,101,28922,1,0
37,106,35959,6,0,C|89:64|130:62,1,75
141,60,36373,1,0
244,60,36786,1,0
342,60,37200,2,0,C|379:78|399:110,1,75
456,109,37614,1,0
485,160,37821,1,0
446,204,38028,5,0
359,305,38442,1,0
220,339,38856,1,0
139,316,39270,6,0,C|95:298|79:260,1,75
65,234,39684,1,0
62,148,40098,2,0,C|58:88|99:77,1,75
128,76,40512,1,0
153,171,40926,1,0
179,224,41133,1,0
227,260,41340,5,0
340,212,41754,1,0
346,100,42168,1,0
348,32,42582,5,0
343,160,42996,1,0
276,244,43410,1,0
212,320,43823,2,0,C|182:351|129:329,1,75
110,310,44237,1,0
82,260,44444,1,0
70,203,44651,5,0
160,99,45065,1,0
316,32,45479,1,0
417,63,45893,5,0
463,97,46100,1,0
418,132,46307,1,0
415,227,46721,1,0
256,192,47135,12,0,48791
255,193,49205,5,0
138,144,49619,1,0
31,192,50033,1,0
137,259,50446,2,0,C|219:127,1,150
76,128,51274,2,0,C|161:-4,1,150
200,7,51895,2,0,C|292:148,1,150
336,133,52516,1,0
450,168,52930,1,0
366,236,53344,1,0
154,32,55828,5,0
93,111,56242,1,0
55,207,56656,1,0
100,306,57070,2,0,C|216:355|328:332,1,225
331,321,57897,2,0,C|234:285|118:212,1,225
157,186,58725,1,0
296,188,59139,1,0
227,117,59553,1,0
155,44,59967,1,0
196,27,60174,1,0
243,12,60381,2,0,B|481:116|483:282,1,375
478,312,61623,2,0,B|464:361|386:328,1,75
372,323,62037,1,0
191,192,62865,5,0
321,192,63279,1,0
411,195,63693,2,0,C|415:277|86:274|62:18,1,675
160,32,65969,1,0
160,64,66176,1,0
160,96,66383,1,0
160,128,66590,1,0
160,160,66797,1,0
256,96,67625,2,0,C|256:0|480:32|480:282|480:384,1,675
416,352,69695,5,0
371,324,69902,1,0
327,301,70109,1,0
281,276,70316,2,0,C|71:157|153:20|345:84,1,600
440,54,72592,2,0,B|519:119|441:186,1,150
398,180,73213,1,0
399,228,73420,1,0
444,228,73627,2,0,B|502:298|428:373,1,150
395,365,74248,2,0,B|300:364|237:282,1,150
128,192,75283,1,0
64,64,76111,5,0
256,320,76939,1,0
448,64,77766,1,0
384,128,78180,1,0
320,192,78594,6,0,B|160:224,1,150
127,192,79215,1,0
99,161,79422,1,0
256,160,79836,1,0
224,128,80043,1,0
73,159,80664,6,0,B|28:232|102:304,1,150
160,224,81492,1,0
161,321,81906,2,0,C|403:292|274:237|327:195,1,450
384,192,83562,1,0
480,128,83976,5,0
416,32,84390,1,0
320,32,84804,1,0
256,128,85218,1,0
320,224,85632,1,0
352,256,85839,1,0
320,352,86253,1,0
212,357,86666,2,0,B|36:336|30:119|136:56,1,375
221,34,88115,1,0
195,132,88529,2,0,B|120:216|224:256,1,150
256,224,89150,1,0
456,190,89978,6,0,B|429:72|297:36,1,225
258,39,90806,2,0,B|143:80|210:168,1,150
228,190,91426,1,0
301,244,91840,6,0,C|368:281|432:223,1,150
466,179,92461,1,0
420,143,92668,1,0
337,77,93082,1,0
288,107,93289,1,0
224,224,93910,2,0,B|131:282|219:358,1,150
288,320,94738,1,0
384,256,95152,2,0,C|519:323|191:372|177:249,1,600
0,256,97222,5,0
64,340,97635,1,0
128,224,98049,1,0
60,174,98463,2,0,C|10:102|66:59,1,150
112,59,99084,1,0
233,89,99498,1,0
256,190,99912,1,0
298,290,100533,6,0,C|375:312|446:286,1,150
421,200,101361,1,0
391,234,101568,2,0,C|222:102|154:161,1,300
177,248,102810,2,0,C|222:190|293:241,1,150
229,283,103431,1,0
351,321,103845,5,0
420,235,104259,1,0
398,126,104673,1,0
348,33,105086,2,0,B|241:35|251:140,1,150
290,160,105707,1,0
214,231,106121,1,0
108,260,106535,1,0
32,160,107156,1,0
95,63,107570,2,0,B|184:30|245:42,1,150
203,93,108191,2,0,B|432:108|423:352,1,375
260,324,109640,1,0
258,226,109847,1,0
