osu file format v6

[General]
AudioFilename: lalala happiness.mp3
AudioLeadIn: 1985
PreviewTime: -1
Countdown: 0
SampleSet: Normal
StackLeniency: 0.5
Mode: 0
LetterboxInBreaks: 0
SkinPreference:taiko

[Editor]
DistanceSpacing: 1.13999998569489
BeatDivisor: 4
GridSize: 8

[Metadata]
Title:Lalala Happiness!
Artist:Taiko no Tatsujin
Creator:Zekira
Version:Oni
Source:
Tags:

[Difficulty]
HPDrainRate:5
CircleSize:5
OverallDifficulty:7
SliderMultiplier:1.4
SliderTickRate:1

[Events]
//Background and Video events
0,0,"wall_1024Sepia.jpg"
//Break Periods
//Storyboard Layer 0 (Background)
//Storyboard Layer 1 (Fail)
//Storyboard Layer 2 (Pass)
//Storyboard Layer 3 (Foreground)
//Storyboard Sound Samples
//Background Colour Transformations
3,100,186,182,235

[TimingPoints]
955,315.789473684211,4,1,1,74,1,0
11060,-100,4,1,1,74,0,1
21165,-100,4,1,1,74,0,0
64112,-100,4,1,1,74,0,1
71691,-100,4,1,1,74,0,0
74218,-100,4,1,1,74,0,1
89376,-100,4,1,1,74,0,0

[Colours]
Combo1 : 184,184,255
Combo2 : 243,89,34
Combo3 : 112,196,193
Combo4 : 255,41,202

[HitObjects]
256,192,954,1,0
256,192,1586,5,2
96,40,2218,5,0
256,40,2533,1,2
416,40,2849,1,0
336,176,3165,2,0,B|336:96,1,70
256,192,4112,5,2
416,344,4744,5,0
256,344,5060,1,2
96,344,5376,1,0
176,208,5691,2,0,B|176:288,1,70
256,192,6639,5,6
256,192,7270,1,6
256,192,7902,1,6
72,344,8533,6,4,B|136:288,1,70,4|6
256,192,9007,5,4
440,40,9323,6,4,B|376:96,1,70,4|6
512,192,9797,5,0
432,192,9955,2,0,B|432:136,2,35
432,112,10270,1,2
360,72,10428,1,0
288,32,10586,1,2
224,80,10744,1,0
288,120,10902,1,2
256,192,11060,5,0
256,352,11376,2,0,B|168:352,1,70,2|0
184,192,11849,2,0,B|264:192,1,70,0|2
416,192,12323,1,0
496,176,12481,1,0
496,96,12639,1,2
416,80,12797,1,0
360,136,12955,1,0
256,16,13270,1,0
256,16,13428,1,0
256,352,13902,6,0,B|344:352,1,70,2|0
328,192,14376,2,0,B|248:192,1,70,0|2
96,192,14849,1,0
16,176,15007,1,0
16,96,15165,1,2
96,80,15323,1,0
152,136,15481,1,0
256,16,15797,1,0
256,16,15955,1,0
96,192,16428,5,2
96,192,16586,1,0
416,192,16902,5,0
416,192,17060,1,2
256,192,17376,5,0
96,192,17691,5,2
96,192,17849,1,0
416,192,18165,5,0
416,192,18323,1,2
416,344,18639,5,0
256,344,18797,1,0
256,24,19112,1,2
24,240,19428,1,2
144,128,19586,1,2
256,240,19902,5,2
320,192,20060,1,2
320,152,20139,1,2
320,112,20218,1,2
256,64,20376,1,0
256,64,20533,1,2
256,64,20691,1,0
256,64,20849,1,2
256,208,21007,12,2,23218
256,192,23533,5,0
256,352,23849,1,0
256,272,24007,1,6
392,192,24323,1,0
256,112,24639,1,6
256,32,24797,1,0
256,352,25112,5,0
256,272,25270,1,6
120,192,25586,1,0
256,112,25902,1,6
256,32,26060,1,4
256,32,26376,5,0
256,112,26533,1,6
392,192,26849,1,0
256,272,27165,1,6
256,352,27323,1,0
256,32,27639,5,0
256,112,27797,1,6
120,192,28112,1,0
256,272,28428,1,6
496,192,28744,6,0,B|408:192,1,70
256,344,29218,2,2,B|256:256,1,70
16,192,29691,2,0,B|104:192,1,70,0|2
256,40,30165,1,4
256,40,30481,1,6
256,40,30797,1,6
256,192,31112,5,0
256,352,31428,2,0,B|304:360|312:296,1,70,0|2
408,192,31902,1,0
256,32,32218,2,0,B|208:24|200:88,1,70,2|0
104,192,32691,2,0,B|208:192,1,70,0|2
336,192,33165,1,0
336,272,33323,1,0
336,352,33481,1,2
256,216,33797,5,0
416,192,34112,1,2
328,56,34428,1,0
248,72,34586,1,0
176,104,34744,1,2
120,160,34902,1,0
112,320,35218,2,0,B|56:312|80:256,1,70,0|2
80,112,35691,1,0
80,112,35849,1,0
80,112,36007,1,2
80,112,36165,1,0
256,32,36481,6,0,B|208:24|200:88,1,70,0|2
104,192,36955,1,0
256,352,37270,2,0,B|304:360|312:296,1,70,2|0
408,192,37744,2,0,B|304:192,1,70,0|2
176,192,38218,1,0
176,112,38376,1,0
176,32,38533,1,2
256,168,38849,5,0
96,192,39165,1,2
184,328,39481,1,0
264,312,39639,1,0
336,280,39797,1,2
392,224,39955,1,0
400,64,40270,2,0,B|456:72|432:128,1,70,0|2
432,272,40744,1,0
432,272,40902,1,2
432,272,41060,1,2
432,272,41218,1,0
48,344,41533,5,0
48,344,41691,1,2
48,184,42007,1,0
48,104,42165,1,2
48,104,42244,1,2
48,104,42323,1,2
48,24,42481,1,0
464,344,42797,5,0
464,344,42955,1,2
464,184,43270,1,0
464,104,43428,1,2
464,104,43507,1,2
464,104,43586,1,2
328,192,43902,5,0
328,192,44218,1,2
168,192,44533,1,0
88,192,44691,1,0
88,112,44849,1,2
168,112,45007,1,0
168,272,45323,5,0
168,272,45481,1,2
328,272,45797,1,0
408,272,45955,1,0
408,352,46112,1,2
328,352,46270,1,0
464,344,46586,5,2
464,344,46665,1,2
464,344,46744,1,2
464,264,46902,1,0
464,184,47060,1,0
464,104,47218,1,2
464,104,47297,1,2
464,104,47376,1,2
464,24,47533,1,0
48,344,47849,5,2
48,344,47928,1,2
48,344,48007,1,2
48,264,48165,1,0
48,184,48323,1,0
48,104,48481,1,2
48,104,48560,1,2
48,104,48639,1,2
184,192,48955,5,0
184,192,49270,1,2
344,192,49586,1,0
344,192,49744,1,2
344,352,50060,1,0
424,352,50218,1,0
424,272,50376,1,2
344,272,50533,1,0
256,136,50849,1,0
312,192,51007,1,0
256,248,51165,1,2
312,312,51323,1,2
256,368,51481,5,0
96,368,51797,1,2
256,368,52112,1,0
416,368,52428,1,2
472,312,52586,1,0
496,232,52744,1,0
496,152,52902,1,2
472,72,53060,1,0
336,152,53376,1,2
256,288,53691,1,0
256,288,53849,1,0
256,288,54007,5,0
128,192,54323,2,2,B|128:120,1,70,2|0
256,224,54797,1,2
256,64,55112,1,0
256,144,55270,1,0
256,224,55428,1,0
256,304,55586,1,2
368,192,55902,1,2
408,192,55981,1,2
448,176,56060,1,2
392,120,56218,1,2
328,72,56376,1,2
256,16,56533,5,0
416,16,56849,1,2
256,16,57165,1,0
96,16,57481,1,2
40,72,57639,1,0
16,152,57797,1,0
16,232,57955,1,2
40,312,58112,1,0
176,232,58428,1,2
216,168,58586,1,2
256,96,58744,1,0
256,96,58902,1,0
256,96,59060,5,4
40,352,59376,5,2
40,352,59533,1,0
472,352,59849,5,0
472,352,60007,1,2
256,96,60323,5,4
40,352,60639,5,2
40,352,60797,1,0
472,352,61112,5,0
472,352,61270,1,2
256,96,61586,5,4
256,336,62849,5,2
176,336,63007,1,0
136,336,63086,1,0
96,336,63165,1,0
24,304,63323,1,2
96,264,63481,1,0
176,264,63639,1,2
216,264,63718,1,2
256,264,63797,1,2
256,192,63955,1,2
256,192,64112,5,0
256,32,64428,2,0,B|344:32,1,70,2|0
328,192,64902,2,0,B|248:192,1,70,0|2
96,192,65376,1,0
16,208,65533,1,0
16,288,65691,1,2
96,304,65849,1,0
152,248,66007,1,0
256,368,66323,1,0
256,368,66481,1,0
256,32,66955,6,0,B|168:32,1,70,2|0
184,192,67428,2,0,B|264:192,1,70,0|2
416,192,67902,1,0
496,208,68060,1,0
496,288,68218,1,2
416,304,68376,1,0
360,248,68533,1,0
256,368,68849,1,0
256,368,69007,1,0
416,192,69481,5,2
416,192,69639,1,0
96,192,69955,5,0
96,192,70112,1,2
256,192,70428,5,0
416,192,70744,5,2
416,192,70902,1,0
96,192,71218,5,0
96,192,71376,1,2
96,40,71691,5,4
256,40,71849,1,4
256,360,72165,1,6
488,144,72481,1,6
368,256,72639,1,6
256,144,72955,5,2
192,192,73112,1,0
192,232,73191,1,0
192,272,73270,1,0
256,320,73428,1,2
256,320,73586,1,0
336,320,73744,1,2
336,320,73823,1,2
336,320,73902,1,2
296,248,74060,1,2
256,192,74218,5,0
256,352,74533,2,0,B|344:352,1,70,2|0
328,192,75007,2,0,B|248:192,1,70,0|2
176,192,75323,1,0
136,192,75402,1,0
96,192,75481,1,0
16,176,75639,1,0
16,96,75797,1,2
96,80,75955,1,0
152,136,76112,1,4
256,16,76428,1,4
256,16,76586,1,4
256,352,77060,6,0,B|168:352,1,70,2|0
184,192,77533,2,0,B|264:192,1,70,0|2
336,192,77849,1,0
376,192,77928,1,0
416,192,78007,1,0
496,176,78165,1,0
496,96,78323,1,2
416,80,78481,1,0
360,136,78639,1,4
256,16,78955,1,4
256,16,79112,1,4
416,192,79586,5,2
416,192,79744,1,0
96,192,80060,5,0
96,192,80218,1,2
256,192,80376,5,0
256,192,80455,1,0
256,192,80533,1,0
416,192,80849,5,2
416,192,81007,1,0
96,192,81323,5,0
96,192,81481,1,2
96,344,81797,5,4
256,344,81955,1,4
256,24,82270,1,6
488,240,82586,1,6
368,128,82744,1,6
256,240,83060,5,0
192,192,83218,1,2
192,152,83297,1,2
192,112,83376,1,2
256,64,83533,1,0
336,64,83691,1,2
336,64,83770,1,2
336,64,83849,1,2
416,64,84007,1,0
416,64,84165,1,0
416,224,84481,5,0
336,224,84639,1,6
256,360,84955,1,0
176,360,85112,1,0
96,360,85270,1,6
16,360,85428,1,0
96,224,85744,1,0
96,144,85902,1,6
96,64,86060,1,0
136,64,86139,1,0
176,64,86218,1,0
256,64,86376,1,0
336,64,86533,1,6
416,64,86691,1,0
416,224,87007,5,0
336,224,87165,1,6
256,360,87481,1,0
176,360,87639,1,0
96,360,87797,1,6
16,360,87955,1,0
96,224,88270,1,0
96,144,88428,1,6
96,64,88586,1,0
136,64,88665,1,0
176,64,88744,1,0
256,64,88902,1,0
256,64,89060,1,6
256,360,89376,6,0,B|344:360,1,70
512,192,89849,2,2,B|512:112,1,70
256,24,90323,2,0,B|168:24,1,70
0,192,90797,2,2,B|0:272,1,70
256,360,91270,5,0
512,192,91428,5,2
256,24,91586,5,0
0,192,91744,5,2
160,120,92218,5,4
160,264,92376,1,4
352,264,92533,1,6
352,120,92691,1,6
48,32,93165,5,4
48,352,93323,1,4
464,352,93481,1,6
464,32,93639,1,6
256,192,93955,5,4
256,192,94270,1,6
256,208,95060,12,6,97270
