osu file format v5

[General]
AudioFilename: Kitasaitama2000.mp3
AudioLeadIn: 2007
PreviewTime: -1
Countdown: 1
SampleSet: Soft
EditorBookmarks: 65648,117514

[Metadata]
Title:Kita Saitama2000
Artist:Taiko no Tatsujin
Creator:aquabluu
Version:Normal

[Difficulty]
HPDrainRate:4
CircleSize:4
OverallDifficulty:4
SliderMultiplier:0.8
SliderTickRate:2

[Events]
//Background and Video events
//Break Periods
2,42926,50177
2,81786,88010
//Storyboard Layer 0 (Background)
//Storyboard Layer 1 (Failing)
//Storyboard Layer 2 (Passing)
//Storyboard Layer 3 (Foreground)
//Storyboard Sound Samples
//Background Colour Transformations
3,100,255,255,255

[TimingPoints]
15,270.331155665691,4,2,0,100
59240,269.094497017536,4,2,0,100
73220,270.331155665691,4,2,0,100
97330,269.094497017536,4,2,0,100
118080,270.331155665691,4,2,0,100

[HitObjects]
257,193,15,1,0
87,31,1096,6,0,B|180:27|140:80|77:96|96:153,1,160
203,134,2177,1,2
446,305,3258,6,0,B|372:320|367:260|431:240|388:194,1,160
284,195,4340,1,2
66,305,5421,6,0,B|140:320|145:260|81:240|124:194,1,160
228,195,6502,1,2
456,45,7584,6,0,B|382:30|377:90|441:110|398:156,1,160
294,155,8665,1,4
138,37,9746,5,0
35,136,10287,1,0
130,242,10828,1,2
246,211,11368,2,2,B|178:137|251:52,1,160
324,135,12450,1,4
374,37,12990,5,0
477,136,13531,1,0
382,242,14072,1,2
266,210,14612,2,2,B|334:136|261:51,1,160
187,135,15694,1,2
66,136,16234,5,0
121,202,16505,1,0
69,269,16775,1,0
128,324,17045,2,4,B|169:352|213:325,1,80
347,323,17856,6,0,B|437:296|462:198,2,160
360,244,19208,1,0
322,172,19478,1,2
373,104,19749,5,0
315,47,20019,1,0
255,104,20289,1,2
196,46,20560,1,2
143,103,20830,1,0
92,40,21100,2,0,B|20:106|101:196,1,160
144,226,21911,1,4
220,268,22182,6,2,B|255:222|213:179,2,80
320,272,22993,6,2,B|284:234|315:185,3,80
390,232,24074,6,0,B|418:192|378:145,1,80
482,158,24615,2,0,B|465:194|492:244,1,80
407,301,25155,2,2,B|443:339|478:296,3,80
500,215,26237,6,0,B|500:95|392:7|392:7|283:87|297:227,1,480
247,151,28129,2,0,B|270:272|161:357|161:357|35:284|62:142,1,480
106,186,30021,5,2
2,210,30292,2,0,B|-10:86|98:-2|98:-2|207:78|202:209,1,480
263,149,32184,2,0,B|240:270|349:355|349:355|475:282|448:140,1,480
503,283,34346,5,2
500,215,34616,2,0,B|500:95|392:7|392:7|283:87|297:227,1,480
247,151,36509,2,0,B|270:272|161:357|161:357|35:284|62:142,1,480
106,186,38401,5,2
2,210,38671,2,0,B|-10:86|98:-2|98:-2|207:78|202:209,1,480
263,149,40564,2,0,B|240:270|349:355|349:355|475:282|448:140,1,480
391,91,42456,1,0
362,170,42726,1,4
64,64,51377,5,0
160,160,51917,1,0
256,64,52458,1,0
352,160,52999,1,4
352,64,53539,5,0
256,160,54080,1,0
160,64,54621,1,0
64,160,55161,1,4
195,234,55702,6,2,B|227:266|259:298|355:266,1,160
273,210,56783,2,2,B|375:230|357:100,1,160
290,140,57865,2,2,B|252:72|190:87|143:115,1,160
88,248,59216,5,0
141,310,59508,1,2
201,250,59777,1,2
257,312,60047,1,2
311,251,60316,1,0
372,313,60585,1,0
431,251,60854,1,4
427,98,61392,5,0
366,38,61661,1,0
299,97,61930,1,2
229,37,62199,1,2
144,95,62469,1,0
64,32,62737,1,0
32,128,63007,1,4
32,271,63545,5,0
107,333,63814,1,2
173,256,64083,1,2
245,321,64352,1,0
319,256,64621,1,0
384,323,64890,2,2,B|451:303|461:266,1,80
429,203,65428,1,0
429,202,65563,1,0
429,202,65697,1,4
424,102,65967,5,0
371,40,66236,1,2
312,100,66505,1,2
255,38,66774,1,0
201,99,67043,1,0
140,37,67312,1,0
71,103,67581,1,4
64,256,68119,5,0
125,316,68388,1,0
191,257,68658,1,2
254,318,68927,1,2
336,256,69196,1,0
410,328,69465,1,0
453,249,69734,1,4
449,127,70272,5,0
383,64,70541,1,0
320,125,70810,1,2
250,64,71079,1,0
180,126,71348,1,0
119,60,71618,2,2,B|52:80|42:117,1,80
83,181,72156,1,0
83,182,72290,1,0
83,182,72425,1,2
157,237,72694,1,4
347,323,73220,6,2,B|437:296|462:198,2,160
360,244,74571,1,0
322,173,74841,1,0
373,104,75112,5,0
315,47,75382,1,0
255,104,75652,1,2
196,46,75923,1,2
143,103,76193,1,0
92,40,76463,2,0,B|20:106|101:196,1,160
144,226,77274,1,4
220,268,77545,6,2,B|255:222|213:179,2,80
320,272,78356,6,2,B|284:234|315:185,3,80
390,232,79437,6,0,B|418:192|378:145,1,80
482,158,79978,2,0,B|465:194|492:244,1,80
256,192,80518,12,0,81600
256,192,88628,12,0,90791
140,332,91872,5,0
37,233,92413,1,0
132,127,92954,1,2
248,158,93494,2,2,B|180:232|253:317,1,160
327,234,94576,1,2
446,248,95116,5,0
391,182,95387,1,0
443,115,95657,1,0
377,53,95927,2,2,B|336:25|292:52,3,80
160,128,97346,5,0
160,224,97599,1,0
256,192,97868,1,0
224,288,98137,1,0
320,256,98406,1,2
383,320,98675,1,2
448,256,98944,1,4
427,98,99482,5,0
366,38,99751,1,0
299,97,100020,1,2
229,37,100290,1,2
141,99,100559,1,0
59,43,100828,1,0
46,139,101097,1,4
51,252,101635,5,0
116,320,101904,1,0
180,254,102173,1,2
245,321,102442,1,0
319,256,102711,1,0
384,322,102980,2,2,B|451:302|461:265,1,80
429,203,103519,1,0
429,202,103653,1,0
429,202,103788,1,4
424,102,104057,5,0
371,40,104326,1,2
311,100,104595,1,2
255,38,104864,1,0
201,99,105133,1,0
140,37,105402,1,0
71,103,105671,1,4
64,256,106210,5,0
125,316,106479,1,0
191,257,106748,1,2
253,319,107017,1,2
321,252,107286,1,0
393,320,107555,1,0
451,254,107824,1,4
449,127,108362,5,0
383,64,108631,1,2
320,124,108901,1,2
250,64,109170,1,0
180,126,109439,1,0
119,60,109708,2,2,B|52:80|42:117,1,80
83,181,110246,1,0
83,182,110381,1,0
83,182,110515,1,4
46,287,110784,5,0
131,333,111053,2,2,B|140:245|219:204|236:240,1,160
289,299,111861,2,0,B|331:273|351:229,1,80
432,216,112399,1,2
395,132,112668,2,2,B|307:179|248:80,1,160
192,31,113475,2,0,B|141:54|130:102,1,80
76,146,114013,1,0
76,146,114148,1,0
76,146,114282,1,4
135,206,114552,5,0
189,149,114821,1,0
241,208,115090,1,2
184,264,115359,1,2
276,283,115628,1,2
334,227,115897,2,2,B|345:191|311:151,2,80
407,261,116704,1,0
490,216,116973,1,2
495,131,117242,1,0
495,131,117377,1,0
495,131,117512,1,2
248,23,118080,5,0
384,104,118620,1,0
341,191,118890,1,2
259,226,119161,1,2
169,191,119431,1,4
